osu file format v7

[General]
AudioFilename: Yuduki - Dear You (Vocal Version).mp3
AudioLeadIn: 0
PreviewTime: 34512
Countdown: 0
SampleSet: Soft
StackLeniency: 0.7
Mode: 0
LetterboxInBreaks: 1

[Editor]
Bookmarks: 34512,56581,78650,89684,133822,155891,200029
DistanceSpacing: 1
BeatDivisor: 4
GridSize: 16

[Metadata]
Title:Dear You (Vocal Version)
Artist:Yuduki
Creator:Natteke desu
Version:Hard
Source:Higurashi no Naku Koro ni
Tags:sterrum garven

[Difficulty]
HPDrainRate:7
CircleSize:4
OverallDifficulty:7
SliderMultiplier:2.1
SliderTickRate:1

[Events]
//Background and Video events
0,0,"bg.jpg"
//Break Periods
//Storyboard Layer 0 (Background)
//Storyboard Layer 1 (Fail)
//Storyboard Layer 2 (Pass)
//Storyboard Layer 3 (Foreground)
//Storyboard Sound Samples
//Background Colour Transformations
3,100,163,162,255

[TimingPoints]
1409,689.655172413793,4,2,0,60,1,0
56408,-100,4,1,0,31,0,0
56752,-100,4,2,0,60,0,0
57788,-100,4,1,0,30,0,0
58132,-100,4,2,0,60,0,0
59167,-100,4,1,0,30,0,0
59511,-100,4,2,0,60,0,0
60891,-100,4,1,0,31,0,0
61235,-100,4,2,0,60,0,0
61926,-100,4,1,0,30,0,0
62270,-100,4,2,0,60,0,0
63305,-100,4,1,0,30,0,0
63649,-100,4,2,0,60,0,0
64684,-100,4,1,0,31,0,0
65028,-100,4,2,0,60,0,0
66409,-100,4,1,0,30,0,0
66753,-100,4,2,0,60,0,0
67443,-100,4,1,0,30,0,0
67787,-100,4,2,0,60,0,0
68822,-100,4,1,0,30,0,0
69166,-100,4,2,0,60,0,0
70202,-100,4,1,0,29,0,0
70546,-100,4,2,0,60,0,0
71926,-100,4,1,0,30,0,0
72270,-100,4,2,0,60,0,0
72960,-100,4,1,0,30,0,0
73304,-100,4,2,0,60,0,0
74340,-100,4,1,0,31,0,0
74684,-100,4,2,0,60,0,0
75719,-100,4,1,0,31,0,0
76063,-100,4,2,0,60,0,0
77443,-100,4,1,0,30,0,0
77787,-100,4,2,0,60,0,0
78477,-100,4,1,0,29,0,0
78821,-100,4,2,0,60,0,0
79857,-100,4,1,0,29,0,0
80201,-100,4,2,0,60,0,0
81236,-100,4,1,0,29,0,0
81580,-100,4,2,0,60,0,0
82960,-100,4,1,0,30,0,0
83304,-100,4,2,0,60,0,0
83995,-100,4,1,0,29,0,0
84339,-100,4,2,0,60,0,0
85374,-100,4,1,0,29,0,0
85718,-100,4,2,0,60,0,0
86753,-100,4,1,0,30,0,0
87097,-100,4,2,0,60,0,0
88477,-100,4,1,0,30,0,0
88822,-100,4,2,1,71,0,0
89512,-100,4,1,1,41,0,0
89684,-100,4,1,1,41,0,1
89856,-100,4,2,1,71,0,1
90977,-100,4,1,1,50,0,1
91149,-100,4,2,1,71,0,1
92357,-100,4,1,1,50,0,1
92615,-100,4,2,1,60,0,1
94081,-100,4,1,1,49,0,1
94253,-100,4,2,1,61,0,1
95115,-100,4,1,1,41,0,1
95373,-100,4,2,1,61,0,1
96840,-100,4,1,1,41,0,1
97012,-100,4,2,1,61,0,1
97874,-100,4,1,1,40,0,1
98132,-100,4,2,1,61,0,1
99598,-100,4,1,1,40,0,1
99856,-100,4,2,1,61,0,1
100633,-100,4,1,1,33,0,1
100891,-100,4,2,1,61,0,1
103391,-100,4,1,1,36,0,1
103649,-100,4,2,1,61,0,1
105029,-100,4,1,1,34,0,1
105373,-100,4,2,1,61,0,1
106150,-100,4,1,1,34,0,1
106408,-100,4,2,1,61,0,1
107874,-100,4,1,1,36,0,1
108132,-100,4,2,1,61,0,1
108908,-100,4,1,1,28,0,1
109166,-100,4,2,1,61,0,1
110546,-100,4,2,1,0,0,0
111926,-100,4,2,1,41,0,0
133477,-100,4,1,1,30,0,0
134166,-100,4,2,1,60,0,0
135029,-100,4,1,1,31,0,0
135546,-100,4,2,1,60,0,0
136408,-100,4,1,1,29,0,0
136925,-100,4,2,1,60,0,0
138124,-100,4,1,1,29,0,0
138468,-100,4,2,1,60,0,0
139167,-100,4,1,1,30,0,0
139511,-100,4,2,1,60,0,0
140546,-100,4,1,1,31,0,0
140890,-100,4,2,1,60,0,0
141926,-100,4,1,1,30,0,0
142270,-100,4,2,1,60,0,0
143650,-100,4,1,1,30,0,0
143994,-100,4,2,1,60,0,0
144684,-100,4,1,1,30,0,0
145028,-100,4,2,1,60,0,0
146064,-100,4,1,1,31,0,0
146408,-100,4,2,1,60,0,0
147443,-100,4,1,1,31,0,0
147787,-100,4,2,1,60,0,0
149167,-100,4,1,1,31,0,0
149511,-100,4,2,1,60,0,0
150202,-100,4,1,1,31,0,0
150546,-100,4,2,1,60,0,0
151581,-100,4,1,1,31,0,0
151925,-100,4,2,1,60,0,0
152960,-100,4,1,1,31,0,0
153304,-100,4,2,1,60,0,0
153648,-100,4,1,1,29,0,0
153992,-100,4,2,1,60,0,0
154512,-100,4,2,1,0,0,0
155891,-100,4,2,1,70,0,1
168477,-100,4,1,1,35,0,1
168821,-100,4,2,1,70,0,1
177960,-100,4,2,1,70,0,0
198822,-100,4,2,1,0,0,0

[Colours]
Combo1 : 192,217,248
Combo2 : 0,128,192
Combo3 : 128,128,192

[HitObjects]
160,96,34512,2,0,B|224:64|304:64|368:96,1,210,2|0
352,288,35891,2,0,B|288:320|208:320|144:288,1,210,2|0
416,64,37271,2,0,B|416:192|272:192,1,210,2|0
224,192,38133,1,2
176,192,38305,1,0
208,288,38650,2,0,B|352:288,2,105,0|2|0
96,288,39684,1,0
48,192,40029,6,0,B|48:64|192:64,1,210,2|0
464,192,41409,2,0,B|464:320|320:320,1,210,2|0
256,128,42788,2,0,B|192:80|128:80|48:128,1,210,2|0
64,176,43650,1,2
64,224,43822,1,0
144,288,44167,2,0,B|384:288,1,210,2|0
416,208,45202,1,4
416,96,45546,6,0,B|368:32|288:32|224:96,1,210,0|2
192,128,46409,1,0
208,176,46581,1,2
256,192,46753,1,0
304,192,46926,2,0,B|368:240|368:320|304:384,1,210,0|2
256,352,47788,1,0
224,304,47960,1,2
176,272,48133,1,0
128,256,48305,6,0,B|80:192|80:112|144:64,1,210,0|2
192,48,49167,1,0
240,64,49340,1,2
256,112,49512,1,0
272,160,49684,2,0,B|336:224|400:224|480:144,1,210
368,112,50719,1,4
128,320,51064,6,0,B|80:256|80:176|128:112,1,210,0|2
160,96,51926,1,0
208,80,52098,1,2
256,80,52271,1,0
304,96,52443,2,0,B|368:128|368:240|304:288,1,210,0|2
272,304,53305,1,0
224,304,53477,1,2
128,272,53822,6,0,B|128:64,1,157.5,0|2
176,96,54512,2,0,B|176:192,1,52.5,0|2
256,224,55029,1,0
304,256,55202,2,0,B|352:304|448:304|512:240,1,210,0|4
400,208,56236,1,2
192,96,56581,6,0,B|80:96,1,105
16,176,57271,1,2
80,256,57615,1,0
192,256,57960,2,0,B|304:256,1,105
400,256,58650,1,2
320,192,58995,1,0
320,192,59340,6,0,B|208:192,1,105
256,96,60029,2,0,B|320:64|400:64|480:96,1,210,2|0
256,272,61064,2,0,B|144:272,1,105,0|2
208,176,61753,1,0
256,80,62098,6,0,B|368:80,1,105
448,144,62788,1,2
352,208,63133,1,0
256,256,63477,2,0,B|160:288|160:224|32:272,1,210,0|2
48,160,64512,5,0
128,96,64857,1,0
208,160,65202,1,0
128,224,65546,1,2
208,304,65891,2,0,B|320:304,1,105
256,80,66581,2,0,B|144:80,1,105,0|2
256,192,67271,1,4
352,320,67615,6,0,B|464:320,1,105
416,224,68305,1,2
416,112,68650,1,0
320,160,68995,2,0,B|192:160,1,105
112,160,69684,1,2
160,64,70029,1,0
352,64,70374,6,0,B|480:64,1,105
256,192,71064,2,0,B|144:192,2,105,2|0|0
176,336,72098,2,0,B|64:336,1,105,0|2
128,240,72788,1,0
256,80,73133,6,0,B|368:80,1,105
448,144,73822,1,2
448,256,74167,1,0
448,256,74512,2,0,B|320:256,1,105
256,208,75202,1,2
256,96,75546,1,0
160,144,75891,5,0
160,256,76236,1,0
256,320,76581,1,2
352,256,76926,1,0
352,144,77271,1,0
256,96,77615,2,0,B|112:96,1,105,0|2
48,96,78305,1,4
128,272,78650,6,0,C|256:272,1,105,0|2
384,64,79684,1,2
384,176,80029,2,0,C|256:176,1,105,0|2
64,80,81064,5,2
64,80,81409,2,0,C|192:80,1,105,0|2
272,80,82098,1,0
368,128,82443,2,0,C|368:240,2,105,2|0|0
464,80,83477,1,2
368,32,83822,1,4
128,96,84167,6,0,C|128:208,1,105,0|2
400,320,85202,1,2
400,208,85546,2,0,C|400:80,1,105,0|2
112,208,86581,5,2
208,272,86926,2,0,C|336:272,1,105,0|2
256,48,87615,2,0,B|256:176|400:176,1,210,0|2
256,320,88650,2,0,B|112:320,1,105,0|4
208,224,89340,1,2
400,80,89684,6,0,B|256:80,1,105,0|2
256,192,90374,1,8
112,304,90719,2,0,B|192:304,4,52.5,0|8|0|8|0
112,192,91753,2,0,B|112:128|176:112,1,105,8|0
224,112,92271,1,0
272,112,92443,6,0,B|416:112|416:256,1,210,0|8
128,272,93477,1,0
128,224,93650,1,2
176,240,93822,1,0
176,288,93995,1,0
128,320,94167,1,0
80,288,94340,1,0
80,240,94512,1,8
128,144,94857,2,8,B|128:80,1,52.5
128,32,95202,6,0,B|352:32,1,210,0|8
384,288,96236,2,0,B|464:288,1,52.5,0|2
320,224,96581,2,0,B|256:224,1,52.5,0|2
208,224,96926,1,0
256,48,97271,1,8
352,96,97615,2,0,B|432:96,1,52.5
464,96,97960,6,0,B|464:224|320:224,1,210,0|8
96,96,98995,1,0
144,96,99167,1,2
128,144,99340,1,0
176,144,99512,1,2
160,192,99684,2,0,B|160:304,1,105,0|8
352,272,100374,2,8,B|432:272,1,52.5
464,272,100719,6,0,B|464:144|320:144,1,210,0|8
256,64,101753,2,0,B|160:64,1,52.5,0|8
256,320,102271,2,0,B|320:320,1,52.5,8|0
352,224,102788,2,0,B|224:224,1,105,8|0
192,224,103305,1,2
144,224,103477,6,0,B|0:224|32:80,1,210,0|8
128,128,104512,2,0,B|224:128,1,52.5,0|2
240,128,104857,1,0
384,32,105202,1,0
480,176,105546,1,8
320,256,105891,2,8,B|400:320,1,52.5
176,256,106236,6,0,B|176:128|32:128,1,210,0|8
176,256,107271,2,0,B|272:256,1,52.5,0|2
256,208,107615,2,0,B|384:208,1,105,0|0
384,112,108305,1,8
128,112,108650,2,0,B|48:96,1,52.5,0|2
48,144,108995,6,0,B|48:288|192:288,1,210,0|8
208,256,109857,1,2
224,208,110029,1,0
256,112,110374,5,4
256,192,110719,12,2,111753
256,192,112098,5,0
256,192,112443,1,2
80,64,113133,2,0,C|192:64,1,105,0|2
256,128,113822,1,0
336,64,114167,1,2
416,128,114512,2,0,C|416:240,1,105,0|2
336,304,115202,1,0
256,240,115546,1,2
256,128,115891,2,0,C|32:128,2,210,0|2|0
336,192,117615,5,2
256,256,117960,1,2
208,288,118133,1,0
160,304,118305,1,2
112,304,118477,1,0
64,288,118650,2,0,B|32:208|32:144|64:80,1,210,2|0
160,32,119684,5,2
160,80,119857,1,0
160,128,120029,2,0,B|128:176|144:240,1,105,2|0
352,128,120719,2,0,B|384:176|368:240,1,105,2|0
240,320,121408,1,0
240,272,121581,1,2
240,224,121753,1,0
416,80,122098,2,0,B|368:96|288:80,1,105,2|0
96,80,122788,6,0,B|144:96|224:80,1,105,2|0
400,336,123822,1,2
400,224,124167,2,0,B|352:192|288:224,1,105,2|0
112,48,125202,1,2
112,160,125546,5,0
160,144,125719,1,2
208,160,125891,1,0
256,256,126236,2,0,B|304:288|368:256,1,105,0|2
432,192,126926,1,0
464,144,127098,1,2
432,96,127271,1,0
336,32,127615,2,0,B|288:64|224:32,1,105,0|2
96,192,128305,6,0,B|80:240|96:304,1,105,0|2
416,96,129340,1,2
416,192,129684,2,0,B|432:240|416:304,1,105,0|2
176,64,130719,5,2
336,64,131064,1,2
256,192,131408,1,0
176,320,132098,1,2
336,320,132443,1,0
256,192,132788,2,0,B|256:80,1,105,0|2
256,96,133822,6,0,B|256:224|400:224,1,210
352,128,134857,1,2
256,96,135202,2,0,B|112:96|112:224,1,210
208,192,136236,1,2
256,96,136581,6,0,B|368:112|480:32,2,210,0|2|0
144,112,138305,1,0
144,224,138650,2,2,B|256:224,1,105
384,80,139340,6,0,B|512:80,1,105
304,144,140029,1,2
304,144,140374,1,2
224,208,140719,2,0,B|112:208,1,105
144,288,141408,1,2
144,288,141753,1,2
80,208,142098,6,0,B|80:80,2,105,0|2|0
144,288,143133,1,0
256,288,143477,1,0
320,112,143822,1,0
320,112,144167,2,2,B|464:112,1,105,2|2
80,192,144857,5,0
160,112,145202,1,2
208,208,145546,1,0
288,128,145891,1,0
288,128,146236,2,0,B|416:128,2,105,0|2|0
208,48,147271,1,2
80,176,147615,6,0,B|192:176,1,105,0|2
144,272,148305,2,0,B|256:272,1,105,0|2
352,272,148995,1,0
288,192,149340,1,0
400,192,149684,1,0
352,272,150029,1,4
128,272,150374,6,0,B|16:272,1,105,0|2
256,64,151408,1,2
384,144,151753,2,0,B|496:144,1,105,0|2
256,320,152788,1,2
192,192,153133,6,0,B|64:192,1,105,0|2
320,192,153822,2,0,B|432:192,1,105,0|2
256,192,154512,12,4,155891
256,80,156236,5,2
160,160,156581,2,0,B|48:160,1,105,8|0
16,192,157098,1,2
16,240,157271,2,0,B|0:320|96:320,1,105
176,320,157960,2,0,B|288:320,1,105,8|0
320,288,158477,1,2
320,240,158650,6,0,B|320:112,1,105
160,64,159340,2,0,B|160:176,1,105,8|0
160,224,159857,1,2
176,272,160029,1,0
224,288,160202,1,2
272,288,160374,1,0
416,96,160719,2,0,B|288:96,1,105,8|2
176,272,161408,6,0,B|64:272,1,105,0|2
128,144,162098,2,0,B|128:80,4,52.5,8|2|0|2|0
256,192,163133,1,0
368,256,163477,2,0,B|480:256,1,105,8|2
256,192,164167,6,0,B|256:80,1,105,0|2
144,256,164857,1,8
176,304,165029,1,2
224,320,165202,1,0
272,320,165374,1,2
320,320,165546,2,0,B|464:320,1,105,0|2
368,224,166236,1,8
112,80,166926,6,0,B|256:80,1,105
240,128,167443,1,2
272,176,167615,2,0,B|416:176,1,105,8|0
416,208,168133,1,2
416,256,168305,2,0,B|416:368,2,105,0|0|8
256,192,169340,1,0
256,192,169512,1,2
256,192,169684,6,2,B|128:192,1,105,0|2
256,80,170374,2,0,B|320:80,1,52.5,8|2
368,80,170719,2,0,B|448:80,2,52.5,0|2|0
256,192,171408,2,0,B|144:192,1,105,0|8
64,64,172098,1,2
256,64,172443,6,0,B|384:64,1,105,0|2
304,208,173133,2,0,B|352:256,1,52.5,8|2
320,320,173477,2,0,B|272:272,1,52.5,0|2
224,288,173822,1,0
224,96,174167,1,0
64,192,174512,2,8,B|176:192,1,105,8|0
224,192,175029,1,2
272,192,175202,6,0,B|416:192,1,105
432,192,175719,1,0
432,144,175891,2,0,B|432:16,1,105,8|0
384,48,176408,1,0
336,48,176581,2,0,B|208:48|224:208,2,210,0|8|4
416,112,178305,5,2
256,192,178650,1,0
96,112,178995,1,2
256,32,179340,1,2
224,64,179512,1,0
224,112,179684,1,0
256,144,179857,1,2
256,192,180029,1,0
400,320,180719,5,2
256,256,181064,1,0
400,192,181408,1,0
256,112,181753,1,2
400,48,182098,1,0
64,192,183477,5,0
176,112,183822,1,2
192,240,184167,1,0
64,192,184512,1,2
176,112,184857,1,2
224,144,185029,1,0
256,192,185202,1,0
288,144,185374,1,2
336,112,185546,1,0
256,48,185891,5,2
176,112,186236,2,0,B|80:176,1,105,2|0
256,192,186926,1,0
336,112,187271,2,0,B|432:176,1,105,2|0
176,320,188995,5,0
256,224,189340,1,2
352,320,189684,1,0
256,224,190029,1,2
176,160,190374,1,2
192,112,190546,1,0
224,64,190719,1,0
256,32,190891,1,0
288,64,191064,1,2
320,112,191236,1,0
336,160,191408,1,2
304,208,191581,1,2
256,224,191753,6,0,B|256:336,1,105
160,304,192443,1,0
96,224,192788,2,0,B|96:112,1,105,2|0
176,64,193477,2,0,B|176:192,1,105,0|2
256,240,194167,1,0
352,192,194512,6,0,B|384:144|384:80,1,105,0|2
160,192,195202,2,0,B|128:144|128:80,1,105,0|2
256,64,195891,1,2
240,96,196064,1,0
256,128,196236,1,0
240,160,196408,1,2
256,192,196581,1,2
256,304,196926,5,0
368,304,197271,1,0
312,216,197615,1,0
256,304,197960,1,0
368,304,198305,2,0,B|488:304,1,105,2|0
256,192,198995,12,2,200029
