osu file format v9

[General]
AudioFilename: Higurashi no Naku Koro ni - Dear You (Remake).mp3
AudioLeadIn: 0
PreviewTime: 37491
Countdown: 0
SampleSet: Soft
StackLeniency: 0.5
Mode: 0
LetterboxInBreaks: 1

[Editor]
DistanceSpacing: 1
BeatDivisor: 4
GridSize: 8

[Metadata]
Title:Dear You (Vocal Version)
Artist:Yuduki
Creator:Ignacio
Version:Natteke
Source:Higurashi no Naku Koro ni
Tags:Dear You Song for the dead kenezzedward lunet natteke

[Difficulty]
HPDrainRate:6
CircleSize:4
OverallDifficulty:7
ApproachRate:7
SliderMultiplier:2
SliderTickRate:0.5

[Events]
//Background and Video events
0,0,"BG.jpg"
//Break Periods
2,114586,135556
//Storyboard Layer 0 (Background)
//Storyboard Layer 1 (Fail)
//Storyboard Layer 2 (Pass)
//Storyboard Layer 3 (Foreground)
//Storyboard Sound Samples
//Background Colour Transformations
3,100,128,0,0

[TimingPoints]
4388,689.655172413793,4,2,1,30,1,0
42663,-100,4,2,1,0,0,0
43007,-100,4,2,1,30,0,0
46112,-100,4,2,1,0,0,0
46456,-100,4,2,1,30,0,0
80077,-100,4,2,1,26,0,0
80421,-100,4,2,1,25,0,0
80765,-100,4,2,1,21,0,0
81109,-100,4,2,1,21,0,0
81453,-100,4,2,1,18,0,0
91456,-100,4,2,1,23,0,0
91800,-100,4,2,1,29,0,0
92144,-100,4,2,1,32,0,0
92488,-100,4,2,1,37,0,0
92663,-100,4,2,1,37,0,1
92665,-100,4,2,1,37,0,0
102490,-100,4,2,1,19,0,0
102834,-100,4,2,1,25,0,0
103178,-100,4,2,1,30,0,0
103522,-100,4,2,1,37,0,0
114214,-100,4,2,1,0,0,0
114558,-100,4,2,1,37,0,0
136800,-100,4,2,1,29,0,0
157490,-200,4,2,1,29,0,0
158869,-100,4,1,1,29,0,1
159042,-100,4,2,1,59,0,1
160076,-100,4,1,1,29,0,1
160420,-100,4,2,1,59,0,1
161456,-100,4,1,1,30,0,1
161800,-100,4,2,1,59,0,1
162921,-100,4,1,1,30,0,1
163179,-100,4,2,1,59,0,1
163869,-100,4,2,1,31,0,1
164213,-100,4,1,1,30,0,1
164559,-100,4,2,1,59,0,1
165680,-100,4,1,1,29,0,1
165938,-100,4,2,1,59,0,1
167059,-100,4,1,1,30,0,1
167317,-100,4,2,1,59,0,1
168352,-100,4,1,1,30,0,1
168696,-100,4,2,1,59,0,1
169387,-100,4,2,1,29,0,1
169731,-100,4,2,1,59,0,0
169904,-100,4,1,1,30,0,1
170076,-100,4,2,1,59,0,1
171111,-100,4,1,1,31,0,1
171455,-100,4,2,1,59,0,1
172576,-100,4,1,1,29,0,1
172834,-100,4,2,1,59,0,1
173956,-100,4,1,1,29,0,1
174128,-100,4,2,1,59,0,1
174904,-100,4,1,1,27,0,1
175594,-100,4,2,1,59,0,1
176628,-100,4,1,1,30,0,1
176972,-100,4,2,1,59,0,1
178007,-100,4,1,1,29,0,1
178351,-100,4,2,1,59,0,1
179387,-100,4,1,1,29,0,1
179731,-100,4,2,1,15,0,1
180076,-100,4,2,1,25,0,1
180420,-100,4,2,1,33,0,1
180938,-100,4,1,1,18,0,0
181111,-100,4,2,1,40,0,0
191800,-100,4,1,1,16,0,0
192144,-100,4,2,1,40,0,0

[Colours]
Combo1 : 23,139,255
Combo2 : 202,0,101
Combo3 : 165,165,84
Combo4 : 210,105,0

[HitObjects]
128,192,26456,5,0
216,144,26801,1,0
256,48,27146,1,2
256,48,27836,5,0
296,144,28181,1,0
384,192,28525,1,2
384,192,29215,5,0
296,240,29560,1,0
256,336,29905,1,2
256,336,30595,5,0
216,240,30940,1,0
128,192,31284,1,2
128,192,31974,6,0,B|112:136|136:80,2,100,0|0|2
384,192,33353,2,0,B|400:248|376:304,2,100,0|0|2
256,40,34732,2,0,B|280:88|256:152,2,100,0|0|2
256,344,36112,2,0,B|232:296|256:232,2,100,0|0|2
32,192,37491,6,0,B|120:192|120:136|224:136,1,200,0|2
480,192,38870,2,0,B|392:192|392:248|288:248,1,200,0|2
256,48,40250,6,0,B|232:96|256:152,1,100
352,280,40939,2,0,B|303:259|288:208,1,100,2|0
160,280,41629,2,0,B|172:228|220:204,1,100,0|0
220,204,42319,2,0,B|296:168|384:192,1,150,2|0
368,189,43008,6,0,B|301:87|385:1,1,200,0|2
144,195,44388,2,0,B|211:297|126:382,1,200,0|2
80,280,45422,1,0
232,184,45767,2,0,B|192:104|248:32,1,150
240,42,46456,6,0,B|458:42,1,200,2|0
504,107,47491,1,2
440,43,47836,1,0
392,123,48181,1,6
448,104,48525,6,0,B|480:192|400:208|448:320,1,200,0|2
440,299,49560,1,0
336,192,49905,2,0,B|208:216|176:72,1,200,0|2
288,104,50939,1,0
296,288,51284,2,0,B|424:312|456:168,1,200,0|2
336,192,52319,1,0
256,152,52663,5,0
152,56,53008,1,2
360,56,53353,1,0
256,72,53698,1,4
152,56,54043,6,0,B|221:144|143:264,1,200,0|2
360,328,55077,1,0
360,328,55422,2,0,B|290:239|368:119,1,200,0|2
408,48,56456,1,0
408,48,56801,2,0,B|473:146|403:235,1,200,0|2
104,336,57836,1,0
104,336,58181,2,0,B|38:237|108:148,1,200,0|2
106,150,59215,1,4
106,150,59560,6,0,B|160:128|216:152,1,100
216,240,60250,2,0,B|238:293|214:349,1,100,2|0
296,144,60939,2,0,B|273:90|297:34,1,100,0|0
307,236,61629,2,0,B|352:256|405:233,1,100,2|0
480,184,62319,2,0,B|384:224|376:360,2,200,0|2|0
504,256,64043,1,0
384,160,64388,1,2
488,288,64732,1,4
360,192,65077,6,0,B|320:224|320:288,1,100
416,272,65767,2,0,B|456:240|456:176,1,100,2|0
456,96,66456,2,0,B|368:96|368:32|248:32,1,200,0|2
269,32,67491,1,0
320,144,67836,6,0,B|352:184|336:240,1,100
192,240,68525,2,0,B|160:200|176:144,1,100,2|0
332,168,69215,2,0,B|348:217|314:264,1,100
179,215,69905,2,0,B|163:166|197:119,1,100,2|0
256,192,70594,5,0
256,192,70939,1,0
224,248,71284,1,2
288,248,71629,1,0
256,192,71974,2,0,B|144:168|160:32,1,200,0|2
80,120,73008,1,0
248,88,73353,6,0,B|296:64|360:88,1,100
248,88,74043,2,0,B|301:86|349:135,1,100,2|0
248,88,74732,2,0,B|297:109|319:173,1,100,0|0
248,88,75422,2,0,B|283:128|276:196,1,100,2|0
278,182,76112,6,0,B|272:234|307:274,1,100,0|0
400,288,76801,1,2
307,274,77146,1,0
368,208,77491,2,0,B|400:160|368:104,1,100
144,176,78181,2,0,B|112:224|144:280,1,100,2|0
224,152,78870,6,0,B|248:96|216:48,1,100
288,232,79560,2,0,B|264:288|296:336,1,100,2|0
256,192,80250,1,0
256,192,80594,1,0
256,192,80939,1,2
256,192,81284,1,0
184,144,81629,6,0,B|152:192|184:248,1,100
256,192,82319,1,2
256,280,82663,1,0
328,240,83008,2,0,B|360:192|328:136,1,100
256,192,83698,1,2
256,104,84043,1,0
176,144,84388,6,0,B|128:160|72:136,1,100
78,138,85077,1,2
56,104,85422,1,0
72,64,85767,1,0
112,48,86112,1,0
152,64,86456,1,2
168,104,86801,1,0
152,144,87146,6,0,B|128:192|152:248,1,100
200,192,87836,2,0,B|224:144|200:88,1,100,2|0
264,144,88525,2,0,B|240:192|264:248,1,100
312,192,89215,2,0,B|336:144|312:88,1,100,2|0
256,40,89905,5,0
232,88,90250,1,0
288,88,90594,2,0,B|344:176|288:288,1,200,2|0
256,312,91629,1,0
232,280,91974,1,4
256,248,92319,1,2
360,272,92663,6,0,B|424:168|352:64,1,200,0|2
363,82,93525,1,0
363,82,93697,1,0
152,112,94042,2,0,B|88:216|160:320,1,200,0|2
148,301,94904,1,0
148,301,95076,1,0
256,240,95421,6,0,B|256:144|312:144|312:48,1,200,0|2
311,51,96283,1,0
311,51,96456,1,0
311,51,96800,5,0
456,96,97145,1,2
400,232,97490,1,0
256,176,97835,1,4
352,144,98180,6,0,B|296:240|352:352,1,200,0|2
344,335,99042,1,0
344,335,99214,1,0
160,240,99559,2,0,B|216:144|160:32,1,200,0|2
167,48,100421,1,0
167,48,100594,1,0
256,192,100938,6,0,B|352:192|352:256|472:256,1,200,0|2
443,254,101800,1,0
443,254,101973,2,0,B|416:304|448:352,1,100
264,272,102663,1,4
312,88,103007,1,4
496,128,103352,1,4
384,200,103697,6,0,B|272:240|200:128,1,200,0|2
209,141,104559,1,0
209,141,104731,1,0
128,184,105077,2,0,B|240:144|312:256,1,200,0|2
302,242,105939,1,0
302,242,106112,1,0
302,242,106456,2,0,B|264:144|312:48,1,200,0|2
328,48,107318,1,0
344,48,107490,1,0
360,48,107663,1,0
376,48,107835,2,0,B|488:48,2,100,0|2|0
384,136,108869,1,4
384,136,109214,6,0,B|432:232|384:336,1,200,0|2
387,329,110076,1,0
387,329,110249,1,0
352,232,110594,2,0,B|144:232,1,200,0|2
136,232,111456,1,0
120,232,111628,1,0
16,232,111973,6,0,B|-32:128|32:24,1,200,0|2
40,40,112835,1,0
56,40,113007,1,0
72,48,113180,1,0
88,64,113352,2,0,B|120:112|176:96,1,100
336,96,114042,2,0,B|304:48|248:64,1,100,2|0
360,272,136456,5,0
360,272,136800,2,0,B|256:272|256:328|144:328,2,200,0|2|0
392,168,138525,1,0
360,272,138869,1,2
464,232,139214,1,0
360,272,139559,1,0
456,328,139904,1,0
360,272,140249,2,0,B|328:224|368:160,2,100,2|0|0
448,208,141283,2,0,B|480:160|440:96,2,100,0|2|0
344,168,142318,6,0,B|280:168|272:104|280:32|352:32,2,200,0|2|0
344,168,144042,2,0,B|368:216|344:264,1,100,0|2
240,216,144731,2,0,B|216:168|240:120,1,100,0|2
344,168,145421,2,0,B|392:144|440:168,1,100,0|2
392,272,146111,2,0,B|344:296|296:272,1,100,0|2
295,271,146628,1,0
295,271,146800,2,0,B|256:256|240:256,2,50,0|0|4
295,271,147490,1,2
296,160,147835,6,0,B|264:112|304:56,2,100,0|0|2
328,264,148869,1,0
216,224,149214,2,0,B|248:272|208:328,2,100,0|0|2
184,120,150249,1,0
104,192,150594,6,0,B|72:240|104:296,1,100
408,192,151283,2,0,B|440:144|408:88,1,100,2|0
488,176,151973,2,0,B|392:136|392:8,1,200,0|4
392,14,153007,1,0
312,88,153352,6,0,B|280:136|320:192,1,100,2|0
312,88,154387,1,0
200,88,154731,6,0,B|232:136|192:192,1,100,2|0
200,88,155766,1,0
88,88,156111,6,0,B|56:136|96:192,1,100,2|0
89,182,156800,2,0,B|200:184,1,100,2|0
189,182,157490,2,0,B|223:229|191:277,1,100,2|2
408,304,158869,6,0,B|328:200|440:96,1,200,4|2
440,104,159731,1,0
472,96,159904,1,0
488,192,160249,2,0,B|280:192,1,200,0|2
256,192,161111,1,0
224,192,161283,1,0
104,192,161628,6,0,B|96:288|192:288|192:376,1,200,0|2
224,368,162490,1,0
256,368,162663,1,0
288,368,162835,1,0
320,368,163007,2,0,B|319:291|415:291|407:195,1,200,0|2
256,176,164042,1,4
136,200,164387,6,0,B|112:144|144:96,2,100,0|0|2
160,224,165249,1,0
192,240,165421,1,0
224,240,165594,1,0
248,216,165766,2,0,B|272:272|240:320,2,100,0|0|2
224,192,166628,1,0
192,176,166800,1,0
160,176,166973,1,0
128,176,167145,6,0,B|0:176|16:16,1,200,0|2
14,44,168007,1,0
14,44,168180,1,0
384,208,168525,2,0,B|512:208|496:368,1,200,0|2
497,339,169559,1,4
352,312,169904,6,0,B|144:312,1,200,0|2
120,312,170766,1,0
88,312,170938,1,0
88,312,171283,2,0,B|8:224|96:104,1,200,0|2
104,104,172145,1,0
136,96,172318,1,0
168,96,172490,1,0
200,96,172663,6,0,B|304:96|304:152|416:152,2,200,0|2|0
80,48,174387,1,0
200,96,174731,1,2
136,208,175076,1,0
136,208,175421,6,0,B|96:256|144:320,1,100
272,224,176111,2,0,B|312:176|264:112,1,100,2|0
200,80,176800,2,0,B|160:128|208:192,1,100
336,96,177490,2,0,B|376:48|328:-16,1,100,2|0
200,80,178180,6,0,B|200:176|128:176|128:280,2,200,0|2|0
352,40,179904,1,4
400,192,180249,1,4
248,232,180594,1,4
296,128,180938,5,4
136,120,181283,1,0
296,152,181628,1,2
136,144,181973,1,0
296,232,182318,1,0
296,248,182490,1,0
296,264,182663,1,0
296,280,182835,1,0
296,296,183007,1,2
80,120,183697,5,0
256,72,184042,1,0
432,120,184387,1,2
328,136,184731,1,0
184,136,185076,1,0
184,136,185766,1,2
184,136,186456,5,0
344,152,186800,1,0
184,160,187145,1,2
344,176,187490,1,0
184,240,187835,1,0
184,256,188007,1,0
184,272,188180,1,0
184,288,188352,1,0
184,304,188525,1,2
80,256,188869,1,0
80,256,189214,5,0
256,304,189559,1,0
432,256,189904,1,2
328,240,190249,1,0
184,240,190594,1,0
184,240,191283,1,2
200,64,191973,5,4
312,64,192318,1,0
256,176,192663,1,2
128,176,193007,1,0
200,64,193352,1,0
224,64,193525,1,0
240,64,193697,1,0
256,64,193869,1,0
280,64,194042,1,2
256,320,194731,5,0
200,136,195076,1,0
352,240,195421,1,2
168,240,195766,1,0
312,136,196111,1,0
256,216,196800,1,2
200,320,197490,5,0
312,320,197835,1,0
256,216,198180,1,2
128,216,198525,1,0
200,320,198869,1,0
224,320,199042,1,0
240,320,199214,1,0
256,320,199387,1,0
280,320,199559,1,2
256,216,199904,1,0
256,216,200249,5,0
200,32,200594,1,0
352,136,200938,1,2
168,136,201283,1,0
312,32,201628,1,0
256,120,202318,1,2
