osu file format v14

[General]
AudioFilename: Yual - AnoYozora.mp3
AudioLeadIn: 1000
PreviewTime: 34318
Countdown: 0
SampleSet: Soft
StackLeniency: 0.4
Mode: 0
LetterboxInBreaks: 0
WidescreenStoryboard: 1

[Editor]
Bookmarks: 6427,11778,16805,22156,27345,29940,32535,35129,40156,45345,50535,55724,60913,66102,71291,76481,87021,97237,102427,107616,118156,120670,123183,125940,128372,131129,136156,141345,146535,151724,156913,162102,167291,172481,172967
DistanceSpacing: 0.5
BeatDivisor: 4
GridSize: 32
TimelineZoom: 2.4

[Metadata]
Title:Asu no Yozora Shoukaihan
TitleUnicode:アスノヨゾラ哨戒班
Artist:Yuaru
ArtistUnicode:ゆある
Creator:Asphyxia
Version:Illusion
Source:
Tags:歌い手 utaite tomorrow's night sky patrol team 歌ってみた
BeatmapID:900866
BeatmapSetID:415772

[Difficulty]
HPDrainRate:6
CircleSize:4.2
OverallDifficulty:8.3
ApproachRate:9.3
SliderMultiplier:1.9
SliderTickRate:2

[Events]
//Background and Video events
0,0,"no+text+at+all.png",0,0
//Break Periods
//Storyboard Layer 0 (Background)
//Storyboard Layer 1 (Fail)
//Storyboard Layer 2 (Pass)
//Storyboard Layer 3 (Foreground)
//Storyboard Sound Samples

[TimingPoints]
1400,324.324324324324,4,2,0,40,1,0
1400,-133.333333333333,4,2,0,40,0,0
11778,-100,4,2,1,60,0,0
22156,-133.333333333333,4,2,0,40,0,0
26859,-111.111111111111,4,2,0,40,0,0
27345,-100,4,2,1,60,0,0
29940,-100,4,2,2,40,0,0
31237,-100,4,2,2,50,0,0
32535,-100,4,2,2,60,0,0
34481,-117.647058823529,4,2,1,40,0,0
34805,-133.333333333333,4,2,0,40,0,0
35129,-76.9230769230769,4,2,1,80,0,1
60913,-90.9090909090909,4,2,1,80,0,0
76481,-153.846153846153,4,2,1,40,0,0
86535,-133.333333333333,4,2,1,40,0,0
87021,-100,4,2,1,60,0,0
97237,-100,4,2,2,60,0,0
99670,-83.3333333333333,4,2,2,60,0,0
99994,-100,4,2,2,60,0,0
103237,-83.3333333333333,4,2,2,60,0,0
104535,-100,4,2,2,60,0,0
105183,-83.3333333333333,4,2,2,60,0,0
105832,-100,4,2,2,60,0,0
107129,-83.3333333333333,4,2,2,60,0,0
107616,-100,4,2,2,60,0,0
112643,-83.3333333333333,4,2,2,60,0,0
112805,-100,4,2,2,60,0,0
118156,-133.333333333333,4,2,1,40,0,0
121886,-133.333333333333,4,2,0,40,0,0
123183,-100,4,2,1,60,0,0
130643,-111.111111111111,4,2,1,40,0,0
131129,-76.9230769230769,4,2,1,80,0,1
141345,-71.4285714285714,4,2,1,80,0,1
156913,-90.9090909090909,4,2,1,60,0,0
162102,-90.9090909090909,4,2,2,60,0,0
172481,-133.333333333333,4,2,1,60,0,0
172562,-133.333333333333,4,1,0,5,0,0
172967,-133.333333333333,4,2,0,5,0,0

[Colours]
Combo1 : 255,192,0
Combo2 : 128,255,255
Combo3 : 18,124,255
Combo4 : 255,255,0

[HitObjects]
134,112,1400,6,0,P|98:74|122:128,1,142.500005435944,2|0,0:0|0:0,0:0:0:0:
159,188,1886,2,0,B|243:162|214:221|294:208,1,142.500005435944,2|0,0:0|0:0,0:0:0:0:
369,188,2372,1,0,0:0:0:0:
324,123,2535,6,0,L|300:263,1,142.500005435944,2|0,0:0|0:0,0:0:0:0:
300,263,3183,1,2,0:0:0:0:
279,338,3345,2,0,P|314:318|364:326,1,71.2500027179719
416,348,3670,1,2,0:0:0:0:
508,258,3832,2,0,P|472:259|442:277,1,71.2500027179719
416,348,4156,1,2,0:0:0:0:
222,283,4481,5,2,0:0:0:0:
300,263,4643,2,0,L|313:189,1,71.2500027179719
251,105,4967,1,2,0:0:0:0:
341,15,5129,2,0,L|328:85,1,71.2500027179719
312,192,5454,1,2,0:0:0:0:
312,192,5778,5,2,0:0:0:0:
341,15,5940,1,2,0:0:0:0:
315,173,6102,2,0,P|347:140|413:150,1,106.875004076958
463,190,6427,6,0,B|472:232|472:232|451:336,1,142.500005435944,2|0,0:0|0:0,0:0:0:0:
404,143,6913,1,0,0:0:0:0:
494,37,7075,2,0,L|480:107,1,71.2500027179719,2|0,0:0|0:0,0:0:0:0:
334,129,7399,2,0,L|404:143,1,71.2500027179719,2|0,0:0|0:0,0:0:0:0:
287,230,7724,6,0,P|262:175|172:177,1,142.500005435944,2|0,0:0|0:0,0:0:0:0:
186,166,8372,1,2,0:0:0:0:
195,294,8535,2,0,P|217:252|214:218,1,71.2500027179719
117,141,8859,1,0,0:0:0:0:
270,29,9021,6,0,P|201:32|169:92,1,142.500005435944,2|0,0:0|0:0,0:0:0:0:
319,125,9508,1,0,0:0:0:0:
383,73,9670,2,0,L|235:94,2,142.500005435944,2|2|2,0:0|0:0|0:0,0:0:0:0:
383,73,10643,5,2,0:0:0:0:
394,150,10805,1,0,0:0:0:0:
459,103,10967,1,2,0:0:0:0:
334,201,11129,1,0,0:0:0:0:
467,182,11291,1,2,0:0:0:0:
406,231,11454,1,0,0:0:0:0:
467,182,11616,1,2,0:0:0:0:
323,124,11778,6,0,P|281:83|192:97,1,142.5,4|0,0:0|0:0,0:0:0:0:
184,117,12102,1,8,0:0:0:0:
119,275,12264,2,0,P|167:273|211:237,1,95
251,160,12589,1,0,0:0:0:0:
274,325,12751,1,8,0:0:0:0:
0,353,12913,6,0,P|42:312|131:326,1,142.5
119,275,13237,1,0,0:0:0:0:
329,349,13399,2,0,L|236:370,1,95,8|0,0:0|0:0,0:0:0:0:
247,141,13724,1,0,0:0:0:0:
179,224,13886,2,0,L|271:245,1,95,0|8,0:0|0:0,0:0:0:0:
242,124,14210,6,0,B|137:142|177:66|62:93,2,190
358,0,15021,2,0,P|319:32|313:81,1,95
455,129,15345,1,8,0:0:0:0:
390,71,15508,2,0,P|414:114|461:129,1,95
251,249,15832,2,0,P|227:292|180:307,1,95,0|8,0:0|0:0,0:0:0:0:
429,237,16156,6,0,P|366:188|288:218,1,142.5
251,249,16481,2,0,P|242:294|265:335,1,95,0|8,0:0|0:0,0:0:0:0:
149,196,16805,6,0,P|236:209|285:127,1,190,4|0,0:0|0:0,0:0:0:0:
366,105,17291,2,0,P|342:64|299:47,1,95,8|0,0:0|0:0,0:0:0:0:
216,171,17616,2,0,P|271:212|337:192,1,142.5
366,105,17940,1,8,0:0:0:0:
378,261,18102,6,0,L|334:51,2,190,2|2|2,0:1|0:1|0:1,0:0:0:0:
450,215,18913,1,0,0:0:0:0:
448,300,19075,2,0,P|405:337|354:337,1,95,2|8,0:1|0:0,0:0:0:0:
216,171,19399,1,2,0:1:0:0:
263,94,19562,5,0,0:0:0:0:
368,340,19724,2,0,P|316:315|295:269,1,95,2|8,0:1|0:0,0:0:0:0:
349,61,20048,1,2,0:1:0:0:
435,80,20210,1,0,0:0:0:0:
323,215,20372,6,0,P|328:144|379:206,1,190,2|0,0:1|0:0,0:0:0:0:
298,284,20859,2,0,P|262:313|215:318,1,95,2|0,0:1|0:0,0:0:0:0:
215,318,21183,2,0,P|179:347|132:352,1,95,8|0,0:0|0:0,0:0:0:0:
50,239,21508,2,0,P|85:209|132:204,1,95
132,204,21832,2,0,P|167:174|214:169,1,95,8|0,0:0|0:0,0:0:0:0:
223,242,22156,6,0,B|195:226|168:257|202:281|202:281|272:282|295:191|297:163|385:166|439:211|465:280|440:340|356:369|314:358|269:251|349:180|349:180|392:171|419:180|433:122|393:35|305:21|305:21|243:48|234:102|234:102|157:86|104:132,1,1104.37504212856,2|0,0:3|0:0,0:0:0:0:
41,110,24751,6,0,B|52:39|127:16|196:31|216:107|230:174|179:232|96:199|48:201|31:270|31:270|69:233|129:248,1,534.375020384789,2|0,0:3|0:0,0:0:0:0:
90,321,26048,6,0,B|157:324|179:260|179:260|243:306|188:377,1,249.375009512902,2|0,0:0|0:0,0:0:0:0:
251,223,26697,2,0,P|281:269|286:332,2,106.875004076958,2|0|0,0:0|0:0|0:0,0:0:0:0:
128,61,27345,6,0,P|196:52|202:165,1,190,4|8,0:0|0:0,0:0:0:0:
102,243,27832,2,0,L|-14:225,1,95
282,335,28156,2,0,L|166:317,1,95,0|8,0:0|0:0,0:0:0:0:
498,152,28481,6,0,B|386:148|435:217|328:222,2,190
331,130,29291,1,0,0:0:0:0:
482,247,29454,1,0,0:0:0:0:
278,276,29616,2,0,P|256:227|274:177,1,95,8|0,0:0|0:0,0:0:0:0:
331,130,29940,5,0,0:0:0:0:
431,317,30102,1,0,0:0:0:0:
265,188,30264,2,0,P|294:142|345:130,1,95
413,156,30589,1,0,0:0:0:0:
348,334,30751,1,0,0:0:0:0:
330,129,30913,2,0,P|384:131|420:169,1,95
267,27,31237,6,0,L|254:85,1,47.5
184,38,31399,2,0,L|171:96,1,47.5
101,49,31562,2,0,L|88:107,1,47.5
18,60,31724,2,0,L|5:118,1,47.5
348,177,31886,6,0,L|335:235,1,47.5
265,188,32048,2,0,L|252:246,1,47.5
182,199,32211,2,0,L|169:257,1,47.5
99,210,32373,2,0,L|86:268,1,47.5
371,352,32535,5,0,0:0:0:0:
427,358,32616,1,0,0:0:0:0:
472,324,32697,1,0,0:0:0:0:
481,267,32778,1,0,0:0:0:0:
447,220,32859,1,0,0:0:0:0:
390,213,32940,1,0,0:0:0:0:
344,247,33021,1,0,0:0:0:0:
335,303,33102,1,0,0:0:0:0:
406,285,33183,5,0,0:0:0:0:
402,270,33264,1,0,0:0:0:0:
399,256,33345,1,0,0:0:0:0:
396,242,33426,1,0,0:0:0:0:
393,228,33507,1,0,0:0:0:0:
390,213,33588,1,0,0:0:0:0:
388,198,33669,1,0,0:0:0:0:
386,183,33751,1,0,0:0:0:0:
369,106,33832,5,0,0:0:0:0:
317,82,33913,1,0,0:0:0:0:
260,87,33994,1,0,0:0:0:0:
215,122,34075,1,0,0:0:0:0:
169,156,34156,1,0,0:0:0:0:
112,157,34237,1,0,0:0:0:0:
64,126,34318,1,0,0:0:0:0:
138,66,34481,5,0,0:0:0:0:
145,80,34643,1,0,0:0:0:0:
152,94,34805,1,0,0:0:0:0:
159,108,34967,1,0,0:0:0:0:
317,246,35129,6,0,P|322:161|273:243,1,246.999988693238,4|8,0:0|0:0,0:0:0:0:
392,294,35616,2,0,P|424:235|425:199,1,61.7499971733095
420,163,35778,2,2,P|387:102|329:77,1,123.499994346619,2|0,0:1|0:1,0:1:0:0:
266,69,36021,1,0,0:0:0:0:
202,107,36102,1,8,0:0:0:0:
153,277,36264,6,0,L|171:354,1,61.7499971733095
173,360,36427,1,0,0:0:0:0:
317,246,36589,2,0,L|335:169,1,61.7499971733095
337,163,36752,1,8,0:0:0:0:
33,206,36913,6,0,P|79:222|115:217,1,61.7499971733095
180,198,37075,2,0,P|239:145|164:113,1,185.249991519928
92,139,37399,1,8,0:0:0:0:
357,77,37562,2,0,P|342:53|340:15,1,61.7499971733095
420,27,37724,5,0,0:0:0:0:
482,228,37886,2,0,P|479:258|463:284,1,61.7499971733095
400,233,38048,1,8,0:0:0:0:
208,250,38210,2,0,P|188:227|180:197,1,61.7499971733095
261,187,38372,2,0,B|154:198|199:122|90:138,1,185.249991519928
24,170,38697,1,8,0:0:0:0:
267,64,38859,2,0,P|259:93|239:116,1,61.7499971733095
187,27,39021,6,0,B|294:11|249:87|356:76,1,185.249991519928
427,108,39345,2,0,P|432:48|327:3,1,185.249991519928,8|0,0:0|0:0,0:0:0:0:
261,187,39670,2,0,L|280:262,1,61.7499971733095,0|0,1:0|0:0,0:0:0:0:
427,108,39832,2,0,L|408:183,1,61.7499971733095,8|0,0:0|0:0,0:0:0:0:
246,233,39994,2,0,L|265:308,1,61.7499971733095,8|0,0:0|0:0,0:0:0:0:
384,317,40156,5,4,0:0:0:0:
185,173,40481,2,0,P|232:116|339:184,1,185.249991519928
376,93,40805,2,0,P|397:125|391:169,1,61.7499971733095
469,179,40967,2,0,P|424:219|364:213,1,123.499994346619
327,146,41210,1,0,0:0:0:0:
376,93,41291,1,8,0:0:0:0:
231,306,41454,2,2,P|286:296|305:278,1,61.7499971733095,2|0,0:1|0:1,0:1:0:0:
246,233,41616,5,0,0:0:0:0:
103,291,41778,1,0,0:0:0:0:
143,109,41940,2,0,P|88:188|185:173,1,246.999988693238,8|0,0:0|0:0,0:0:0:0:
240,75,42427,1,0,0:0:0:0:
40,80,42589,2,0,P|95:43|160:43,1,123.499994346619,8|0,0:0|0:0,0:0:0:0:
327,146,42913,5,0,0:0:0:0:
466,93,43075,2,0,P|437:118|388:120,1,61.7499971733095
437,179,43237,2,0,P|375:141|304:157,1,123.499994346619,8|0,0:0|0:0,0:0:0:0:
257,172,43481,1,0,0:0:0:0:
224,238,43562,1,0,0:0:0:0:
43,235,43724,2,0,P|72:260|121:262,1,61.7499971733095
240,313,43886,1,8,0:0:0:0:
156,160,44048,2,0,P|126:169|104:190,1,61.7499971733095
207,289,44210,6,0,P|263:239|213:246,1,185.249991519928
393,188,44535,2,0,B|285:172|330:248|223:237,1,185.249991519928,8|0,0:0|0:0,0:0:0:0:
224,238,44859,2,0,P|190:200|188:174,1,61.7499971733095,0|0,1:0|0:0,0:0:0:0:
177,205,45021,2,0,P|175:154|190:132,1,61.7499971733095,8|0,0:0|0:0,0:0:0:0:
166,134,45183,2,0,P|197:93|222:87,1,61.7499971733095,10|0,0:0|0:0,0:0:0:0:
289,56,45345,6,0,P|357:43|391:152,1,185.249991519928,4|0,0:0|0:0,0:0:0:0:
393,188,45670,2,0,P|431:134|503:143,1,123.499994346619,0|8,0:0|0:0,0:0:0:0:
359,300,45994,1,0,0:0:0:0:
329,186,46156,2,2,P|341:159|357:224,1,185.249991519928,2|0,0:1|0:1,0:1:0:0:
296,255,46481,1,8,0:0:0:0:
393,363,46643,2,0,P|419:342|428:307,1,61.7499971733095
359,300,46805,6,0,P|301:295|255:349,1,123.499994346619
200,378,47048,1,0,0:0:0:0:
191,367,47129,2,0,P|182:335|192:304,1,61.7499971733095,8|0,0:0|0:0,0:0:0:0:
170,291,47291,2,0,P|179:259|169:228,1,61.7499971733095
171,232,47454,1,0,0:0:0:0:
205,47,47616,2,0,P|197:76|206:105,1,61.7499971733095
270,159,47778,2,0,P|330:174|287:102,1,185.249991519928,8|0,0:0|0:0,0:0:0:0:
206,105,48102,6,0,P|186:165|213:221,1,123.499994346619
271,258,48345,1,0,0:0:0:0:
345,251,48427,1,8,0:0:0:0:
312,27,48589,2,0,P|269:29|251:44,1,61.7499971733095
206,105,48751,1,0,0:0:0:0:
103,295,48913,2,0,P|146:293|164:278,1,61.7499971733095
209,217,49075,1,8,0:0:0:0:
299,338,49237,6,0,P|235:264|142:303,1,185.249991519928
209,217,49562,2,0,P|230:180|231:139,1,61.7499971733095
206,105,49724,2,0,P|169:82|128:80,1,61.7499971733095,8|0,0:0|0:0,0:0:0:0:
105,101,49886,2,0,P|84:138|83:179,1,61.7499971733095
108,213,50048,2,0,P|144:235|185:237,1,61.7499971733095,0|0,1:0|0:0,0:0:0:0:
349,238,50210,2,0,P|379:230|404:213,1,61.7499971733095,8|0,1:2|1:0,0:0:0:0:
469,121,50372,1,8,1:2:0:0:
474,138,50454,1,0,1:0:0:0:
500,212,50535,6,0,B|393:223|438:147|330:163,1,185.249991519928,4|0,0:0|0:0,0:0:0:0:
277,211,50859,2,0,P|298:150|201:108,1,185.249991519928
105,101,51183,2,0,P|124:145|120:178,1,61.7499971733095
108,213,51345,2,2,P|162:193|164:250,1,123.499994346619,2|0,0:1|0:1,0:1:0:0:
227,302,51589,1,0,0:0:0:0:
216,307,51670,1,8,0:0:0:0:
52,312,51832,2,0,P|82:309|108:292,1,61.7499971733095
108,213,51994,6,0,P|86:140|111:95,1,123.499994346619
160,51,52237,1,0,0:0:0:0:
233,59,52318,1,8,0:0:0:0:
332,230,52481,2,0,P|302:227|276:210,1,61.7499971733095
269,129,52643,1,0,0:0:0:0:
326,300,52805,2,0,P|356:298|383:282,1,61.7499971733095
482,219,52967,2,0,P|414:272|449:350,1,185.249991519928,8|0,0:0|0:0,0:0:0:0:
406,214,53291,6,0,B|373:248|331:229|331:229|268:190|226:213,1,185.249991519928
183,260,53616,2,0,P|178:335|230:283,1,185.249991519928,8|0,0:0|0:0,0:0:0:0:
233,209,53940,2,0,B|207:191|169:181|143:201|120:220|120:220|88:197|47:205,1,185.249991519928
63,203,54264,1,8,0:0:0:0:
251,70,54427,2,0,P|268:117|265:149,1,61.7499971733095
183,260,54589,6,0,P|249:278|295:177,1,185.249991519928
251,70,54913,1,8,0:0:0:0:
176,191,55075,2,0,P|207:192|233:209,1,61.7499971733095
249,277,55237,2,0,P|235:304|210:321,1,61.7499971733095,0|0,1:0|0:0,0:0:0:0:
129,139,55399,2,0,P|154:122|185:121,1,61.7499971733095,8|0,0:0|0:0,0:0:0:0:
184,383,55562,2,0,P|158:366|145:338,1,61.7499971733095,8|0,0:0|0:0,0:0:0:0:
251,70,55724,6,0,P|271:166|184:119,1,246.999988693238,4|0,0:0|0:0,0:0:0:0:
294,8,56210,2,0,P|346:53|364:113,1,123.499994346619,8|0,0:0|0:0,0:0:0:0:
293,241,56535,2,0,P|232:254|174:236,1,123.499994346619
251,70,56859,1,8,0:0:0:0:
326,305,57021,2,0,P|351:287|363:259,1,61.7499971733095
460,259,57183,6,0,P|449:229|446:294,1,246.999988693238,0|8,0:0|0:0,0:0:0:0:
293,241,57670,1,0,0:0:0:0:
455,201,57832,2,0,P|414:150|443:85,1,123.499994346619
488,43,58075,1,0,0:0:0:0:
488,55,58156,2,0,P|452:109|381:102,1,123.499994346619,8|0,0:0|0:0,0:0:0:0:
303,159,58399,1,0,0:0:0:0:
317,173,58481,6,0,B|422:181|383:113|490:130,1,185.249991519928
397,111,58805,2,0,P|337:105|306:54,1,123.499994346619,8|0,0:0|0:0,0:0:0:0:
306,54,59048,1,0,0:0:0:0:
306,54,59129,1,0,0:0:0:0:
233,193,59291,2,0,P|207:209|176:211,1,61.7499971733095
110,188,59454,1,8,0:0:0:0:
419,291,59616,6,0,B|376:246|294:260|294:260|275:272|258:296|258:296|293:274|346:291,1,246.999988693238
300,363,60021,1,0,0:0:0:0:
300,363,60102,2,0,P|355:350|373:331,1,61.7499971733095,8|0,0:0|0:0,0:0:0:0:
173,323,60264,2,0,P|145:336|115:338,1,61.7499971733095
417,217,60427,2,0,P|472:204|490:185,1,61.7499971733095,0|0,1:0|0:0,0:0:0:0:
291,178,60589,2,0,P|263:191|233:193,1,61.7499971733095,8|0,0:0|0:0,0:0:0:0:
84,98,60751,2,0,P|139:85|157:66,1,61.7499971733095,8|0,0:0|0:0,0:0:0:0:
222,15,60913,5,4,0:0:0:0:
110,188,61237,2,0,P|82:119|150:84,1,156.750004783631
93,256,61562,2,0,P|121:234|155:230,1,52.2500015945435
214,266,61724,2,0,P|242:314|226:366,1,104.500003189087
173,323,61967,1,0,0:0:0:0:
158,317,62048,1,8,0:0:0:0:
333,150,62210,2,0,P|305:172|271:176,1,52.2500015945435
364,196,62372,6,0,P|353:145|381:102,1,104.500003189087
472,123,62697,2,0,P|482:173|454:216,1,104.500003189087,8|0,0:0|0:0,0:0:0:0:
464,309,62940,1,0,0:0:0:0:
471,299,63021,2,0,B|379:297|419:246|327:250,1,156.750004783631
214,266,63345,2,0,P|196:206|255:241,1,156.750004783631,8|0,0:0|0:0,0:0:0:0:
276,304,63670,6,0,P|231:337|158:313,1,104.500003189087
28,244,63994,2,0,P|73:211|145:234,1,104.500003189087,8|0,0:0|0:0,0:0:0:0:
214,266,64237,1,0,0:0:0:0:
194,259,64318,2,0,P|157:199|211:113,1,156.750004783631
251,79,64643,1,8,0:0:0:0:
306,156,64805,2,0,L|243:170,1,52.2500015945435
237,192,64967,5,0,0:0:0:0:
432,42,65129,2,0,L|369:56,1,52.2500015945435
363,78,65291,1,8,0:0:0:0:
512,150,65454,2,0,L|449:164,1,52.2500015945435
443,186,65616,1,0,0:0:0:0:
294,279,65778,1,0,1:0:0:0:
361,284,65859,1,0,1:0:0:0:
420,250,65940,1,8,1:2:0:0:
443,186,66021,1,0,1:0:0:0:
431,119,66102,6,0,P|369:75|405:159,1,209.000006378174,4|0,0:0|0:0,0:0:0:0:
222,274,66589,2,0,P|245:224|301:209,1,104.500003189087,8|0,0:0|0:0,0:0:0:0:
294,279,66832,1,0,0:0:0:0:
294,279,66913,2,0,B|199:291|251:337|163:355,1,156.750004783631
108,249,67237,2,0,B|148:237|172:203|172:203|148:237|152:291,1,156.750004783631,8|0,0:0|0:0,0:0:0:0:
293,359,67562,5,0,0:0:0:0:
128,121,67724,2,0,P|103:166|107:186,1,52.2500015945435
222,274,67886,1,8,0:0:0:0:
49,285,68048,2,0,P|90:316|110:314,1,52.2500015945435
253,209,68210,2,0,P|253:153|151:121,1,156.750004783631
128,121,68535,2,0,P|160:75|107:-4,1,156.750004783631,8|0,0:0|0:0,0:0:0:0:
69,158,68859,6,0,P|45:87|109:151,1,209.000006378174,0|8,0:0|0:0,0:0:0:0:
49,285,69345,2,0,P|56:309|70:331,1,52.2500015945435
197,242,69508,1,0,0:0:0:0:
209,128,69670,2,0,P|202:153|188:175,1,52.2500015945435
155,293,69832,2,0,P|130:229|231:185,1,156.750004783631,8|0,0:0|0:0,0:0:0:0:
187,174,70156,6,0,P|254:203|252:277,1,156.750004783631
244,42,70481,2,0,P|275:103|210:128,1,156.750004783631,8|0,0:0|0:0,0:0:0:0:
165,133,70805,2,0,B|258:142|203:192|301:208,1,156.750004783631
369,202,71129,1,8,0:0:0:0:
432,165,71210,1,0,0:0:0:0:
504,168,71291,6,0,P|447:138|515:160,1,209.000006378174,4|0,0:0|0:0,0:0:0:0:
346,277,71778,1,8,0:0:0:0:
166,235,71940,2,0,P|214:250|243:245,1,52.2500015945435
369,202,72102,1,0,0:0:0:0:
288,323,72264,2,0,P|262:326|238:337,1,52.2500015945435
432,165,72427,1,8,0:0:0:0:
295,207,72589,2,0,P|325:167|330:138,1,52.2500015945435
369,202,72751,6,0,P|336:137|372:81,1,104.500003189087
376,44,72994,1,0,0:0:0:0:
446,25,73075,1,8,0:0:0:0:
295,207,73237,2,0,P|271:218|245:221,1,52.2500015945435
113,171,73399,1,0,0:0:0:0:
323,135,73562,2,0,P|297:131|273:120,1,52.2500015945435
432,165,73724,1,8,0:0:0:0:
245,220,73886,2,0,P|262:253|266:287,1,52.2500015945435
120,296,74048,6,0,P|153:247|132:316,1,209.000006378174,0|8,0:0|0:0,0:0:0:0:
160,110,74535,2,0,P|190:158|190:187,1,52.2500015945435
160,237,74697,2,0,P|109:254|54:229,1,104.500003189087
34,169,74940,1,0,0:0:0:0:
65,103,75021,1,8,0:0:0:0:
282,21,75183,2,0,P|252:69|252:98,1,52.2500015945435
453,134,75345,6,0,P|398:80|323:90,1,156.750004783631
397,169,75670,2,0,P|349:202|372:149,1,156.750004783631,8|0,0:0|0:0,0:0:0:0:
373,148,75994,1,0,0:0:0:0:
465,207,76156,1,0,0:0:0:0:
421,265,76237,1,0,0:0:0:0:
349,281,76318,1,8,0:0:0:0:
285,244,76399,1,0,0:0:0:0:
260,174,76481,6,0,P|287:145|268:188,1,123.499994346619,2|0,0:0|0:0,0:0:0:0:
441,284,77129,2,0,P|399:306|420:264,1,123.499994346619
349,281,77616,1,0,0:0:0:0:
494,341,77778,6,0,P|456:374|375:371,1,123.499994346619,2|0,0:0|0:0,0:0:0:0:
240,315,78427,2,0,P|278:282|359:285,1,123.499994346619
272,243,78913,1,0,0:0:0:0:
303,345,79075,6,0,P|341:372|295:370,2,123.499994346619,2|0|0,0:0|0:0|0:0,0:0:0:0:
276,167,79886,2,0,P|245:171|219:187,1,61.7499971733095
328,263,80210,1,0,0:0:0:0:
260,69,80372,6,0,P|237:123|276:167,2,123.499994346619,2|0|0,0:0|0:0|0:0,0:0:0:0:
275,240,81183,2,0,B|340:242|314:195|387:201,1,123.499994346619,2|0,0:0|0:0,0:0:0:0:
361,370,81670,6,0,P|399:325|376:272,2,123.499994346619,2|0|0,0:0|0:0|0:0,0:0:0:0:
387,201,82481,2,0,B|314:195|340:242|275:240,1,123.499994346619
423,203,82967,6,0,P|386:174|465:170,1,185.249991519928,2|0,0:0|0:0,0:0:0:0:
280,234,83616,2,0,P|339:239|386:200,1,123.499994346619
403,130,84102,1,0,0:0:0:0:
412,280,84264,6,0,L|368:95,1,185.249991519928,2|0,0:0|0:0,0:0:0:0:
346,197,84913,2,0,P|319:222|271:228,1,61.7499971733095
403,130,85237,2,0,P|430:155|478:161,1,61.7499971733095
314,48,85562,6,0,P|315:97|281:59,2,123.499994346619,2|0|0,0:0|0:0|0:0,0:0:0:0:
229,93,86372,6,0,P|252:68|292:68,1,61.7499971733095,2|0,0:0|0:0,0:0:0:0:
368,8,86697,6,0,P|341:39|301:47,1,71.2500027179719,2|0,0:0|0:0,0:0:0:0:
109,168,87021,6,0,P|173:185|219:113,1,142.5
229,93,87345,1,8,0:0:0:0:
401,301,87508,2,0,P|365:260|314:266,1,95
251,297,87832,1,0,0:0:0:0:
251,297,87994,1,0,0:0:0:0:
389,169,88156,6,0,P|416:206|462:210,1,95
302,52,88481,2,0,P|275:89|229:93,1,95,0|8,0:0|0:0,0:0:0:0:
152,55,88805,1,0,0:0:0:0:
302,187,88967,2,0,P|324:124|226:94,1,190
160,144,89454,1,0,0:0:0:0:
339,250,89616,6,0,P|324:191|403:179,1,142.5
302,187,89940,1,8,0:0:0:0:
83,256,90102,2,0,P|129:256|167:228,1,95
423,278,90427,2,0,P|385:250|338:249,1,95
218,308,90751,6,0,P|186:254|240:299,1,190
163,159,91237,2,0,P|128:109|152:59,1,95,8|0,0:0|0:0,0:0:0:0:
273,154,91562,2,0,P|298:98|354:94,1,95
348,214,91886,2,0,P|408:208|440:254,1,95
267,268,92129,1,0,0:0:0:0:
256,276,92210,6,0,B|369:285|320:210|431:228,1,190,4|8,0:0|0:0,0:0:0:0:
273,154,92697,1,0,0:0:0:0:
247,356,92859,1,0,0:0:0:0:
179,230,93021,6,0,L|83:262,1,95
261,138,93345,2,0,L|351:168,1,95
106,153,93670,2,0,L|15:122,1,95,0|8,0:0|0:0,0:0:0:0:
168,242,93994,1,0,0:0:0:0:
253,66,94156,2,0,P|195:102|204:181,1,142.5
168,242,94481,2,0,P|217:198|260:210,1,95
313,42,94805,6,0,P|285:5|239:0,1,95
106,153,95129,1,8,0:0:0:0:
423,121,95291,2,0,P|358:135|326:62,1,142.5
313,42,95616,2,0,P|346:93|321:134,1,95
247,223,95940,2,0,P|194:253|154:226,1,95
106,153,96264,5,0,0:0:0:0:
71,258,96427,2,0,P|50:221|113:152,1,142.5,8|0,0:0|0:0,0:0:0:0:
170,122,96751,2,0,P|138:86|82:86,1,95
106,153,96994,1,0,0:0:0:0:
135,184,97075,1,0,0:0:0:0:
177,190,97156,1,0,0:0:0:0:
217,176,97237,6,0,P|237:141|240:123,3,47.5
221,69,97562,2,0,P|186:47|168:44,3,47.5,0|0|8|0,0:0|0:0|0:0|0:0,0:0:0:0:
291,220,97886,1,0,0:0:0:0:
327,198,97967,1,0,0:0:0:0:
369,200,98048,1,0,0:0:0:0:
401,227,98129,1,0,0:0:0:0:
410,268,98210,1,0,0:0:0:0:
396,308,98291,1,0,0:0:0:0:
359,329,98372,1,8,0:0:0:0:
315,325,98454,1,0,0:0:0:0:
284,294,98535,1,0,0:0:0:0:
279,251,98616,1,0,0:0:0:0:
344,263,98697,5,0,0:0:0:0:
339,276,98778,1,0,0:0:0:0:
334,289,98859,1,0,0:0:0:0:
329,302,98940,1,0,0:0:0:0:
324,315,99021,1,8,0:0:0:0:
319,328,99102,1,0,0:0:0:0:
314,341,99183,1,0,0:0:0:0:
309,354,99264,1,0,0:0:0:0:
304,367,99345,5,0,0:0:0:0:
352,346,99427,1,0,0:0:0:0:
403,351,99508,1,0,0:0:0:0:
450,373,99589,1,0,0:0:0:0:
501,362,99670,2,0,P|489:303|474:294,1,56.9999982604981,8|0,0:0|0:0,0:0:0:0:
446,256,99832,2,0,P|393:227|376:232,1,56.9999982604981
279,251,99994,5,0,0:0:0:0:
272,229,100075,1,0,0:0:0:0:
265,207,100156,1,0,0:0:0:0:
258,185,100237,1,0,0:0:0:0:
251,163,100318,1,8,0:0:0:0:
244,141,100400,1,0,0:0:0:0:
237,119,100481,1,0,0:0:0:0:
230,97,100562,1,0,0:0:0:0:
223,75,100643,5,0,0:0:0:0:
214,126,100724,1,0,0:0:0:0:
167,150,100805,1,0,0:0:0:0:
115,142,100886,1,0,0:0:0:0:
87,97,100967,1,8,0:0:0:0:
94,45,101048,1,0,0:0:0:0:
137,16,101129,1,0,0:0:0:0:
188,23,101210,1,0,0:0:0:0:
223,75,101291,6,0,L|209:145,1,47.5
322,32,101454,2,0,L|308:102,1,47.5
378,164,101616,2,0,L|364:234,1,47.5,8|0,0:0|0:0,0:0:0:0:
477,121,101778,2,0,L|463:191,1,47.5
182,238,101940,6,0,L|168:308,1,47.5
281,195,102102,2,0,L|267:265,1,47.5
337,327,102265,2,0,L|323:397,1,47.5,8|0,0:0|0:0,0:0:0:0:
469,312,102427,6,0,P|443:268|428:335,1,142.5,4|0,0:0|0:0,0:0:0:0:
337,329,102751,1,0,0:0:0:0:
337,286,102832,1,0,0:0:0:0:
350,245,102913,1,8,0:0:0:0:
380,215,102994,1,0,0:0:0:0:
419,199,103075,1,0,0:0:0:0:
461,199,103156,1,0,0:0:0:0:
500,215,103237,6,0,P|475:176|476:148,1,56.9999982604981
399,150,103399,2,0,P|420:108|445:95,1,56.9999982604981
209,83,103562,2,0,P|234:122|233:150,1,56.9999982604981,8|0,0:0|0:0,0:0:0:0:
310,148,103724,2,0,P|288:189|263:202,1,56.9999982604981
208,227,103886,5,0,0:0:0:0:
218,222,103967,1,0,0:0:0:0:
229,220,104048,1,0,0:0:0:0:
240,220,104129,1,0,0:0:0:0:
251,222,104210,1,8,0:0:0:0:
261,226,104291,1,0,0:0:0:0:
270,231,104372,1,0,0:0:0:0:
276,240,104454,1,0,0:0:0:0:
280,248,104535,2,0,P|245:264|223:262,3,47.5
310,148,104859,2,0,P|333:151|353:164,3,47.5,8|0|0|0,0:0|0:0|0:0|0:0,0:0:0:0:
250,102,105183,6,0,P|286:74|324:75,1,56.9999982604981
334,296,105345,2,0,P|298:324|260:323,1,56.9999982604981
291,3,105508,2,0,P|335:12|359:42,1,56.9999982604981,8|0,0:0|0:0,0:0:0:0:
418,241,105670,2,0,P|373:231|349:201,1,56.9999982604981
250,102,105832,5,0,0:0:0:0:
247,113,105913,1,0,0:0:0:0:
244,124,105994,1,0,0:0:0:0:
241,135,106075,1,0,0:0:0:0:
238,146,106156,1,8,0:0:0:0:
235,157,106237,1,0,0:0:0:0:
232,168,106318,1,0,0:0:0:0:
229,179,106400,1,0,0:0:0:0:
226,190,106481,5,0,0:0:0:0:
173,167,106562,1,0,0:0:0:0:
119,185,106643,1,0,0:0:0:0:
92,235,106724,1,0,0:0:0:0:
104,290,106805,1,8,0:0:0:0:
150,322,106886,1,0,0:0:0:0:
206,317,106967,1,0,0:0:0:0:
243,274,107048,1,0,0:0:0:0:
170,246,107129,6,0,P|146:266|100:268,1,56.9999982604981
305,240,107291,2,0,P|273:239|237:211,1,56.9999982604981
405,325,107454,2,0,P|381:304|371:259,1,56.9999982604981,8|0,0:0|0:0,0:0:0:0:
489,266,107616,6,0,P|437:236|494:234,1,142.5,4|0,0:0|0:0,0:0:0:0:
405,326,107940,1,0,0:0:0:0:
377,320,108021,1,0,0:0:0:0:
349,314,108102,1,8,0:0:0:0:
421,140,108264,1,0,0:0:0:0:
449,134,108345,1,0,0:0:0:0:
477,128,108426,1,0,0:0:0:0:
305,240,108589,1,0,0:0:0:0:
407,57,108751,2,0,P|433:101|406:152,1,95,8|0,0:0|0:0,0:0:0:0:
354,179,108994,1,0,0:0:0:0:
354,179,109075,6,0,P|396:137|371:234,1,285
226,270,109643,1,0,0:0:0:0:
226,270,109724,2,0,P|267:235|325:256,1,95
197,241,109967,1,0,0:0:0:0:
197,241,110048,2,0,P|150:243|118:210,1,95,8|0,0:0|0:0,0:0:0:0:
192,282,110291,1,0,0:0:0:0:
192,282,110372,6,0,P|112:274|81:335,1,142.5
243,345,110697,2,0,L|142:333,1,95,8|0,0:0|0:0,0:0:0:0:
347,331,110940,1,0,0:0:0:0:
362,324,111021,2,0,L|267:312,1,95
466,310,111264,1,0,0:0:0:0:
481,303,111345,2,0,L|386:291,1,95,8|0,0:0|0:0,0:0:0:0:
485,208,111589,1,0,0:0:0:0:
506,227,111670,6,0,P|466:268|412:258,1,95
443,183,111913,1,0,0:0:0:0:
414,179,111994,2,0,P|422:122|471:98,1,95,8|0,0:0|0:0,0:0:0:0:
223,11,112318,2,0,P|257:42|258:88,1,95
248,109,112562,1,0,0:0:0:0:
190,155,112643,2,0,P|157:155|124:138,1,56.9999982604981,8|0,0:0|0:0,0:0:0:0:
76,85,112805,6,0,P|103:131|38:135,1,142.5,4|0,0:0|0:0,0:0:0:0:
113,220,113129,1,0,0:0:0:0:
106,247,113210,1,0,0:0:0:0:
99,274,113291,1,8,0:0:0:0:
248,109,113454,1,0,0:0:0:0:
255,136,113535,1,0,0:0:0:0:
262,163,113616,1,0,0:0:0:0:
113,220,113778,1,0,0:0:0:0:
326,187,113940,2,0,P|288:228|240:227,1,95,8|0,0:0|0:0,0:0:0:0:
336,238,114183,1,0,0:0:0:0:
336,238,114264,6,0,P|357:155|359:252,1,285
460,291,114832,1,0,0:0:0:0:
460,291,114913,2,0,P|420:317|362:323,1,95
512,277,115156,1,0,0:0:0:0:
512,277,115237,2,0,P|465:270|425:244,1,95,8|0,0:0|0:0,0:0:0:0:
358,148,115481,1,0,0:0:0:0:
358,148,115562,6,0,P|395:191|356:269,1,142.5
336,238,115886,2,0,P|296:263|249:270,1,95,8|0,0:0|0:0,0:0:0:0:
366,263,116129,1,0,0:0:0:0:
366,263,116210,2,0,L|252:241,1,95
429,256,116454,1,0,0:0:0:0:
429,256,116535,2,0,L|315:234,1,95,8|0,0:0|0:0,0:0:0:0:
492,249,116778,1,0,0:0:0:0:
492,249,116859,6,0,P|432:226|425:150,1,142.5
358,148,117183,2,0,P|408:106|407:66,1,95,8|0,0:0|0:0,0:0:0:0:
492,249,117508,1,0,0:0:0:0:
341,81,117670,1,0,1:0:0:0:
316,147,117751,1,0,1:0:0:0:
291,213,117832,1,0,1:0:0:0:
266,279,117913,1,0,1:0:0:0:
241,345,117994,5,0,0:0:0:0:
236,325,118075,5,0,0:0:0:0:
231,305,118156,5,0,0:0:0:0:
226,285,119129,5,0,0:0:0:0:
221,265,119291,6,0,B|177:283|119:257|119:182|156:149|231:157|243:216|243:216|303:177|348:223|366:266|391:227|434:235|462:195|462:195|404:227|348:197,1,605.625023102761,2|0,0:3|0:0,0:0:0:0:
354,200,120751,6,0,B|377:159|441:183|472:241|448:301|383:334|333:293|312:280|312:280|278:246|221:265|221:265|255:297|235:348,1,463.125017666817,2|0,0:3|0:0,0:0:0:0:
237,342,121886,6,0,B|255:299|220:265|220:265|166:318|138:318|105:313|87:274|99:232|136:220|157:229|169:262,1,320.625012230874,2|0,2:0|0:0,0:0:0:0:
168,261,122697,6,0,P|187:222|121:256,1,178.12500679493,2|0,0:0|0:0,0:0:0:0:
185,277,123183,6,0,P|210:238|266:242,1,95,0|0,0:0|3:0,0:0:0:0:
317,138,123508,1,0,0:0:0:0:
314,150,123589,1,0,0:0:0:0:
311,162,123670,1,8,0:0:0:0:
439,331,123832,2,0,P|414:292|358:296,1,95
411,84,124156,1,0,0:0:0:0:
408,96,124237,1,0,0:0:0:0:
405,108,124318,1,8,0:0:0:0:
490,245,124481,6,0,P|524:179|457:119,1,142.5
411,84,124805,1,0,0:0:0:0:
411,84,124886,1,0,0:0:0:0:
411,84,124967,2,0,L|294:102,1,95,8|0,0:0|0:0,0:0:0:0:
53,175,125291,6,0,P|84:235|152:237,1,142.5
191,301,125616,2,0,P|219:270|219:208,1,95,8|0,0:0|0:0,0:0:0:0:
291,35,125940,6,0,P|288:81|258:117,1,95,4|0,0:0|0:0,0:0:0:0:
341,186,126183,5,0,0:0:0:0:
341,186,126264,2,0,P|323:142|282:119,1,95,8|0,0:0|0:0,0:0:0:0:
385,60,126508,5,0,0:0:0:0:
385,60,126589,2,0,P|353:94|307:102,1,95
389,206,126832,5,0,0:0:0:0:
389,206,126913,2,0,P|371:162|330:139,1,95,8|0,0:0|0:0,0:0:0:0:
440,80,127156,5,0,0:0:0:0:
440,80,127237,2,0,P|408:114|362:122,1,95
439,227,127481,5,0,0:0:0:0:
439,227,127562,2,0,P|420:184|380:160,1,95,8|2,0:0|0:1,0:0:0:0:
487,105,127805,5,0,0:0:0:0:
487,105,127886,2,0,P|455:138|409:147,1,95
486,246,128129,5,0,0:0:0:0:
486,246,128210,2,0,P|467:203|427:179,1,95,8|0,0:0|0:0,0:0:0:0:
284,344,128535,6,0,P|429:323|305:245,1,380,2|0,0:1|0:0,0:0:0:0:
352,308,129345,5,2,0:1:0:0:
355,316,129427,1,0,0:0:0:0:
358,324,129508,1,8,0:0:0:0:
283,136,129670,5,2,0:1:0:0:
286,128,129751,1,0,0:0:0:0:
289,120,129832,1,8,0:0:0:0:
126,236,129994,5,2,0:1:0:0:
129,244,130076,1,0,0:0:0:0:
132,252,130157,1,8,0:0:0:0:
73,40,130318,5,2,0:1:0:0:
76,32,130399,1,0,0:0:0:0:
79,24,130481,1,8,0:0:0:0:
11,220,130643,5,0,0:0:0:0:
202,156,130805,5,0,0:0:0:0:
373,100,130967,5,0,0:0:0:0:
184,339,131129,6,0,P|282:294|121:294,1,493.999977386476,4|0,0:0|0:0,0:0:0:0:
203,257,131940,2,0,P|238:223|248:189,1,61.7499971733095
157,174,132102,1,8,0:0:0:0:
386,189,132264,6,2,B|278:188|328:119|218:128,1,185.249991519928,2|0,0:1|0:1,0:1:0:0:
157,174,132589,1,0,0:0:0:0:
373,100,132751,2,0,P|391:45|351:0,1,123.499994346619,8|0,0:0|0:0,0:0:0:0:
203,257,133075,2,0,P|246:295|303:275,1,123.499994346619
363,232,133318,1,0,0:0:0:0:
431,259,133399,1,8,0:0:0:0:
103,131,133562,2,2,P|137:105|169:107,1,61.7499971733095,2|0,0:1|0:1,0:1:0:0:
157,174,133724,6,0,P|98:161|122:254,1,185.249991519928
203,257,134048,1,8,0:0:0:0:
208,61,134210,2,0,P|173:35|141:37,1,61.7499971733095
83,52,134372,1,0,0:0:0:0:
296,145,134535,2,0,P|266:151|244:172,1,61.7499971733095
203,257,134697,1,8,0:0:0:0:
55,279,134859,2,2,P|77:257|106:252,1,61.7499971733095,2|0,0:1|0:1,0:1:0:0:
203,257,135021,6,0,P|231:328|146:298,1,185.249991519928
369,195,135345,2,0,B|261:196|311:265|202:256,1,185.249991519928,8|0,0:0|0:0,0:0:0:0:
227,182,135670,2,0,P|216:134|230:106,1,61.7499971733095,0|0,1:0|0:0,0:0:0:0:
285,71,135832,2,0,P|315:71|341:87,1,61.7499971733095,8|0,0:0|0:0,0:0:0:0:
354,189,135994,2,0,P|333:211|304:220,1,61.7499971733095,8|0,0:0|0:0,0:0:0:0:
296,145,136156,6,0,P|352:106|311:0,1,185.249991519928,4|0,0:0|0:0,0:0:0:0:
285,71,136481,2,0,P|235:53|205:69,1,61.7499971733095
444,136,136643,2,0,P|451:67|410:132,1,185.249991519928,8|0,0:0|0:0,0:0:0:0:
343,259,136967,2,0,P|373:258|399:242,1,61.7499971733095,2|0,0:1|0:0,0:0:0:0:
500,153,137129,2,0,P|474:136|443:135,1,61.7499971733095
354,189,137291,1,8,0:0:0:0:
155,285,137454,6,0,L|88:271,1,61.7499971733095
74,268,137616,1,0,0:0:0:0:
215,162,137778,6,0,L|282:148,1,61.7499971733095
296,145,137940,1,8,0:0:0:0:
141,23,138102,6,0,P|162:62|157:95,1,61.7499971733095
215,162,138264,2,0,P|194:201|199:234,1,61.7499971733095
155,285,138427,2,0,P|176:324|171:357,1,61.7499971733095
215,162,138589,2,0,P|194:201|199:234,1,61.7499971733095,8|0,0:0|0:0,0:0:0:0:
284,311,138751,2,2,P|318:338|352:339,1,61.7499971733095,2|0,0:1|0:1,0:1:0:0:
343,259,138913,6,0,P|377:205|295:145,1,185.249991519928
215,162,139237,2,0,P|223:100|271:66,1,123.499994346619,8|0,0:0|0:0,0:0:0:0:
341,87,139481,1,0,0:0:0:0:
295,144,139562,1,0,0:0:0:0:
475,240,139724,2,0,P|435:253|404:246,1,61.7499971733095
332,16,139886,2,0,P|388:33|410:90,1,123.499994346619,8|0,0:0|0:0,0:0:0:0:
368,160,140129,1,0,0:0:0:0:
368,160,140210,6,2,P|412:101|415:180,1,185.249991519928,2|0,0:1|0:1,0:1:0:0:
215,162,140535,2,0,B|324:166|266:228|373:242,1,185.249991519928,8|0,0:0|0:0,0:0:0:0:
416,312,140859,2,0,P|377:325|350:319,1,61.7499971733095,0|0,1:0|0:0,0:0:0:0:
450,349,141021,2,0,P|421:336|391:339,1,61.7499971733095,8|0,0:0|0:0,0:0:0:0:
474,302,141183,2,0,P|435:315|408:309,1,61.7499971733095,8|0,0:0|0:0,0:0:0:0:
146,224,141345,6,0,P|236:71|167:241,1,531.999983764649,4|0,0:0|0:0,0:0:0:0:
215,162,142156,1,0,0:0:0:0:
88,247,142318,2,0,P|124:223|155:226,1,66.4999979705811
248,248,142481,1,8,0:0:0:0:
50,94,142643,2,2,P|75:114|107:117,1,66.4999979705811,2|0,0:1|0:1,0:1:0:0:
182,72,142805,6,0,P|130:114|225:149,1,199.499993911743
246,287,143129,2,0,P|196:226|82:253,1,199.499993911743,8|0,0:0|0:0,0:0:0:0:
264,362,143454,2,0,P|229:314|255:241,1,132.999995941162
303,190,143697,1,0,0:0:0:0:
379,211,143778,1,8,0:0:0:0:
237,19,143940,2,2,P|257:68|242:107,1,66.4999979705811,2|0,0:1|0:1,0:1:0:0:
225,169,144102,6,0,P|272:109|280:202,1,199.499993911743
379,211,144427,2,0,P|392:138|358:73,1,132.999995941162,8|0,0:0|0:0,0:0:0:0:
317,25,144670,1,0,0:0:0:0:
237,19,144751,1,0,0:0:0:0:
109,241,144913,2,0,P|141:243|177:221,1,66.4999979705811
225,169,145075,2,0,P|177:217|247:191,1,199.499993911743,8|0,0:0|0:0,0:0:0:0:
170,227,145399,6,0,B|51:231|114:298|-2:314,1,199.499993911743,2|0,0:1|0:0,0:0:0:0:
13,230,145724,2,0,P|32:203|36:170,1,66.4999979705811,8|0,0:0|0:0,0:0:0:0:
61,184,145886,2,0,P|64:151|51:121,1,66.4999979705811
87,116,146048,2,0,P|73:85|47:66,1,66.4999979705811,0|0,1:0|0:0,0:0:0:0:
86,50,146210,2,0,P|58:30|26:26,1,66.4999979705811,8|0,0:0|0:0,0:0:0:0:
165,192,146372,2,0,P|197:188|224:168,1,66.4999979705811,8|0,0:0|0:0,0:0:0:0:
290,106,146535,6,0,P|341:163|226:146,1,265.999991882324,4|0,0:0|0:0,0:0:0:0:
399,232,147021,2,0,P|418:167|386:83,1,132.999995941162,8|0,0:0|0:0,0:0:0:0:
350,44,147264,1,0,0:0:0:0:
272,25,147345,1,0,0:0:0:0:
367,307,147508,2,2,P|402:313|445:297,1,66.4999979705811,2|0,0:1|0:1,0:1:0:0:
399,232,147670,2,0,B|279:222|334:298|215:299,1,199.499993911743,8|0,0:0|0:0,0:0:0:0:
99,304,147994,6,0,P|187:277|120:182,1,199.499993911743
225,234,148318,2,0,P|222:141|132:126,1,199.499993911743,8|0,0:0|0:0,0:0:0:0:
190,78,148643,2,0,P|125:55|64:152,1,199.499993911743
225,234,148967,1,8,0:0:0:0:
406,96,149129,2,2,P|358:118|320:108,1,66.4999979705811,2|0,0:1|0:1,0:1:0:0:
350,44,149291,6,0,P|452:37|474:124,1,199.499993911743
350,44,149616,2,0,P|281:79|273:130,1,132.999995941162,8|0,0:0|0:0,0:0:0:0:
69,251,149940,2,0,B|189:241|134:317|247:317,1,199.499993911743
225,234,150264,2,0,P|184:168|281:134,1,199.499993911743,8|0,0:0|0:0,0:0:0:0:
421,228,150589,6,2,P|379:266|304:258,1,132.999995941162,2|0,0:1|0:1,0:1:0:0:
225,234,150832,1,0,0:0:0:0:
247,317,150913,1,8,0:0:0:0:
482,188,151075,2,0,P|448:158|413:159,1,66.4999979705811
370,120,151237,2,0,P|404:90|439:91,1,66.4999979705811
481,53,151399,2,0,P|447:23|412:24,1,66.4999979705811,0|0,1:0|1:0,0:0:0:0:
201,148,151562,1,0,1:0:0:0:
195,161,151643,1,0,1:0:0:0:
230,69,151724,6,0,B|110:59|165:135|52:135,1,199.499993911743,4|0,0:0|0:0,0:0:0:0:
37,202,152048,2,0,P|-13:158|-1:91,1,132.999995941162,0|8,0:0|0:0,0:0:0:0:
106,238,152291,1,0,0:0:0:0:
94,228,152372,2,0,P|62:237|39:260,1,66.4999979705811
86,357,152535,2,0,P|148:351|78:331,1,199.499993911743
37,202,152859,1,8,0:0:0:0:
298,268,153021,2,0,P|333:269|367:248,1,66.4999979705811
423,332,153183,6,0,P|367:289|400:361,1,199.499993911743
447,209,153508,2,0,P|397:165|322:162,1,132.999995941162,8|0,0:0|0:0,0:0:0:0:
255,178,153751,1,0,0:0:0:0:
207,242,153832,1,0,0:0:0:0:
257,31,153994,2,0,P|278:75|273:109,1,66.4999979705811
333,159,154156,1,8,0:0:0:0:
130,252,154318,2,0,P|133:219|150:191,1,66.4999979705811
207,242,154481,6,0,P|197:280|297:258,1,199.499993911743
255,178,154805,2,0,P|236:106|284:66,1,132.999995941162,8|0,0:0|0:0,0:0:0:0:
257,31,155048,1,0,0:0:0:0:
257,31,155129,2,0,P|203:103|98:72,1,199.499993911743
75,16,155454,2,0,P|35:66|51:128,1,132.999995941162,8|0,0:0|0:0,0:0:0:0:
105,177,155697,1,0,0:0:0:0:
105,177,155778,6,0,P|47:128|-14:143,1,132.999995941162
106,261,156021,1,0,0:0:0:0:
119,254,156102,2,0,P|106:179|49:151,1,132.999995941162,8|0,0:0|0:0,0:0:0:0:
68,320,156345,1,0,0:0:0:0:
82,322,156426,2,0,P|120:256|94:198,1,132.999995941162
60,152,156670,1,0,0:0:0:0:
105,177,156751,2,0,P|136:167|156:142,1,66.4999979705811,8|0,0:0|0:0,0:0:0:0:
75,16,156913,5,4,0:0:0:0:
324,119,157237,2,0,P|278:64|196:81,1,156.750004783631
156,141,157562,2,0,P|168:174|164:199,1,52.2500015945435
230,218,157724,2,0,P|189:256|127:246,1,104.500003189087
105,177,157967,1,0,0:0:0:0:
143,254,158048,2,0,P|156:303|131:347,1,104.500003189087,8|0,0:0|0:0,0:0:0:0:
118,355,158291,1,0,0:0:0:0:
103,359,158372,6,0,B|188:317|174:394|261:343,1,156.750004783631
423,267,158697,2,0,P|362:237|294:300,1,156.750004783631,8|0,0:0|0:0,0:0:0:0:
327,352,159021,1,0,0:0:0:0:
324,119,159183,2,0,P|298:165|302:188,1,52.2500015945435
368,178,159345,2,0,P|430:175|373:129,1,156.750004783631,8|0,0:0|0:0,0:0:0:0:
324,119,159670,6,0,P|258:138|191:72,1,156.750004783631
191,182,159994,2,0,P|210:136|189:79,1,104.500003189087,8|0,0:0|0:0,0:0:0:0:
180,175,160237,1,0,0:0:0:0:
171,169,160318,2,0,P|155:217|174:265,1,104.500003189087
231,315,160562,1,0,0:0:0:0:
231,315,160643,2,0,P|170:305|223:354,1,156.750004783631,8|0,0:0|0:0,0:0:0:0:
266,380,160967,6,0,P|301:334|262:248,1,156.750004783631
191,182,161291,1,8,0:0:0:0:
316,49,161454,2,0,P|288:54|270:72,1,52.2500015945435
324,119,161616,2,0,P|357:138|424:120,1,104.500003189087
466,69,161859,1,0,1:0:0:0:
436,136,161940,1,0,1:0:0:0:
451,207,162021,1,0,1:0:0:0:
498,262,162102,6,0,P|459:227|488:296,1,209.000006378174,4|0,0:0|0:0,0:0:0:0:
213,115,162589,2,0,P|252:146|258:197,1,104.500003189087,8|0,0:0|0:0,0:0:0:0:
274,271,162832,1,0,0:0:0:0:
285,265,162913,2,0,B|193:287|224:215|137:242,1,156.750004783631
338,298,163237,2,0,P|320:247|375:291,1,156.750004783631,8|0,0:0|0:0,0:0:0:0:
153,152,163562,6,0,P|191:184|242:179,1,104.500003189087
292,126,163805,1,0,0:0:0:0:
265,57,163886,1,8,0:0:0:0:
108,93,164048,2,0,P|88:116|79:148,1,52.2500015945435
48,326,164210,2,0,P|114:252|90:195,1,156.750004783631
80,136,164535,2,0,P|101:207|174:226,1,156.750004783631,8|0,0:0|0:0,0:0:0:0:
248,62,164859,6,0,P|226:133|153:152,1,156.750004783631
80,136,165183,1,8,0:0:0:0:
247,250,165345,2,0,P|263:285|261:311,1,52.2500015945435
345,281,165508,2,0,P|294:286|265:327,1,104.500003189087
247,250,165751,1,0,0:0:0:0:
176,248,165832,2,0,P|198:198|299:201,1,156.750004783631,8|0,0:0|0:0,0:0:0:0:
330,343,166156,5,0,0:0:0:0:
372,108,166318,2,0,P|354:149|359:171,1,52.2500015945435
246,61,166481,1,8,0:0:0:0:
415,282,166643,2,0,P|412:256|397:234,1,52.2500015945435
130,103,166805,2,0,B|216:76|185:148|277:126,1,156.750004783631
246,61,167129,1,0,1:0:0:0:
242,44,167210,1,0,1:0:0:0:
388,151,167291,6,0,P|331:179|388:132,1,209.000006378174
415,282,167778,1,8,0:0:0:0:
429,58,167940,2,0,P|409:41|384:34,1,52.2500015945435
316,250,168102,2,0,P|367:254|422:225,1,104.500003189087
415,282,168345,1,0,0:0:0:0:
405,319,168427,1,8,0:0:0:0:
166,190,168589,2,0,P|191:156|195:126,1,52.2500015945435
150,203,168751,6,0,B|203:179|258:208|258:208|279:181|310:178,1,156.750004783631
365,186,169075,1,8,0:0:0:0:
227,269,169237,2,0,P|199:260|171:266,1,52.2500015945435
109,290,169399,1,0,0:0:0:0:
261,116,169562,2,0,P|285:107|311:110,1,52.2500015945435
365,186,169724,1,8,0:0:0:0:
152,62,169886,2,0,P|177:57|198:41,1,52.2500015945435
261,116,170048,6,0,P|210:92|228:162,1,156.750004783631
425,149,170372,2,0,P|375:115|316:135,1,104.500003189087,8|0,0:0|0:0,0:0:0:0:
290,181,170616,1,0,0:0:0:0:
261,116,170697,1,0,0:0:0:0:
482,197,170859,2,0,P|447:221|417:221,1,52.2500015945435
308,54,171021,1,8,0:0:0:0:
233,230,171183,2,0,P|268:254|298:254,1,52.2500015945435
244,318,171345,6,0,P|206:268|110:279,1,156.750004783631
233,230,171670,2,0,P|307:239|358:183,1,156.750004783631,8|0,0:0|0:0,0:0:0:0:
188,55,171994,2,0,L|216:175,1,104.500003189087
233,230,172237,1,0,1:0:0:0:
160,218,172318,1,0,1:0:0:0:
125,153,172399,1,0,1:0:0:0:
188,55,172481,5,4,0:0:0:0:
