osu file format v14

[General]
AudioFilename: wuvumore2happy.mp3
AudioLeadIn: 0
PreviewTime: 90121
Countdown: 0
SampleSet: Normal
StackLeniency: 0.8
Mode: 3
LetterboxInBreaks: 0
SpecialStyle: 0
WidescreenStoryboard: 1

[Editor]
DistanceSpacing: 0.8
BeatDivisor: 8
GridSize: 4
TimelineZoom: 1.600003

[Metadata]
Title:Wuv U -More2 HAPPY Re Mix Special-
TitleUnicode:Wuv U -More2 HAPPY Re Mix Special-
Artist:Yu_Asahina
ArtistUnicode:Yu_Asahina
Creator:-Sandy Corzeta-
Version:7K EXHAUST
Source:SOUND VOLTEX II -infinite infection-
Tags:
BeatmapID:529731
BeatmapSetID:227363

[Difficulty]
HPDrainRate:7
CircleSize:7
OverallDifficulty:8
ApproachRate:5
SliderMultiplier:1.5
SliderTickRate:1

[Events]
//Background and Video events
0,0,"Wuv-U-More2-Happy.jpg",0,0
//Break Periods
//Storyboard Layer 0 (Background)
//Storyboard Layer 1 (Fail)
//Storyboard Layer 2 (Pass)
//Storyboard Layer 3 (Foreground)
//Storyboard Sound Samples

[TimingPoints]
630,338.983050847458,4,1,1,30,1,0
22324,-200,4,1,1,30,0,0
22579,-66.6666666666667,4,1,1,30,0,0
22663,-200,4,1,1,30,0,0
22918,-66.6666666666667,4,1,1,30,0,0
23002,-200,4,1,1,30,0,0
23257,-66.6666666666667,4,1,1,30,0,0
23341,-200,4,1,1,30,0,0
23596,-66.6666666666667,4,1,1,30,0,0
23680,-100,4,1,1,30,0,0
24528,-400,4,1,1,30,0,0
24613,-80,4,1,1,30,0,0
24697,-400,4,1,1,30,0,0
24782,-80,4,1,1,30,0,0
24867,-100,4,1,1,30,0,0
25884,-200,4,1,1,30,0,0
26138,-66.6666666666667,4,1,1,30,0,0
26223,-100,4,1,1,30,0,0
27240,-400,4,1,1,30,0,0
27324,-80,4,1,1,30,0,0
27409,-400,4,1,1,30,0,0
27494,-80,4,1,1,30,0,0
27579,-100,4,1,1,30,0,0
28426,-400,4,1,1,30,0,0
28596,-66.6666666666667,4,1,1,30,0,0
28765,-200,4,1,1,30,0,0
29019,-57.1428571428571,4,1,1,30,0,0
29104,-100,4,1,1,30,0,0
33680,-400,4,1,1,30,0,0
33765,-80,4,1,1,30,0,0
33850,-400,4,1,1,30,0,0
33935,-80,4,1,1,30,0,0
34019,-400,4,1,1,30,0,0
34104,-80,4,1,1,30,0,0
34189,-400,4,1,1,30,0,0
34274,-80,4,1,1,30,0,0
34358,-100,4,1,1,30,0,0
34443,-66.6666666666667,4,1,1,30,0,0
34528,-100,4,1,1,30,0,1
39274,-200,4,1,1,30,0,1
39528,-66.6666666666667,4,1,1,30,0,1
39613,-200,4,1,1,30,0,1
39782,-100,4,1,1,30,0,1
44189,-200,4,1,1,30,0,1
44443,-100,4,1,1,30,0,1
44528,-80,4,1,1,30,0,1
44613,-200,4,1,1,30,0,1
44697,-100,4,1,1,30,0,1
45036,-200,4,1,1,30,0,0
45206,-66.6666666666667,4,1,1,30,0,0
45375,-100,4,1,1,30,0,0
58935,-200,4,1,1,30,0,0
59019,-80,4,1,1,30,0,0
59104,-200,4,1,1,30,0,0
59189,-80,4,1,1,30,0,0
59274,-200,4,1,1,30,0,0
59358,-80,4,1,1,30,0,0
59443,-100,4,1,1,30,0,0
61646,-200,4,1,1,30,0,0
61731,-66.6666666666667,4,1,1,30,0,0
61816,-400,4,1,1,30,0,0
61901,-100,4,1,1,30,0,0
62155,-200,4,1,1,30,0,0
62240,-66.6666666666667,4,1,1,30,0,0
62324,-400,4,1,1,30,0,0
62409,-100,4,1,1,30,0,0
62663,-200,4,1,1,30,0,0
62748,-66.6666666666667,4,1,1,30,0,0
62833,-400,4,1,1,30,0,0
62918,-100,4,1,1,30,0,0
63172,-200,4,1,1,30,0,0
63257,-66.6666666666667,4,1,1,30,0,0
63341,-400,4,1,1,30,0,0
63426,-100,4,1,1,30,0,0
63680,-200,4,1,1,30,0,0
63935,-66.6666666666667,4,1,1,30,0,0
64019,-100,4,1,1,30,0,0
69782,-133.333333333333,4,1,1,30,0,0
71138,-125,4,1,1,30,0,0
75206,-117.647058823529,4,1,1,30,0,0
77240,-111.111111111111,4,1,1,30,0,0
79274,-105.263157894737,4,1,1,30,0,0
80630,-100,4,1,1,30,0,0
88765,-200,4,1,1,30,0,0
89019,-66.6666666666667,4,1,1,30,0,0
89104,-200,4,1,1,30,0,0
89274,-100,4,1,1,30,0,0
89443,-200,4,1,1,30,0,0
89697,-66.6666666666667,4,1,1,30,0,0
89782,-200,4,1,1,30,0,0
89952,-100,4,1,1,30,0,0
91477,-100,4,1,1,30,0,1
110460,-100,4,1,1,30,0,0

[HitObjects]
36,192,630,128,0,1985:0:0:0:0:
475,192,630,128,0,1985:0:0:0:0:
256,192,1307,1,0,0:0:0:0:
182,192,1816,1,0,0:0:0:0:
329,192,1816,1,0,0:0:0:0:
182,192,1985,1,0,0:0:0:0:
329,192,1985,1,0,0:0:0:0:
256,192,2155,1,0,0:0:0:0:
109,192,2324,1,0,0:0:0:0:
402,192,2324,1,0,0:0:0:0:
329,192,2494,1,0,0:0:0:0:
182,192,2663,1,0,0:0:0:0:
402,192,2833,1,0,0:0:0:0:
256,192,2833,1,0,0:0:0:0:
329,192,3002,1,0,0:0:0:0:
182,192,3172,1,0,0:0:0:0:
256,192,3341,1,0,0:0:0:0:
256,192,3511,1,0,0:0:0:0:
109,192,3511,1,0,0:0:0:0:
402,192,3680,1,0,0:0:0:0:
256,192,3765,1,0,0:0:0:0:
402,192,3850,1,0,0:0:0:0:
256,192,3934,1,0,0:0:0:0:
402,192,4019,1,0,0:0:0:0:
256,192,4104,1,0,0:0:0:0:
402,192,4189,1,0,0:0:0:0:
329,192,4274,1,0,0:0:0:0:
256,192,4358,1,0,0:0:0:0:
182,192,4443,1,0,0:0:0:0:
109,192,4528,1,0,0:0:0:0:
256,192,4697,1,0,0:0:0:0:
182,192,4867,1,0,0:0:0:0:
109,192,5036,1,0,0:0:0:0:
402,192,5036,1,0,0:0:0:0:
329,192,5206,1,0,0:0:0:0:
182,192,5375,1,0,0:0:0:0:
109,192,5545,1,0,0:0:0:0:
402,192,5545,1,0,0:0:0:0:
402,192,5714,1,0,0:0:0:0:
109,192,5714,1,0,0:0:0:0:
256,192,5884,1,0,0:0:0:0:
182,192,6053,1,0,0:0:0:0:
256,192,6223,1,0,0:0:0:0:
402,192,6223,1,0,0:0:0:0:
109,192,6392,1,0,0:0:0:0:
256,192,6477,1,0,0:0:0:0:
109,192,6562,1,0,0:0:0:0:
256,192,6646,1,0,0:0:0:0:
109,192,6731,1,0,0:0:0:0:
256,192,6816,1,0,0:0:0:0:
109,192,6901,1,0,0:0:0:0:
182,192,6985,1,0,0:0:0:0:
256,192,7070,1,0,0:0:0:0:
329,192,7155,1,0,0:0:0:0:
402,192,7240,1,0,0:0:0:0:
36,192,7409,1,0,0:0:0:0:
475,192,7409,1,0,0:0:0:0:
256,192,7579,1,0,0:0:0:0:
109,192,7748,1,0,0:0:0:0:
402,192,7748,1,0,0:0:0:0:
329,192,7918,1,0,0:0:0:0:
182,192,8087,1,0,0:0:0:0:
109,192,8257,1,0,0:0:0:0:
329,192,8257,1,0,0:0:0:0:
256,192,8426,1,0,0:0:0:0:
182,192,8596,1,0,0:0:0:0:
329,192,8765,1,0,0:0:0:0:
256,192,8935,1,0,0:0:0:0:
109,192,8935,1,0,0:0:0:0:
402,192,9104,1,0,0:0:0:0:
256,192,9189,1,0,0:0:0:0:
402,192,9274,1,0,0:0:0:0:
256,192,9358,1,0,0:0:0:0:
402,192,9443,1,0,0:0:0:0:
256,192,9528,1,0,0:0:0:0:
402,192,9613,1,0,0:0:0:0:
329,192,9698,1,0,0:0:0:0:
256,192,9782,1,0,0:0:0:0:
182,192,9867,1,0,0:0:0:0:
109,192,9952,1,0,0:0:0:0:
36,192,10121,1,0,0:0:0:0:
329,192,10121,1,0,0:0:0:0:
109,192,10206,1,0,0:0:0:0:
402,192,10206,1,0,0:0:0:0:
182,192,10290,1,0,0:0:0:0:
475,192,10290,1,0,0:0:0:0:
256,192,10375,1,0,0:0:0:0:
329,192,10460,1,0,0:0:0:0:
36,192,10460,1,0,0:0:0:0:
402,192,10545,1,0,0:0:0:0:
109,192,10545,1,0,0:0:0:0:
475,192,10629,1,0,0:0:0:0:
182,192,10630,1,0,0:0:0:0:
256,192,10714,1,0,0:0:0:0:
329,192,10799,1,0,0:0:0:0:
36,192,10799,1,0,0:0:0:0:
402,192,10884,1,0,0:0:0:0:
109,192,10884,1,0,0:0:0:0:
475,192,10968,1,0,0:0:0:0:
182,192,10968,1,0,0:0:0:0:
256,192,11053,1,0,0:0:0:0:
329,192,11138,1,0,0:0:0:0:
36,192,11138,1,0,0:0:0:0:
402,192,11223,1,0,0:0:0:0:
109,192,11223,1,0,0:0:0:0:
475,192,11307,1,0,0:0:0:0:
182,192,11307,1,0,0:0:0:0:
256,192,11392,1,0,0:0:0:0:
329,192,11477,1,0,0:0:0:0:
36,192,11477,1,0,0:0:0:0:
182,192,11477,1,0,0:0:0:0:
475,192,11477,1,0,0:0:0:0:
36,192,11646,1,0,0:0:0:0:
182,192,11646,1,0,0:0:0:0:
329,192,11646,1,0,0:0:0:0:
475,192,11646,1,0,0:0:0:0:
109,192,11816,1,0,0:0:0:0:
182,192,11858,1,0,0:0:0:0:
256,192,11901,1,0,0:0:0:0:
329,192,11943,1,0,0:0:0:0:
402,192,11985,1,0,0:0:0:0:
109,192,12155,1,0,0:0:0:0:
256,192,12155,1,0,0:0:0:0:
402,192,12155,1,0,0:0:0:0:
329,192,12240,1,0,0:0:0:0:
256,192,12324,1,0,0:0:0:0:
402,192,12324,1,0,0:0:0:0:
109,192,12494,1,0,0:0:0:0:
402,192,12494,1,0,0:0:0:0:
182,192,12663,1,0,0:0:0:0:
329,192,12663,1,0,0:0:0:0:
36,192,12833,1,0,0:0:0:0:
256,192,12833,1,0,0:0:0:0:
475,192,12833,1,0,0:0:0:0:
329,192,13002,1,0,0:0:0:0:
36,192,13172,1,0,0:0:0:0:
475,192,13172,1,0,0:0:0:0:
182,192,13172,1,0,0:0:0:0:
256,192,13341,1,0,0:0:0:0:
36,192,13511,1,0,0:0:0:0:
182,192,13511,1,0,0:0:0:0:
329,192,13511,1,0,0:0:0:0:
475,192,13511,1,0,0:0:0:0:
256,192,13765,1,0,0:0:0:0:
109,192,13765,1,0,0:0:0:0:
402,192,13765,1,0,0:0:0:0:
36,192,14019,1,0,0:0:0:0:
182,192,14019,1,0,0:0:0:0:
475,192,14019,1,0,0:0:0:0:
329,192,14019,1,0,0:0:0:0:
109,192,14189,1,0,0:0:0:0:
402,192,14189,1,0,0:0:0:0:
182,192,14358,1,0,0:0:0:0:
329,192,14358,1,0,0:0:0:0:
402,192,14528,1,0,0:0:0:0:
109,192,14613,1,0,0:0:0:0:
402,192,14697,1,0,0:0:0:0:
109,192,14782,1,0,0:0:0:0:
402,192,14867,1,0,0:0:0:0:
109,192,14951,1,0,0:0:0:0:
402,192,15036,1,0,0:0:0:0:
329,192,15121,1,0,0:0:0:0:
256,192,15206,1,0,0:0:0:0:
182,192,15290,1,0,0:0:0:0:
109,192,15375,1,0,0:0:0:0:
256,192,15545,1,0,0:0:0:0:
36,192,15545,1,0,0:0:0:0:
475,192,15545,1,0,0:0:0:0:
182,192,15714,1,0,0:0:0:0:
36,192,15884,1,0,0:0:0:0:
475,192,15884,1,0,0:0:0:0:
329,192,15884,1,0,0:0:0:0:
256,192,16053,1,0,0:0:0:0:
182,192,16223,1,0,0:0:0:0:
329,192,16223,1,0,0:0:0:0:
475,192,16223,1,0,0:0:0:0:
36,192,16223,1,0,0:0:0:0:
402,192,16477,1,0,0:0:0:0:
109,192,16477,1,0,0:0:0:0:
256,192,16477,1,0,0:0:0:0:
36,192,16731,1,0,0:0:0:0:
182,192,16731,1,0,0:0:0:0:
329,192,16731,1,0,0:0:0:0:
475,192,16731,1,0,0:0:0:0:
109,192,16901,1,0,0:0:0:0:
402,192,16901,1,0,0:0:0:0:
329,192,17070,1,0,0:0:0:0:
182,192,17070,1,0,0:0:0:0:
109,192,17240,1,0,0:0:0:0:
402,192,17324,1,0,0:0:0:0:
109,192,17409,1,0,0:0:0:0:
402,192,17494,1,0,0:0:0:0:
109,192,17579,1,0,0:0:0:0:
402,192,17663,1,0,0:0:0:0:
109,192,17748,1,0,0:0:0:0:
182,192,17833,1,0,0:0:0:0:
256,192,17918,1,0,0:0:0:0:
329,192,18002,1,0,0:0:0:0:
402,192,18087,1,0,0:0:0:0:
36,192,18257,1,0,0:0:0:0:
475,192,18257,1,0,0:0:0:0:
256,192,18257,1,0,0:0:0:0:
329,192,18426,1,0,0:0:0:0:
36,192,18596,1,0,0:0:0:0:
475,192,18596,1,0,0:0:0:0:
182,192,18596,1,0,0:0:0:0:
256,192,18765,1,0,0:0:0:0:
36,192,18935,1,0,0:0:0:0:
182,192,18935,1,0,0:0:0:0:
329,192,18935,1,0,0:0:0:0:
475,192,18935,1,0,0:0:0:0:
256,192,19189,1,0,0:0:0:0:
109,192,19189,1,0,0:0:0:0:
402,192,19189,1,0,0:0:0:0:
36,192,19443,1,0,0:0:0:0:
182,192,19443,1,0,0:0:0:0:
329,192,19443,1,0,0:0:0:0:
475,192,19443,1,0,0:0:0:0:
109,192,19613,1,0,0:0:0:0:
402,192,19613,1,0,0:0:0:0:
182,192,19782,1,0,0:0:0:0:
329,192,19782,1,0,0:0:0:0:
402,192,19952,1,0,0:0:0:0:
109,192,20036,1,0,0:0:0:0:
402,192,20121,1,0,0:0:0:0:
109,192,20206,1,0,0:0:0:0:
402,192,20291,1,0,0:0:0:0:
109,192,20375,1,0,0:0:0:0:
402,192,20460,1,0,0:0:0:0:
329,192,20545,1,0,0:0:0:0:
256,192,20630,1,0,0:0:0:0:
182,192,20714,1,0,0:0:0:0:
109,192,20799,1,0,0:0:0:0:
475,192,20968,1,0,0:0:0:0:
402,192,21053,1,0,0:0:0:0:
329,192,21138,1,0,0:0:0:0:
256,192,21223,1,0,0:0:0:0:
182,192,21307,1,0,0:0:0:0:
402,192,21307,1,0,0:0:0:0:
329,192,21392,1,0,0:0:0:0:
256,192,21477,1,0,0:0:0:0:
182,192,21562,1,0,0:0:0:0:
109,192,21646,1,0,0:0:0:0:
329,192,21646,1,0,0:0:0:0:
256,192,21731,1,0,0:0:0:0:
182,192,21816,1,0,0:0:0:0:
109,192,21901,1,0,0:0:0:0:
36,192,21985,1,0,0:0:0:0:
256,192,21985,1,0,0:0:0:0:
182,192,22070,1,0,0:0:0:0:
109,192,22155,1,0,0:0:0:0:
36,192,22240,1,0,0:0:0:0:
109,192,22324,1,0,0:0:0:0:
182,192,22324,1,0,0:0:0:0:
256,192,22324,1,0,0:0:0:0:
329,192,22324,1,0,0:0:0:0:
475,192,22324,128,0,22663:0:0:0:0:
109,192,22663,1,0,0:0:0:0:
256,192,22663,1,0,0:0:0:0:
182,192,22663,1,0,0:0:0:0:
402,192,22663,128,0,23002:0:0:0:0:
329,192,23002,128,0,23341:0:0:0:0:
109,192,23002,1,0,0:0:0:0:
182,192,23002,1,0,0:0:0:0:
256,192,23341,128,0,23680:0:0:0:0:
109,192,23341,1,0,0:0:0:0:
109,192,23680,1,0,0:0:0:0:
36,192,23680,1,0,0:0:0:0:
402,192,23680,1,0,0:0:0:0:
475,192,23680,1,0,0:0:0:0:
329,192,23850,1,0,0:0:0:0:
182,192,24019,1,0,0:0:0:0:
329,192,24189,1,0,0:0:0:0:
182,192,24358,1,0,0:0:0:0:
109,192,24528,128,0,24697:0:0:0:0:
475,192,24528,128,0,24697:0:0:0:0:
36,192,24528,1,0,0:0:0:0:
402,192,24528,1,0,0:0:0:0:
256,192,24697,128,0,24867:0:0:0:0:
329,192,24697,128,0,24867:0:0:0:0:
475,192,24867,1,0,0:0:0:0:
109,192,24867,1,0,0:0:0:0:
256,192,25036,1,0,0:0:0:0:
329,192,25036,1,0,0:0:0:0:
109,192,25206,1,0,0:0:0:0:
475,192,25206,1,0,0:0:0:0:
182,192,25291,1,0,0:0:0:0:
402,192,25291,1,0,0:0:0:0:
256,192,25375,1,0,0:0:0:0:
475,192,25375,1,0,0:0:0:0:
182,192,25545,1,0,0:0:0:0:
329,192,25545,1,0,0:0:0:0:
256,192,25714,1,0,0:0:0:0:
36,192,25884,1,0,0:0:0:0:
182,192,25884,1,0,0:0:0:0:
402,192,25884,1,0,0:0:0:0:
475,192,25884,1,0,0:0:0:0:
329,192,25884,1,0,0:0:0:0:
109,192,25884,1,0,0:0:0:0:
329,192,26223,1,0,0:0:0:0:
475,192,26223,1,0,0:0:0:0:
182,192,26223,1,0,0:0:0:0:
36,192,26223,1,0,0:0:0:0:
256,192,26392,1,0,0:0:0:0:
402,192,26392,1,0,0:0:0:0:
256,192,26562,1,0,0:0:0:0:
402,192,26562,1,0,0:0:0:0:
109,192,26731,1,0,0:0:0:0:
402,192,26731,1,0,0:0:0:0:
256,192,26901,1,0,0:0:0:0:
402,192,27070,1,0,0:0:0:0:
256,192,27070,1,0,0:0:0:0:
36,192,27240,1,0,0:0:0:0:
109,192,27240,1,0,0:0:0:0:
182,192,27240,1,0,0:0:0:0:
182,192,27409,1,0,0:0:0:0:
256,192,27409,1,0,0:0:0:0:
329,192,27409,1,0,0:0:0:0:
329,192,27579,1,0,0:0:0:0:
402,192,27579,1,0,0:0:0:0:
475,192,27579,1,0,0:0:0:0:
36,192,27918,1,0,0:0:0:0:
109,192,27918,1,0,0:0:0:0:
256,192,27918,1,0,0:0:0:0:
402,192,28087,1,0,0:0:0:0:
475,192,28087,1,0,0:0:0:0:
256,192,28087,1,0,0:0:0:0:
402,192,28426,128,0,29104:0:0:0:0:
36,192,28426,1,0,0:0:0:0:
109,192,28426,1,0,0:0:0:0:
182,192,28765,1,0,0:0:0:0:
36,192,28765,1,0,0:0:0:0:
256,192,29104,1,0,0:0:0:0:
36,192,29104,1,0,0:0:0:0:
109,192,29104,1,0,0:0:0:0:
182,192,29274,1,0,0:0:0:0:
329,192,29274,1,0,0:0:0:0:
475,192,29443,1,0,0:0:0:0:
329,192,29443,1,0,0:0:0:0:
256,192,29613,1,0,0:0:0:0:
36,192,29782,1,0,0:0:0:0:
182,192,29782,1,0,0:0:0:0:
475,192,29952,1,0,0:0:0:0:
402,192,29952,1,0,0:0:0:0:
329,192,29952,1,0,0:0:0:0:
182,192,30121,1,0,0:0:0:0:
256,192,30121,1,0,0:0:0:0:
329,192,30121,1,0,0:0:0:0:
36,192,30291,1,0,0:0:0:0:
109,192,30291,1,0,0:0:0:0:
182,192,30291,1,0,0:0:0:0:
475,192,30291,1,0,0:0:0:0:
402,192,30375,1,0,0:0:0:0:
329,192,30460,1,0,0:0:0:0:
475,192,30630,1,0,0:0:0:0:
402,192,30714,1,0,0:0:0:0:
182,192,30799,128,0,31138:0:0:0:0:
329,192,30799,1,0,0:0:0:0:
109,192,30799,1,0,0:0:0:0:
475,192,30968,1,0,0:0:0:0:
109,192,31138,128,0,31477:0:0:0:0:
402,192,31138,128,0,31816:0:0:0:0:
36,192,31138,1,0,0:0:0:0:
36,192,31477,128,0,31816:0:0:0:0:
475,192,31816,128,0,31985:0:0:0:0:
109,192,31816,1,0,0:0:0:0:
329,192,31985,128,0,32155:0:0:0:0:
182,192,31985,1,0,0:0:0:0:
402,192,32155,128,0,32324:0:0:0:0:
36,192,32155,1,0,0:0:0:0:
256,192,32324,128,0,32494:0:0:0:0:
109,192,32324,1,0,0:0:0:0:
329,192,32494,1,0,0:0:0:0:
36,192,32494,1,0,0:0:0:0:
182,192,32663,1,0,0:0:0:0:
329,192,32663,1,0,0:0:0:0:
256,192,32833,1,0,0:0:0:0:
109,192,33002,128,0,33172:0:0:0:0:
329,192,33002,1,0,0:0:0:0:
182,192,33341,1,0,0:0:0:0:
329,192,33341,1,0,0:0:0:0:
475,192,33341,1,0,0:0:0:0:
402,192,33426,1,0,0:0:0:0:
109,192,33426,1,0,0:0:0:0:
329,192,33511,1,0,0:0:0:0:
36,192,33511,1,0,0:0:0:0:
475,192,33680,1,0,0:0:0:0:
182,192,33680,1,0,0:0:0:0:
36,192,33680,1,0,0:0:0:0:
329,192,33680,1,0,0:0:0:0:
36,192,33850,1,0,0:0:0:0:
182,192,33850,1,0,0:0:0:0:
329,192,33850,1,0,0:0:0:0:
475,192,33850,1,0,0:0:0:0:
109,192,34019,1,0,0:0:0:0:
256,192,34019,1,0,0:0:0:0:
402,192,34019,1,0,0:0:0:0:
109,192,34189,1,0,0:0:0:0:
256,192,34189,1,0,0:0:0:0:
402,192,34189,1,0,0:0:0:0:
36,192,34358,1,0,0:0:0:0:
475,192,34358,1,0,0:0:0:0:
36,192,34528,1,0,0:0:0:0:
475,192,34528,1,0,0:0:0:0:
256,192,34528,1,0,0:0:0:0:
109,192,34697,1,0,0:0:0:0:
402,192,34697,1,0,0:0:0:0:
329,192,34867,1,0,0:0:0:0:
182,192,35036,1,0,0:0:0:0:
256,192,35206,128,0,35545:0:0:0:0:
329,192,35206,1,0,0:0:0:0:
109,192,35206,1,0,0:0:0:0:
182,192,35375,1,0,0:0:0:0:
329,192,35375,1,0,0:0:0:0:
402,192,35545,1,0,0:0:0:0:
109,192,35545,1,0,0:0:0:0:
36,192,35545,1,0,0:0:0:0:
475,192,35545,1,0,0:0:0:0:
182,192,35714,1,0,0:0:0:0:
475,192,35714,1,0,0:0:0:0:
402,192,35799,1,0,0:0:0:0:
109,192,35799,1,0,0:0:0:0:
329,192,35884,1,0,0:0:0:0:
36,192,35884,1,0,0:0:0:0:
36,192,36053,1,0,0:0:0:0:
329,192,36053,1,0,0:0:0:0:
109,192,36138,1,0,0:0:0:0:
402,192,36138,1,0,0:0:0:0:
182,192,36223,1,0,0:0:0:0:
475,192,36223,1,0,0:0:0:0:
402,192,36392,1,0,0:0:0:0:
475,192,36392,1,0,0:0:0:0:
329,192,36562,1,0,0:0:0:0:
109,192,36562,128,0,36901:0:0:0:0:
182,192,36562,1,0,0:0:0:0:
256,192,36731,1,0,0:0:0:0:
402,192,36731,1,0,0:0:0:0:
329,192,36901,1,0,0:0:0:0:
402,192,36901,1,0,0:0:0:0:
475,192,36901,1,0,0:0:0:0:
182,192,37070,1,0,0:0:0:0:
109,192,37240,1,0,0:0:0:0:
256,192,37240,1,0,0:0:0:0:
402,192,37240,1,0,0:0:0:0:
109,192,37409,1,0,0:0:0:0:
402,192,37409,1,0,0:0:0:0:
402,192,37579,1,0,0:0:0:0:
109,192,37579,1,0,0:0:0:0:
36,192,37748,128,0,37918:0:0:0:0:
475,192,37748,128,0,37918:0:0:0:0:
329,192,37748,1,0,0:0:0:0:
182,192,37748,1,0,0:0:0:0:
109,192,37918,128,0,38257:0:0:0:0:
402,192,37918,128,0,38257:0:0:0:0:
256,192,37918,1,0,0:0:0:0:
256,192,38087,1,0,0:0:0:0:
36,192,38257,1,0,0:0:0:0:
475,192,38257,1,0,0:0:0:0:
329,192,38257,1,0,0:0:0:0:
182,192,38257,1,0,0:0:0:0:
256,192,38426,1,0,0:0:0:0:
109,192,38596,1,0,0:0:0:0:
475,192,38596,1,0,0:0:0:0:
182,192,38765,1,0,0:0:0:0:
256,192,38850,1,0,0:0:0:0:
329,192,38935,1,0,0:0:0:0:
256,192,39019,1,0,0:0:0:0:
182,192,39104,1,0,0:0:0:0:
256,192,39189,1,0,0:0:0:0:
36,192,39274,1,0,0:0:0:0:
182,192,39274,1,0,0:0:0:0:
329,192,39274,1,0,0:0:0:0:
475,192,39274,1,0,0:0:0:0:
109,192,39613,1,0,0:0:0:0:
256,192,39613,1,0,0:0:0:0:
402,192,39613,1,0,0:0:0:0:
182,192,39952,1,0,0:0:0:0:
329,192,39952,1,0,0:0:0:0:
109,192,40121,1,0,0:0:0:0:
402,192,40121,1,0,0:0:0:0:
329,192,40291,1,0,0:0:0:0:
182,192,40460,1,0,0:0:0:0:
109,192,40630,128,0,40968:0:0:0:0:
402,192,40630,128,0,40968:0:0:0:0:
329,192,40630,1,0,0:0:0:0:
256,192,40799,1,0,0:0:0:0:
36,192,40968,1,0,0:0:0:0:
182,192,40968,1,0,0:0:0:0:
329,192,40968,1,0,0:0:0:0:
475,192,40968,1,0,0:0:0:0:
475,192,41138,1,0,0:0:0:0:
182,192,41138,1,0,0:0:0:0:
109,192,41223,1,0,0:0:0:0:
402,192,41223,1,0,0:0:0:0:
36,192,41307,1,0,0:0:0:0:
329,192,41307,1,0,0:0:0:0:
36,192,41477,1,0,0:0:0:0:
329,192,41477,1,0,0:0:0:0:
109,192,41562,1,0,0:0:0:0:
402,192,41562,1,0,0:0:0:0:
182,192,41646,1,0,0:0:0:0:
475,192,41646,1,0,0:0:0:0:
36,192,41816,1,0,0:0:0:0:
182,192,41816,1,0,0:0:0:0:
329,192,41816,1,0,0:0:0:0:
475,192,41816,1,0,0:0:0:0:
109,192,41985,128,0,42324:0:0:0:0:
402,192,41985,128,0,42324:0:0:0:0:
36,192,41985,1,0,0:0:0:0:
475,192,41985,1,0,0:0:0:0:
256,192,42155,1,0,0:0:0:0:
182,192,42324,1,0,0:0:0:0:
256,192,42324,1,0,0:0:0:0:
329,192,42324,1,0,0:0:0:0:
182,192,42494,1,0,0:0:0:0:
402,192,42663,128,0,42833:0:0:0:0:
329,192,42663,1,0,0:0:0:0:
109,192,42663,1,0,0:0:0:0:
256,192,42833,128,0,43002:0:0:0:0:
182,192,42833,1,0,0:0:0:0:
329,192,43002,128,0,43172:0:0:0:0:
402,192,43002,1,0,0:0:0:0:
182,192,43172,128,0,43341:0:0:0:0:
36,192,43172,1,0,0:0:0:0:
256,192,43341,1,0,0:0:0:0:
109,192,43341,1,0,0:0:0:0:
402,192,43341,1,0,0:0:0:0:
475,192,43341,1,0,0:0:0:0:
182,192,43511,1,0,0:0:0:0:
109,192,43680,128,0,43850:0:0:0:0:
36,192,43680,1,0,0:0:0:0:
182,192,43680,1,0,0:0:0:0:
329,192,43680,1,0,0:0:0:0:
402,192,43680,1,0,0:0:0:0:
256,192,43850,1,0,0:0:0:0:
329,192,43850,1,0,0:0:0:0:
36,192,44189,1,0,0:0:0:0:
109,192,44189,1,0,0:0:0:0:
182,192,44189,1,0,0:0:0:0:
329,192,44189,1,0,0:0:0:0:
402,192,44189,1,0,0:0:0:0:
475,192,44189,1,0,0:0:0:0:
475,192,44528,1,0,0:0:0:0:
329,192,44528,1,0,0:0:0:0:
182,192,44528,1,0,0:0:0:0:
36,192,44528,1,0,0:0:0:0:
36,192,44697,1,0,0:0:0:0:
182,192,44697,1,0,0:0:0:0:
329,192,44697,1,0,0:0:0:0:
475,192,44697,1,0,0:0:0:0:
256,192,45036,128,0,45375:0:0:0:0:
109,192,45375,1,0,0:0:0:0:
402,192,45375,1,0,0:0:0:0:
182,192,45545,1,0,0:0:0:0:
329,192,45545,1,0,0:0:0:0:
256,192,45714,1,0,0:0:0:0:
36,192,45884,1,0,0:0:0:0:
182,192,45884,1,0,0:0:0:0:
402,192,46053,1,0,0:0:0:0:
475,192,46053,1,0,0:0:0:0:
182,192,46223,1,0,0:0:0:0:
329,192,46223,1,0,0:0:0:0:
36,192,46392,1,0,0:0:0:0:
109,192,46392,1,0,0:0:0:0:
329,192,46562,1,0,0:0:0:0:
475,192,46562,1,0,0:0:0:0:
402,192,46731,1,0,0:0:0:0:
475,192,46816,1,0,0:0:0:0:
329,192,46901,1,0,0:0:0:0:
402,192,46985,1,0,0:0:0:0:
256,192,47070,1,0,0:0:0:0:
329,192,47155,1,0,0:0:0:0:
182,192,47240,1,0,0:0:0:0:
256,192,47324,1,0,0:0:0:0:
109,192,47409,1,0,0:0:0:0:
182,192,47494,1,0,0:0:0:0:
36,192,47579,1,0,0:0:0:0:
109,192,47663,1,0,0:0:0:0:
329,192,47748,128,0,47918:0:0:0:0:
475,192,47748,128,0,47918:0:0:0:0:
256,192,47918,128,0,48087:0:0:0:0:
402,192,47918,128,0,48087:0:0:0:0:
36,192,48087,1,0,0:0:0:0:
182,192,48087,1,0,0:0:0:0:
475,192,48087,1,0,0:0:0:0:
109,192,48172,1,0,0:0:0:0:
182,192,48257,1,0,0:0:0:0:
329,192,48257,1,0,0:0:0:0:
36,192,48426,1,0,0:0:0:0:
182,192,48426,1,0,0:0:0:0:
475,192,48426,1,0,0:0:0:0:
109,192,48511,1,0,0:0:0:0:
182,192,48596,1,0,0:0:0:0:
329,192,48596,1,0,0:0:0:0:
256,192,48765,1,0,0:0:0:0:
182,192,48850,1,0,0:0:0:0:
329,192,48850,1,0,0:0:0:0:
36,192,48935,1,0,0:0:0:0:
475,192,48935,1,0,0:0:0:0:
109,192,49019,1,0,0:0:0:0:
402,192,49019,1,0,0:0:0:0:
36,192,49104,1,0,0:0:0:0:
475,192,49104,1,0,0:0:0:0:
256,192,49274,1,0,0:0:0:0:
182,192,49443,1,0,0:0:0:0:
36,192,49443,1,0,0:0:0:0:
329,192,49443,1,0,0:0:0:0:
475,192,49443,1,0,0:0:0:0:
256,192,49613,1,0,0:0:0:0:
36,192,49782,1,0,0:0:0:0:
182,192,49782,1,0,0:0:0:0:
329,192,49782,1,0,0:0:0:0:
475,192,49782,1,0,0:0:0:0:
256,192,49952,1,0,0:0:0:0:
109,192,50121,128,0,50460:0:0:0:0:
256,192,50121,128,0,50460:0:0:0:0:
402,192,50121,128,0,50460:0:0:0:0:
475,192,50121,1,0,0:0:0:0:
36,192,50121,1,0,0:0:0:0:
475,192,50291,1,0,0:0:0:0:
182,192,50460,128,0,50799:0:0:0:0:
329,192,50460,128,0,50799:0:0:0:0:
36,192,50460,1,0,0:0:0:0:
36,192,50630,1,0,0:0:0:0:
256,192,50799,1,0,0:0:0:0:
475,192,50799,1,0,0:0:0:0:
402,192,50968,1,0,0:0:0:0:
36,192,51138,1,0,0:0:0:0:
256,192,51138,1,0,0:0:0:0:
109,192,51307,1,0,0:0:0:0:
182,192,51477,1,0,0:0:0:0:
109,192,51562,1,0,0:0:0:0:
256,192,51646,1,0,0:0:0:0:
182,192,51731,1,0,0:0:0:0:
329,192,51816,1,0,0:0:0:0:
256,192,51901,1,0,0:0:0:0:
402,192,51985,1,0,0:0:0:0:
329,192,52070,1,0,0:0:0:0:
109,192,52155,128,0,52494:0:0:0:0:
475,192,52155,128,0,52494:0:0:0:0:
36,192,52155,1,0,0:0:0:0:
402,192,52155,1,0,0:0:0:0:
256,192,52324,1,0,0:0:0:0:
402,192,52494,1,0,0:0:0:0:
182,192,52494,1,0,0:0:0:0:
329,192,52663,1,0,0:0:0:0:
402,192,52833,1,0,0:0:0:0:
256,192,52833,1,0,0:0:0:0:
256,192,53002,1,0,0:0:0:0:
182,192,53172,1,0,0:0:0:0:
329,192,53341,1,0,0:0:0:0:
182,192,53341,1,0,0:0:0:0:
36,192,53511,128,0,53850:0:0:0:0:
475,192,53511,128,0,53850:0:0:0:0:
109,192,53511,1,0,0:0:0:0:
256,192,53680,1,0,0:0:0:0:
329,192,53850,1,0,0:0:0:0:
182,192,53935,1,0,0:0:0:0:
329,192,54019,1,0,0:0:0:0:
182,192,54104,1,0,0:0:0:0:
109,192,54189,128,0,54528:0:0:0:0:
256,192,54189,128,0,54528:0:0:0:0:
402,192,54189,128,0,54528:0:0:0:0:
329,192,54189,1,0,0:0:0:0:
182,192,54358,1,0,0:0:0:0:
182,192,54528,1,0,0:0:0:0:
329,192,54528,1,0,0:0:0:0:
182,192,54697,1,0,0:0:0:0:
329,192,54697,1,0,0:0:0:0:
256,192,54867,128,0,55545:0:0:0:0:
475,192,54867,1,0,0:0:0:0:
36,192,54952,1,0,0:0:0:0:
475,192,55036,1,0,0:0:0:0:
36,192,55121,1,0,0:0:0:0:
475,192,55206,1,0,0:0:0:0:
36,192,55291,1,0,0:0:0:0:
475,192,55375,1,0,0:0:0:0:
36,192,55460,1,0,0:0:0:0:
109,192,55545,128,0,56223:0:0:0:0:
475,192,55545,1,0,0:0:0:0:
329,192,55545,1,0,0:0:0:0:
329,192,55714,1,0,0:0:0:0:
402,192,55884,128,0,56223:0:0:0:0:
256,192,55884,1,0,0:0:0:0:
256,192,56053,1,0,0:0:0:0:
182,192,56223,1,0,0:0:0:0:
329,192,56223,1,0,0:0:0:0:
36,192,56223,1,0,0:0:0:0:
475,192,56223,1,0,0:0:0:0:
256,192,56392,1,0,0:0:0:0:
109,192,56562,1,0,0:0:0:0:
402,192,56562,1,0,0:0:0:0:
256,192,56731,1,0,0:0:0:0:
402,192,56731,1,0,0:0:0:0:
475,192,56901,1,0,0:0:0:0:
182,192,56901,1,0,0:0:0:0:
256,192,57070,1,0,0:0:0:0:
36,192,57240,1,0,0:0:0:0:
329,192,57240,1,0,0:0:0:0:
109,192,57409,1,0,0:0:0:0:
256,192,57409,1,0,0:0:0:0:
329,192,57579,1,0,0:0:0:0:
402,192,57663,1,0,0:0:0:0:
256,192,57748,1,0,0:0:0:0:
329,192,57833,1,0,0:0:0:0:
182,192,57918,1,0,0:0:0:0:
256,192,58002,1,0,0:0:0:0:
109,192,58087,1,0,0:0:0:0:
182,192,58172,1,0,0:0:0:0:
329,192,58257,128,0,58596:0:0:0:0:
475,192,58257,128,0,58596:0:0:0:0:
36,192,58257,1,0,0:0:0:0:
182,192,58426,1,0,0:0:0:0:
109,192,58596,128,0,58935:0:0:0:0:
402,192,58596,128,0,58935:0:0:0:0:
36,192,58596,1,0,0:0:0:0:
182,192,58765,1,0,0:0:0:0:
256,192,58935,1,0,0:0:0:0:
36,192,58935,1,0,0:0:0:0:
475,192,58935,1,0,0:0:0:0:
256,192,59104,1,0,0:0:0:0:
36,192,59104,1,0,0:0:0:0:
475,192,59104,1,0,0:0:0:0:
256,192,59274,1,0,0:0:0:0:
36,192,59274,1,0,0:0:0:0:
475,192,59274,1,0,0:0:0:0:
256,192,59443,1,0,0:0:0:0:
36,192,59443,1,0,0:0:0:0:
475,192,59443,1,0,0:0:0:0:
329,192,59613,1,0,0:0:0:0:
256,192,59697,1,0,0:0:0:0:
182,192,59782,1,0,0:0:0:0:
36,192,59952,128,0,60460:0:0:0:0:
402,192,59952,1,0,0:0:0:0:
475,192,59952,1,0,0:0:0:0:
329,192,60121,1,0,0:0:0:0:
256,192,60121,1,0,0:0:0:0:
329,192,60460,1,0,0:0:0:0:
402,192,60460,1,0,0:0:0:0:
475,192,60460,1,0,0:0:0:0:
256,192,60799,1,0,0:0:0:0:
402,192,60799,1,0,0:0:0:0:
109,192,60799,1,0,0:0:0:0:
36,192,60968,1,0,0:0:0:0:
475,192,60968,1,0,0:0:0:0:
109,192,61053,1,0,0:0:0:0:
402,192,61053,1,0,0:0:0:0:
36,192,61138,1,0,0:0:0:0:
475,192,61138,1,0,0:0:0:0:
109,192,61223,1,0,0:0:0:0:
402,192,61223,1,0,0:0:0:0:
36,192,61307,1,0,0:0:0:0:
475,192,61307,1,0,0:0:0:0:
109,192,61392,1,0,0:0:0:0:
402,192,61392,1,0,0:0:0:0:
36,192,61477,1,0,0:0:0:0:
475,192,61477,1,0,0:0:0:0:
109,192,61562,1,0,0:0:0:0:
402,192,61562,1,0,0:0:0:0:
182,192,61646,1,0,0:0:0:0:
329,192,61646,1,0,0:0:0:0:
36,192,61646,1,0,0:0:0:0:
475,192,61646,1,0,0:0:0:0:
182,192,61816,1,0,0:0:0:0:
329,192,61816,1,0,0:0:0:0:
36,192,61816,1,0,0:0:0:0:
475,192,61816,1,0,0:0:0:0:
109,192,62155,1,0,0:0:0:0:
256,192,62155,1,0,0:0:0:0:
402,192,62155,1,0,0:0:0:0:
109,192,62324,1,0,0:0:0:0:
402,192,62324,1,0,0:0:0:0:
256,192,62324,1,0,0:0:0:0:
36,192,62663,1,0,0:0:0:0:
256,192,62663,1,0,0:0:0:0:
475,192,62663,1,0,0:0:0:0:
256,192,62833,1,0,0:0:0:0:
475,192,62833,1,0,0:0:0:0:
36,192,62833,1,0,0:0:0:0:
109,192,63172,1,0,0:0:0:0:
182,192,63172,1,0,0:0:0:0:
329,192,63172,1,0,0:0:0:0:
402,192,63172,1,0,0:0:0:0:
109,192,63341,1,0,0:0:0:0:
402,192,63341,1,0,0:0:0:0:
182,192,63341,1,0,0:0:0:0:
329,192,63341,1,0,0:0:0:0:
109,192,63680,1,0,0:0:0:0:
402,192,63680,1,0,0:0:0:0:
182,192,63680,128,0,64019:0:0:0:0:
329,192,63680,128,0,64019:0:0:0:0:
36,192,64019,1,0,0:0:0:0:
475,192,64019,1,0,0:0:0:0:
256,192,64189,1,0,0:0:0:0:
475,192,64358,1,0,0:0:0:0:
329,192,64358,1,0,0:0:0:0:
402,192,64358,1,0,0:0:0:0:
329,192,64528,1,0,0:0:0:0:
36,192,64697,1,0,0:0:0:0:
182,192,64697,1,0,0:0:0:0:
109,192,64697,1,0,0:0:0:0:
182,192,64867,1,0,0:0:0:0:
329,192,65036,1,0,0:0:0:0:
475,192,65036,1,0,0:0:0:0:
109,192,65036,1,0,0:0:0:0:
329,192,65206,1,0,0:0:0:0:
475,192,65206,1,0,0:0:0:0:
182,192,65206,1,0,0:0:0:0:
36,192,65375,1,0,0:0:0:0:
182,192,65375,1,0,0:0:0:0:
402,192,65375,1,0,0:0:0:0:
36,192,65545,1,0,0:0:0:0:
182,192,65545,1,0,0:0:0:0:
329,192,65545,1,0,0:0:0:0:
109,192,65714,1,0,0:0:0:0:
256,192,65884,1,0,0:0:0:0:
402,192,65884,1,0,0:0:0:0:
475,192,65884,1,0,0:0:0:0:
36,192,66223,1,0,0:0:0:0:
109,192,66223,1,0,0:0:0:0:
256,192,66223,1,0,0:0:0:0:
36,192,66392,1,0,0:0:0:0:
109,192,66392,1,0,0:0:0:0:
256,192,66392,1,0,0:0:0:0:
329,192,66477,1,0,0:0:0:0:
402,192,66562,1,0,0:0:0:0:
475,192,66646,1,0,0:0:0:0:
36,192,66731,128,0,68087:0:0:0:0:
329,192,67070,1,0,0:0:0:0:
475,192,67070,1,0,0:0:0:0:
402,192,67324,1,0,0:0:0:0:
329,192,67409,1,0,0:0:0:0:
402,192,67663,1,0,0:0:0:0:
329,192,67748,1,0,0:0:0:0:
256,192,67833,1,0,0:0:0:0:
182,192,67918,1,0,0:0:0:0:
256,192,67960,1,0,0:0:0:0:
329,192,68002,1,0,0:0:0:0:
402,192,68045,1,0,0:0:0:0:
475,192,68087,1,0,0:0:0:0:
182,192,68087,1,0,0:0:0:0:
109,192,68087,128,0,69782:0:0:0:0:
402,192,68596,128,0,69782:0:0:0:0:
256,192,69274,128,0,69782:0:0:0:0:
182,192,69782,128,0,71138:0:0:0:0:
475,192,69782,1,0,0:0:0:0:
402,192,69952,1,0,0:0:0:0:
329,192,70121,1,0,0:0:0:0:
475,192,70121,1,0,0:0:0:0:
475,192,70375,1,0,0:0:0:0:
329,192,70630,1,0,0:0:0:0:
475,192,70630,1,0,0:0:0:0:
402,192,70799,1,0,0:0:0:0:
475,192,70968,1,0,0:0:0:0:
256,192,70968,1,0,0:0:0:0:
109,192,71138,128,0,72155:0:0:0:0:
329,192,71138,1,0,0:0:0:0:
329,192,71307,1,0,0:0:0:0:
256,192,71477,1,0,0:0:0:0:
402,192,71477,1,0,0:0:0:0:
36,192,71477,1,0,0:0:0:0:
402,192,71703,1,0,0:0:0:0:
256,192,71703,1,0,0:0:0:0:
36,192,71703,1,0,0:0:0:0:
329,192,71985,1,0,0:0:0:0:
182,192,72155,1,0,0:0:0:0:
402,192,72155,1,0,0:0:0:0:
109,192,72324,1,0,0:0:0:0:
475,192,72324,1,0,0:0:0:0:
36,192,72494,128,0,73172:0:0:0:0:
329,192,72494,1,0,0:0:0:0:
256,192,72494,1,0,0:0:0:0:
329,192,72663,1,0,0:0:0:0:
109,192,72833,1,0,0:0:0:0:
475,192,72833,1,0,0:0:0:0:
475,192,73059,1,0,0:0:0:0:
109,192,73059,1,0,0:0:0:0:
329,192,73172,128,0,73850:0:0:0:0:
36,192,73341,1,0,0:0:0:0:
256,192,73341,1,0,0:0:0:0:
182,192,73511,1,0,0:0:0:0:
109,192,73680,1,0,0:0:0:0:
256,192,73680,1,0,0:0:0:0:
402,192,73850,128,0,74528:0:0:0:0:
36,192,73850,1,0,0:0:0:0:
182,192,74019,1,0,0:0:0:0:
256,192,74189,1,0,0:0:0:0:
109,192,74189,1,0,0:0:0:0:
256,192,74415,1,0,0:0:0:0:
109,192,74415,1,0,0:0:0:0:
475,192,74528,128,0,75206:0:0:0:0:
329,192,74697,1,0,0:0:0:0:
109,192,74697,1,0,0:0:0:0:
182,192,74867,1,0,0:0:0:0:
256,192,75036,1,0,0:0:0:0:
109,192,75206,1,0,0:0:0:0:
329,192,75206,1,0,0:0:0:0:
256,192,75375,1,0,0:0:0:0:
36,192,75545,1,0,0:0:0:0:
402,192,75545,1,0,0:0:0:0:
402,192,75799,1,0,0:0:0:0:
36,192,75799,1,0,0:0:0:0:
182,192,76053,1,0,0:0:0:0:
256,192,76053,1,0,0:0:0:0:
329,192,76223,1,0,0:0:0:0:
475,192,76223,1,0,0:0:0:0:
402,192,76392,1,0,0:0:0:0:
109,192,76392,1,0,0:0:0:0:
182,192,76562,1,0,0:0:0:0:
36,192,76562,1,0,0:0:0:0:
329,192,76901,1,0,0:0:0:0:
402,192,76901,1,0,0:0:0:0:
475,192,76901,1,0,0:0:0:0:
182,192,77070,1,0,0:0:0:0:
36,192,77070,1,0,0:0:0:0:
256,192,77409,1,0,0:0:0:0:
182,192,77579,1,0,0:0:0:0:
109,192,77579,1,0,0:0:0:0:
36,192,77579,1,0,0:0:0:0:
109,192,77748,1,0,0:0:0:0:
402,192,77748,1,0,0:0:0:0:
109,192,77833,1,0,0:0:0:0:
402,192,77833,1,0,0:0:0:0:
329,192,77918,1,0,0:0:0:0:
475,192,77918,1,0,0:0:0:0:
182,192,77918,1,0,0:0:0:0:
36,192,77918,1,0,0:0:0:0:
182,192,78257,1,0,0:0:0:0:
329,192,78257,1,0,0:0:0:0:
256,192,78257,1,0,0:0:0:0:
36,192,78511,1,0,0:0:0:0:
182,192,78511,1,0,0:0:0:0:
402,192,78511,1,0,0:0:0:0:
109,192,78765,1,0,0:0:0:0:
256,192,78765,1,0,0:0:0:0:
329,192,78935,1,0,0:0:0:0:
475,192,78935,1,0,0:0:0:0:
36,192,78935,1,0,0:0:0:0:
402,192,79104,1,0,0:0:0:0:
109,192,79104,1,0,0:0:0:0:
36,192,79274,128,0,80630:0:0:0:0:
475,192,79274,128,0,80630:0:0:0:0:
256,192,79274,1,0,0:0:0:0:
402,192,79782,1,0,0:0:0:0:
109,192,79782,1,0,0:0:0:0:
329,192,79867,1,0,0:0:0:0:
182,192,79867,1,0,0:0:0:0:
256,192,79952,1,0,0:0:0:0:
182,192,80121,1,0,0:0:0:0:
329,192,80121,1,0,0:0:0:0:
182,192,80291,1,0,0:0:0:0:
329,192,80291,1,0,0:0:0:0:
109,192,80460,1,0,0:0:0:0:
402,192,80460,1,0,0:0:0:0:
109,192,80630,1,0,0:0:0:0:
402,192,80630,1,0,0:0:0:0:
36,192,80968,1,0,0:0:0:0:
182,192,80968,1,0,0:0:0:0:
256,192,80968,1,0,0:0:0:0:
475,192,81138,1,0,0:0:0:0:
329,192,81138,1,0,0:0:0:0:
109,192,81307,128,0,81646:0:0:0:0:
402,192,81307,128,0,81646:0:0:0:0:
182,192,81646,1,0,0:0:0:0:
256,192,81646,1,0,0:0:0:0:
329,192,81646,1,0,0:0:0:0:
36,192,81816,1,0,0:0:0:0:
182,192,81816,1,0,0:0:0:0:
329,192,81816,1,0,0:0:0:0:
475,192,81816,1,0,0:0:0:0:
36,192,81985,1,0,0:0:0:0:
182,192,81985,1,0,0:0:0:0:
329,192,81985,1,0,0:0:0:0:
475,192,81985,1,0,0:0:0:0:
402,192,82155,1,0,0:0:0:0:
256,192,82240,1,0,0:0:0:0:
109,192,82324,1,0,0:0:0:0:
402,192,82324,1,0,0:0:0:0:
402,192,82494,1,0,0:0:0:0:
256,192,82663,128,0,83002:0:0:0:0:
182,192,82663,1,0,0:0:0:0:
36,192,82663,1,0,0:0:0:0:
329,192,82663,1,0,0:0:0:0:
475,192,82663,1,0,0:0:0:0:
109,192,82833,1,0,0:0:0:0:
402,192,82833,1,0,0:0:0:0:
36,192,83002,1,0,0:0:0:0:
475,192,83002,1,0,0:0:0:0:
182,192,83002,1,0,0:0:0:0:
329,192,83002,1,0,0:0:0:0:
109,192,83172,1,0,0:0:0:0:
402,192,83172,1,0,0:0:0:0:
109,192,83341,1,0,0:0:0:0:
256,192,83341,1,0,0:0:0:0:
402,192,83341,1,0,0:0:0:0:
256,192,83511,1,0,0:0:0:0:
109,192,83680,1,0,0:0:0:0:
256,192,83680,1,0,0:0:0:0:
329,192,83680,1,0,0:0:0:0:
402,192,83850,1,0,0:0:0:0:
36,192,84019,128,0,84358:0:0:0:0:
475,192,84019,128,0,84358:0:0:0:0:
256,192,84358,1,0,0:0:0:0:
402,192,84358,1,0,0:0:0:0:
182,192,84358,1,0,0:0:0:0:
256,192,84528,1,0,0:0:0:0:
109,192,84528,1,0,0:0:0:0:
475,192,84867,1,0,0:0:0:0:
36,192,84867,1,0,0:0:0:0:
402,192,84952,1,0,0:0:0:0:
109,192,84952,1,0,0:0:0:0:
329,192,85036,1,0,0:0:0:0:
182,192,85036,1,0,0:0:0:0:
36,192,85036,1,0,0:0:0:0:
475,192,85036,1,0,0:0:0:0:
402,192,85121,1,0,0:0:0:0:
109,192,85121,1,0,0:0:0:0:
36,192,85206,1,0,0:0:0:0:
475,192,85206,1,0,0:0:0:0:
402,192,85291,1,0,0:0:0:0:
109,192,85291,1,0,0:0:0:0:
182,192,85375,128,0,86053:0:0:0:0:
329,192,85375,128,0,86053:0:0:0:0:
256,192,85714,1,0,0:0:0:0:
109,192,85714,1,0,0:0:0:0:
402,192,85714,1,0,0:0:0:0:
475,192,86053,128,0,86731:0:0:0:0:
36,192,86053,1,0,0:0:0:0:
329,192,86307,1,0,0:0:0:0:
36,192,86392,128,0,86731:0:0:0:0:
182,192,86392,1,0,0:0:0:0:
256,192,86562,1,0,0:0:0:0:
256,192,86731,128,0,87409:0:0:0:0:
36,192,87070,1,0,0:0:0:0:
475,192,87070,1,0,0:0:0:0:
182,192,87127,1,0,0:0:0:0:
329,192,87127,1,0,0:0:0:0:
109,192,87183,1,0,0:0:0:0:
402,192,87183,1,0,0:0:0:0:
36,192,87240,1,0,0:0:0:0:
475,192,87240,1,0,0:0:0:0:
109,192,87296,1,0,0:0:0:0:
402,192,87296,1,0,0:0:0:0:
182,192,87353,1,0,0:0:0:0:
329,192,87353,1,0,0:0:0:0:
475,192,87409,1,0,0:0:0:0:
36,192,87409,1,0,0:0:0:0:
402,192,87663,1,0,0:0:0:0:
109,192,87663,1,0,0:0:0:0:
402,192,87833,1,0,0:0:0:0:
109,192,87833,1,0,0:0:0:0:
329,192,87918,1,0,0:0:0:0:
256,192,88002,1,0,0:0:0:0:
182,192,88087,128,0,88426:0:0:0:0:
329,192,88087,128,0,88426:0:0:0:0:
475,192,88426,1,0,0:0:0:0:
36,192,88426,1,0,0:0:0:0:
402,192,88483,1,0,0:0:0:0:
109,192,88483,1,0,0:0:0:0:
329,192,88539,1,0,0:0:0:0:
182,192,88539,1,0,0:0:0:0:
256,192,88596,1,0,0:0:0:0:
182,192,88652,1,0,0:0:0:0:
329,192,88652,1,0,0:0:0:0:
109,192,88709,1,0,0:0:0:0:
402,192,88709,1,0,0:0:0:0:
475,192,88765,128,0,89104:0:0:0:0:
36,192,88765,1,0,0:0:0:0:
36,192,89104,1,0,0:0:0:0:
109,192,89104,1,0,0:0:0:0:
182,192,89104,1,0,0:0:0:0:
36,192,89443,128,0,89782:0:0:0:0:
329,192,89782,1,0,0:0:0:0:
402,192,89782,1,0,0:0:0:0:
475,192,89782,1,0,0:0:0:0:
36,192,90121,1,0,0:0:0:0:
475,192,90121,1,0,0:0:0:0:
109,192,90206,1,0,0:0:0:0:
329,192,90206,1,0,0:0:0:0:
36,192,90291,1,0,0:0:0:0:
475,192,90291,1,0,0:0:0:0:
109,192,90375,1,0,0:0:0:0:
329,192,90375,1,0,0:0:0:0:
36,192,90460,1,0,0:0:0:0:
475,192,90460,1,0,0:0:0:0:
109,192,90545,1,0,0:0:0:0:
329,192,90545,1,0,0:0:0:0:
36,192,90630,1,0,0:0:0:0:
475,192,90630,1,0,0:0:0:0:
109,192,90714,1,0,0:0:0:0:
329,192,90714,1,0,0:0:0:0:
36,192,90799,1,0,0:0:0:0:
475,192,90799,1,0,0:0:0:0:
109,192,90968,1,0,0:0:0:0:
402,192,90968,1,0,0:0:0:0:
475,192,91138,1,0,0:0:0:0:
256,192,91223,1,0,0:0:0:0:
36,192,91307,1,0,0:0:0:0:
36,192,91477,1,0,0:0:0:0:
182,192,91477,1,0,0:0:0:0:
329,192,91477,1,0,0:0:0:0:
475,192,91477,1,0,0:0:0:0:
256,192,91646,1,0,0:0:0:0:
109,192,91816,1,0,0:0:0:0:
475,192,91816,1,0,0:0:0:0:
402,192,91985,1,0,0:0:0:0:
36,192,91985,1,0,0:0:0:0:
256,192,92155,128,0,92494:0:0:0:0:
182,192,92155,1,0,0:0:0:0:
329,192,92324,1,0,0:0:0:0:
109,192,92494,1,0,0:0:0:0:
182,192,92494,1,0,0:0:0:0:
329,192,92494,1,0,0:0:0:0:
402,192,92494,1,0,0:0:0:0:
256,192,92663,1,0,0:0:0:0:
109,192,92833,1,0,0:0:0:0:
402,192,92833,1,0,0:0:0:0:
475,192,93002,1,0,0:0:0:0:
256,192,93087,1,0,0:0:0:0:
36,192,93172,1,0,0:0:0:0:
329,192,93341,1,0,0:0:0:0:
475,192,93341,1,0,0:0:0:0:
182,192,93511,1,0,0:0:0:0:
36,192,93511,1,0,0:0:0:0:
109,192,93511,128,0,93850:0:0:0:0:
402,192,93511,1,0,0:0:0:0:
256,192,93680,1,0,0:0:0:0:
402,192,93680,1,0,0:0:0:0:
329,192,93850,1,0,0:0:0:0:
402,192,93850,1,0,0:0:0:0:
475,192,93850,1,0,0:0:0:0:
182,192,94019,1,0,0:0:0:0:
329,192,94019,1,0,0:0:0:0:
256,192,94189,1,0,0:0:0:0:
36,192,94189,1,0,0:0:0:0:
475,192,94189,1,0,0:0:0:0:
36,192,94358,1,0,0:0:0:0:
475,192,94358,1,0,0:0:0:0:
256,192,94358,1,0,0:0:0:0:
402,192,94528,1,0,0:0:0:0:
109,192,94697,1,0,0:0:0:0:
256,192,94867,128,0,95206:0:0:0:0:
109,192,94867,1,0,0:0:0:0:
402,192,95036,1,0,0:0:0:0:
329,192,95206,1,0,0:0:0:0:
402,192,95206,1,0,0:0:0:0:
475,192,95206,1,0,0:0:0:0:
109,192,95375,1,0,0:0:0:0:
182,192,95375,1,0,0:0:0:0:
329,192,95545,1,0,0:0:0:0:
36,192,95714,1,0,0:0:0:0:
256,192,95714,1,0,0:0:0:0:
402,192,95714,1,0,0:0:0:0:
109,192,95799,1,0,0:0:0:0:
182,192,95884,1,0,0:0:0:0:
402,192,96053,1,0,0:0:0:0:
109,192,96223,1,0,0:0:0:0:
402,192,96223,1,0,0:0:0:0:
475,192,96223,1,0,0:0:0:0:
182,192,96223,1,0,0:0:0:0:
256,192,96392,1,0,0:0:0:0:
329,192,96562,1,0,0:0:0:0:
109,192,96562,1,0,0:0:0:0:
402,192,96562,1,0,0:0:0:0:
36,192,96562,1,0,0:0:0:0:
256,192,96731,1,0,0:0:0:0:
256,192,96901,1,0,0:0:0:0:
182,192,96901,1,0,0:0:0:0:
329,192,96901,1,0,0:0:0:0:
402,192,97070,1,0,0:0:0:0:
182,192,97070,1,0,0:0:0:0:
109,192,97240,1,0,0:0:0:0:
402,192,97409,1,0,0:0:0:0:
256,192,97579,128,0,97918:0:0:0:0:
109,192,97579,1,0,0:0:0:0:
402,192,97748,1,0,0:0:0:0:
36,192,97918,1,0,0:0:0:0:
475,192,97918,1,0,0:0:0:0:
329,192,97918,1,0,0:0:0:0:
182,192,97918,1,0,0:0:0:0:
109,192,98087,1,0,0:0:0:0:
402,192,98087,1,0,0:0:0:0:
256,192,98257,1,0,0:0:0:0:
475,192,98426,1,0,0:0:0:0:
36,192,98426,1,0,0:0:0:0:
256,192,98511,1,0,0:0:0:0:
36,192,98596,1,0,0:0:0:0:
256,192,98765,1,0,0:0:0:0:
402,192,98765,1,0,0:0:0:0:
109,192,98935,1,0,0:0:0:0:
256,192,98935,128,0,99274:0:0:0:0:
402,192,99104,1,0,0:0:0:0:
36,192,99274,1,0,0:0:0:0:
182,192,99274,1,0,0:0:0:0:
475,192,99274,1,0,0:0:0:0:
329,192,99274,1,0,0:0:0:0:
256,192,99443,1,0,0:0:0:0:
475,192,99613,128,0,99782:0:0:0:0:
36,192,99613,1,0,0:0:0:0:
329,192,99782,128,0,99952:0:0:0:0:
36,192,99782,1,0,0:0:0:0:
402,192,99952,128,0,100121:0:0:0:0:
182,192,99952,1,0,0:0:0:0:
256,192,100121,128,0,100291:0:0:0:0:
36,192,100121,1,0,0:0:0:0:
329,192,100291,1,0,0:0:0:0:
182,192,100460,1,0,0:0:0:0:
256,192,100630,1,0,0:0:0:0:
36,192,100630,1,0,0:0:0:0:
475,192,100630,1,0,0:0:0:0:
402,192,100799,1,0,0:0:0:0:
109,192,100799,1,0,0:0:0:0:
109,192,101138,1,0,0:0:0:0:
402,192,101138,1,0,0:0:0:0:
329,192,101477,1,0,0:0:0:0:
256,192,101562,1,0,0:0:0:0:
182,192,101646,128,0,101816:0:0:0:0:
475,192,101646,1,0,0:0:0:0:
36,192,101816,128,0,101985:0:0:0:0:
329,192,101816,1,0,0:0:0:0:
475,192,101985,128,0,102155:0:0:0:0:
256,192,101985,1,0,0:0:0:0:
329,192,102155,128,0,102324:0:0:0:0:
182,192,102155,1,0,0:0:0:0:
109,192,102324,1,0,0:0:0:0:
402,192,102324,1,0,0:0:0:0:
329,192,102494,1,0,0:0:0:0:
475,192,102494,1,0,0:0:0:0:
36,192,102663,1,0,0:0:0:0:
182,192,102663,1,0,0:0:0:0:
402,192,102833,1,0,0:0:0:0:
329,192,102833,1,0,0:0:0:0:
109,192,103002,128,0,103341:0:0:0:0:
182,192,103002,128,0,103341:0:0:0:0:
329,192,103002,1,0,0:0:0:0:
402,192,103172,1,0,0:0:0:0:
329,192,103341,1,0,0:0:0:0:
402,192,103341,1,0,0:0:0:0:
182,192,103511,1,0,0:0:0:0:
329,192,103511,1,0,0:0:0:0:
109,192,103596,1,0,0:0:0:0:
402,192,103596,1,0,0:0:0:0:
36,192,103680,1,0,0:0:0:0:
475,192,103680,1,0,0:0:0:0:
475,192,103850,1,0,0:0:0:0:
36,192,103850,1,0,0:0:0:0:
109,192,103935,1,0,0:0:0:0:
402,192,103935,1,0,0:0:0:0:
329,192,104019,1,0,0:0:0:0:
182,192,104019,1,0,0:0:0:0:
36,192,104189,1,0,0:0:0:0:
182,192,104189,1,0,0:0:0:0:
329,192,104189,1,0,0:0:0:0:
475,192,104189,1,0,0:0:0:0:
256,192,104358,1,0,0:0:0:0:
109,192,104358,128,0,104697:0:0:0:0:
402,192,104358,128,0,104697:0:0:0:0:
256,192,104528,1,0,0:0:0:0:
182,192,104697,1,0,0:0:0:0:
329,192,104697,1,0,0:0:0:0:
36,192,104697,1,0,0:0:0:0:
475,192,104697,1,0,0:0:0:0:
182,192,105036,1,0,0:0:0:0:
329,192,105036,1,0,0:0:0:0:
36,192,105206,1,0,0:0:0:0:
475,192,105206,1,0,0:0:0:0:
36,192,105291,1,0,0:0:0:0:
475,192,105291,1,0,0:0:0:0:
109,192,105375,1,0,0:0:0:0:
402,192,105375,1,0,0:0:0:0:
182,192,105545,1,0,0:0:0:0:
329,192,105545,1,0,0:0:0:0:
182,192,105630,1,0,0:0:0:0:
329,192,105630,1,0,0:0:0:0:
475,192,105714,1,0,0:0:0:0:
36,192,105714,1,0,0:0:0:0:
329,192,105884,1,0,0:0:0:0:
475,192,105884,1,0,0:0:0:0:
36,192,106053,1,0,0:0:0:0:
182,192,106053,1,0,0:0:0:0:
182,192,106223,1,0,0:0:0:0:
329,192,106223,1,0,0:0:0:0:
475,192,106392,128,0,106731:0:0:0:0:
36,192,106562,1,0,0:0:0:0:
109,192,106604,1,0,0:0:0:0:
182,192,106646,1,0,0:0:0:0:
256,192,106689,1,0,0:0:0:0:
329,192,106731,1,0,0:0:0:0:
402,192,106731,128,0,107070:0:0:0:0:
36,192,106901,1,0,0:0:0:0:
182,192,106901,1,0,0:0:0:0:
329,192,107070,128,0,107409:0:0:0:0:
256,192,107070,1,0,0:0:0:0:
109,192,107070,1,0,0:0:0:0:
256,192,107409,128,0,107748:0:0:0:0:
182,192,107409,1,0,0:0:0:0:
402,192,107409,1,0,0:0:0:0:
182,192,107748,1,0,0:0:0:0:
475,192,107748,1,0,0:0:0:0:
329,192,107748,1,0,0:0:0:0:
36,192,107748,1,0,0:0:0:0:
329,192,107918,1,0,0:0:0:0:
475,192,107918,1,0,0:0:0:0:
36,192,108087,1,0,0:0:0:0:
182,192,108087,1,0,0:0:0:0:
109,192,108257,1,0,0:0:0:0:
256,192,108257,1,0,0:0:0:0:
329,192,108426,128,0,108765:0:0:0:0:
475,192,108426,128,0,108765:0:0:0:0:
182,192,108426,1,0,0:0:0:0:
109,192,108596,1,0,0:0:0:0:
256,192,108765,1,0,0:0:0:0:
36,192,108765,1,0,0:0:0:0:
109,192,108935,1,0,0:0:0:0:
402,192,108935,1,0,0:0:0:0:
256,192,109104,1,0,0:0:0:0:
109,192,109274,1,0,0:0:0:0:
256,192,109358,1,0,0:0:0:0:
402,192,109443,1,0,0:0:0:0:
182,192,109613,1,0,0:0:0:0:
329,192,109613,1,0,0:0:0:0:
36,192,109782,1,0,0:0:0:0:
475,192,109782,1,0,0:0:0:0:
256,192,109782,128,0,110121:0:0:0:0:
329,192,109952,1,0,0:0:0:0:
182,192,109952,1,0,0:0:0:0:
109,192,110121,1,0,0:0:0:0:
402,192,110121,1,0,0:0:0:0:
256,192,110291,1,0,0:0:0:0:
36,192,110460,128,0,110630:0:0:0:0:
402,192,110460,1,0,0:0:0:0:
475,192,110460,1,0,0:0:0:0:
329,192,110460,1,0,0:0:0:0:
109,192,110630,128,0,110799:0:0:0:0:
329,192,110630,1,0,0:0:0:0:
182,192,110799,128,0,110968:0:0:0:0:
329,192,110968,128,0,111138:0:0:0:0:
36,192,110968,1,0,0:0:0:0:
475,192,111138,128,0,111307:0:0:0:0:
36,192,111138,1,0,0:0:0:0:
109,192,111138,1,0,0:0:0:0:
182,192,111138,1,0,0:0:0:0:
402,192,111307,128,0,111477:0:0:0:0:
475,192,111477,128,0,111646:0:0:0:0:
36,192,111477,1,0,0:0:0:0:
329,192,111646,128,0,111816:0:0:0:0:
36,192,111646,1,0,0:0:0:0:
109,192,111646,1,0,0:0:0:0:
182,192,111646,1,0,0:0:0:0:
36,192,111985,1,0,0:0:0:0:
182,192,111985,1,0,0:0:0:0:
329,192,111985,1,0,0:0:0:0:
475,192,111985,1,0,0:0:0:0:
36,192,112155,1,0,0:0:0:0:
182,192,112155,1,0,0:0:0:0:
329,192,112155,1,0,0:0:0:0:
475,192,112155,1,0,0:0:0:0:
109,192,112324,1,0,0:0:0:0:
256,192,112324,1,0,0:0:0:0:
402,192,112324,1,0,0:0:0:0:
109,192,112494,128,0,112833:0:0:0:0:
256,192,112494,128,0,112833:0:0:0:0:
402,192,112494,128,0,112833:0:0:0:0:
182,192,112833,128,0,113172:0:0:0:0:
329,192,112833,128,0,113172:0:0:0:0:
36,192,113172,128,0,115884:0:0:0:0:
475,192,113172,128,0,115884:0:0:0:0:
256,192,115375,128,0,115884:0:0:0:0:
