osu file format v13

[General]
AudioFilename: wuvumore2happy.mp3
AudioLeadIn: 0
PreviewTime: 90141
Countdown: 0
SampleSet: Normal
StackLeniency: 0.8
Mode: 3
LetterboxInBreaks: 0
SpecialStyle: 0
WidescreenStoryboard: 1

[Editor]
DistanceSpacing: 0.8
BeatDivisor: 4
GridSize: 4
TimelineZoom: 0.7000018

[Metadata]
Title:Wuv U -More2 HAPPY Re Mix Special-
TitleUnicode:Wuv U -More2 HAPPY Re Mix Special-
Artist:Yu_Asahina
ArtistUnicode:Yu_Asahina
Creator:-Sandy Corzeta-
Version:4K BASIC
Source:SOUND VOLTEX II -infinite infection-
Tags:
BeatmapID:529729
BeatmapSetID:227363

[Difficulty]
HPDrainRate:5.5
CircleSize:4
OverallDifficulty:6.5
ApproachRate:5
SliderMultiplier:1.5
SliderTickRate:1

[Events]
//Background and Video events
0,0,"Wuv-U-More2-Happy.jpg",0,0
//Break Periods
//Storyboard Layer 0 (Background)
//Storyboard Layer 1 (Fail)
//Storyboard Layer 2 (Pass)
//Storyboard Layer 3 (Foreground)
//Storyboard Sound Samples

[TimingPoints]
630,338.983050847458,4,1,1,30,1,0
34548,-100,4,1,1,30,0,1
45395,-100,4,1,1,30,0,0
91497,-100,4,1,1,30,0,1
110480,-100,4,1,1,30,0,0

[HitObjects]
64,192,630,128,0,1985:0:0:0:0:
448,192,1985,1,0,0:0:0:0:
64,192,2324,1,0,0:0:0:0:
448,192,2663,1,0,0:0:0:0:
64,192,3002,1,0,0:0:0:0:
320,192,3341,1,0,0:0:0:0:
192,192,3680,1,0,0:0:0:0:
448,192,4019,1,0,0:0:0:0:
192,192,4358,1,0,0:0:0:0:
448,192,4697,1,0,0:0:0:0:
64,192,5036,1,0,0:0:0:0:
448,192,5375,1,0,0:0:0:0:
64,192,5714,1,0,0:0:0:0:
320,192,6053,1,0,0:0:0:0:
64,192,6392,128,0,7409:0:0:0:0:
448,192,7409,1,0,0:0:0:0:
192,192,7748,1,0,0:0:0:0:
448,192,8087,1,0,0:0:0:0:
192,192,8426,1,0,0:0:0:0:
320,192,8765,1,0,0:0:0:0:
64,192,9104,1,0,0:0:0:0:
320,192,9443,1,0,0:0:0:0:
64,192,9782,1,0,0:0:0:0:
448,192,10121,128,0,11477:0:0:0:0:
64,192,11477,1,0,0:0:0:0:
320,192,11816,1,0,0:0:0:0:
192,192,12155,1,0,0:0:0:0:
64,192,12494,1,0,0:0:0:0:
448,192,12494,1,0,0:0:0:0:
320,192,12833,1,0,0:0:0:0:
64,192,13172,1,0,0:0:0:0:
448,192,13511,1,0,0:0:0:0:
320,192,13850,1,0,0:0:0:0:
192,192,14189,1,0,0:0:0:0:
448,192,14528,1,0,0:0:0:0:
64,192,14867,1,0,0:0:0:0:
320,192,15206,1,0,0:0:0:0:
64,192,15545,1,0,0:0:0:0:
320,192,15884,1,0,0:0:0:0:
192,192,16223,1,0,0:0:0:0:
320,192,16562,1,0,0:0:0:0:
448,192,16901,1,0,0:0:0:0:
64,192,17240,1,0,0:0:0:0:
192,192,17579,1,0,0:0:0:0:
448,192,17918,1,0,0:0:0:0:
192,192,18257,1,0,0:0:0:0:
64,192,18596,1,0,0:0:0:0:
320,192,18935,1,0,0:0:0:0:
448,192,19274,1,0,0:0:0:0:
192,192,19613,1,0,0:0:0:0:
64,192,19952,1,0,0:0:0:0:
320,192,20291,1,0,0:0:0:0:
448,192,20630,1,0,0:0:0:0:
64,192,20968,128,0,22324:0:0:0:0:
448,192,22324,1,0,0:0:0:0:
320,192,22663,1,0,0:0:0:0:
192,192,23002,1,0,0:0:0:0:
64,192,23341,1,0,0:0:0:0:
192,192,23680,1,0,0:0:0:0:
448,192,24528,1,0,0:0:0:0:
320,192,24697,1,0,0:0:0:0:
192,192,24867,1,0,0:0:0:0:
192,192,25884,1,0,0:0:0:0:
448,192,26223,1,0,0:0:0:0:
320,192,27240,1,0,0:0:0:0:
192,192,27409,1,0,0:0:0:0:
64,192,27579,1,0,0:0:0:0:
448,192,27918,1,0,0:0:0:0:
192,192,28087,1,0,0:0:0:0:
64,192,28426,1,0,0:0:0:0:
448,192,28765,1,0,0:0:0:0:
64,192,29104,1,0,0:0:0:0:
320,192,29443,1,0,0:0:0:0:
448,192,29782,1,0,0:0:0:0:
64,192,30121,1,0,0:0:0:0:
448,192,30460,1,0,0:0:0:0:
192,192,30799,1,0,0:0:0:0:
64,192,31138,1,0,0:0:0:0:
320,192,31477,1,0,0:0:0:0:
64,192,31816,1,0,0:0:0:0:
448,192,32494,1,0,0:0:0:0:
448,192,33172,1,0,0:0:0:0:
320,192,33511,1,0,0:0:0:0:
192,192,33850,1,0,0:0:0:0:
320,192,34189,1,0,0:0:0:0:
64,192,34528,1,0,0:0:0:0:
320,192,34867,1,0,0:0:0:0:
448,192,35206,1,0,0:0:0:0:
64,192,35545,1,0,0:0:0:0:
448,192,35884,1,0,0:0:0:0:
192,192,36223,1,0,0:0:0:0:
64,192,36562,1,0,0:0:0:0:
320,192,36901,1,0,0:0:0:0:
64,192,37240,1,0,0:0:0:0:
320,192,37579,1,0,0:0:0:0:
448,192,37918,1,0,0:0:0:0:
64,192,38257,1,0,0:0:0:0:
448,192,38596,1,0,0:0:0:0:
192,192,38935,1,0,0:0:0:0:
64,192,39274,1,0,0:0:0:0:
320,192,39613,1,0,0:0:0:0:
64,192,39952,1,0,0:0:0:0:
448,192,40291,1,0,0:0:0:0:
320,192,40630,1,0,0:0:0:0:
192,192,40968,1,0,0:0:0:0:
448,192,41307,1,0,0:0:0:0:
64,192,41646,1,0,0:0:0:0:
192,192,41985,1,0,0:0:0:0:
320,192,42324,1,0,0:0:0:0:
448,192,42663,1,0,0:0:0:0:
64,192,42663,1,0,0:0:0:0:
448,192,43341,1,0,0:0:0:0:
192,192,43341,1,0,0:0:0:0:
320,192,43850,1,0,0:0:0:0:
64,192,44189,1,0,0:0:0:0:
448,192,44528,1,0,0:0:0:0:
192,192,44697,1,0,0:0:0:0:
64,192,45375,1,0,0:0:0:0:
448,192,45714,1,0,0:0:0:0:
192,192,46053,1,0,0:0:0:0:
320,192,46392,1,0,0:0:0:0:
448,192,46731,1,0,0:0:0:0:
64,192,47070,1,0,0:0:0:0:
320,192,47409,1,0,0:0:0:0:
192,192,47748,1,0,0:0:0:0:
64,192,48087,1,0,0:0:0:0:
448,192,48426,1,0,0:0:0:0:
192,192,48765,1,0,0:0:0:0:
320,192,49104,1,0,0:0:0:0:
448,192,49443,1,0,0:0:0:0:
64,192,49782,1,0,0:0:0:0:
320,192,50121,1,0,0:0:0:0:
192,192,50460,1,0,0:0:0:0:
64,192,50799,1,0,0:0:0:0:
448,192,51138,1,0,0:0:0:0:
192,192,51477,1,0,0:0:0:0:
320,192,51816,1,0,0:0:0:0:
448,192,52155,1,0,0:0:0:0:
64,192,52494,1,0,0:0:0:0:
320,192,52833,1,0,0:0:0:0:
64,192,53172,1,0,0:0:0:0:
448,192,53511,1,0,0:0:0:0:
192,192,53850,1,0,0:0:0:0:
320,192,54189,1,0,0:0:0:0:
64,192,54528,1,0,0:0:0:0:
320,192,54867,1,0,0:0:0:0:
192,192,55206,1,0,0:0:0:0:
448,192,55545,1,0,0:0:0:0:
64,192,55884,1,0,0:0:0:0:
448,192,56223,1,0,0:0:0:0:
320,192,56562,1,0,0:0:0:0:
192,192,56901,1,0,0:0:0:0:
448,192,57240,1,0,0:0:0:0:
64,192,57579,1,0,0:0:0:0:
320,192,57918,1,0,0:0:0:0:
192,192,58257,1,0,0:0:0:0:
448,192,58596,1,0,0:0:0:0:
64,192,58935,1,0,0:0:0:0:
320,192,59274,1,0,0:0:0:0:
64,192,59613,1,0,0:0:0:0:
448,192,60121,1,0,0:0:0:0:
320,192,60460,1,0,0:0:0:0:
192,192,60799,1,0,0:0:0:0:
448,192,60968,128,0,61646:0:0:0:0:
64,192,61646,1,0,0:0:0:0:
320,192,61816,1,0,0:0:0:0:
192,192,62155,1,0,0:0:0:0:
448,192,62324,1,0,0:0:0:0:
320,192,62663,1,0,0:0:0:0:
64,192,62833,1,0,0:0:0:0:
448,192,63172,1,0,0:0:0:0:
64,192,63341,1,0,0:0:0:0:
192,192,63680,1,0,0:0:0:0:
320,192,64019,1,0,0:0:0:0:
64,192,64358,1,0,0:0:0:0:
192,192,64697,1,0,0:0:0:0:
448,192,65036,1,0,0:0:0:0:
320,192,65375,1,0,0:0:0:0:
192,192,65714,1,0,0:0:0:0:
320,192,66053,1,0,0:0:0:0:
192,192,66392,1,0,0:0:0:0:
448,192,66731,128,0,68087:0:0:0:0:
64,192,66731,1,0,0:0:0:0:
320,192,68087,128,0,69782:0:0:0:0:
192,192,69782,1,0,0:0:0:0:
320,192,71138,1,0,0:0:0:0:
192,192,72155,1,0,0:0:0:0:
320,192,72324,1,0,0:0:0:0:
448,192,72494,1,0,0:0:0:0:
192,192,73172,1,0,0:0:0:0:
320,192,73850,1,0,0:0:0:0:
448,192,74528,1,0,0:0:0:0:
192,192,75206,1,0,0:0:0:0:
320,192,76562,1,0,0:0:0:0:
448,192,77918,1,0,0:0:0:0:
320,192,79274,1,0,0:0:0:0:
64,192,80630,1,0,0:0:0:0:
448,192,80968,1,0,0:0:0:0:
64,192,81307,1,0,0:0:0:0:
192,192,81646,1,0,0:0:0:0:
448,192,81985,1,0,0:0:0:0:
192,192,82324,1,0,0:0:0:0:
448,192,82663,1,0,0:0:0:0:
320,192,83002,1,0,0:0:0:0:
192,192,83341,1,0,0:0:0:0:
448,192,83680,1,0,0:0:0:0:
192,192,84019,1,0,0:0:0:0:
64,192,84358,1,0,0:0:0:0:
192,192,84697,1,0,0:0:0:0:
64,192,85036,1,0,0:0:0:0:
320,192,85375,1,0,0:0:0:0:
448,192,85714,1,0,0:0:0:0:
64,192,86053,1,0,0:0:0:0:
448,192,86392,1,0,0:0:0:0:
320,192,86731,128,0,87409:0:0:0:0:
64,192,87409,1,0,0:0:0:0:
448,192,87748,1,0,0:0:0:0:
192,192,88087,128,0,88765:0:0:0:0:
64,192,88765,1,0,0:0:0:0:
448,192,89104,1,0,0:0:0:0:
192,192,89443,1,0,0:0:0:0:
320,192,89782,1,0,0:0:0:0:
448,192,90121,128,0,91477:0:0:0:0:
64,192,91477,1,0,0:0:0:0:
192,192,91816,1,0,0:0:0:0:
320,192,92155,1,0,0:0:0:0:
448,192,92494,1,0,0:0:0:0:
64,192,92833,1,0,0:0:0:0:
192,192,93172,1,0,0:0:0:0:
320,192,93511,1,0,0:0:0:0:
448,192,93850,1,0,0:0:0:0:
192,192,94189,1,0,0:0:0:0:
64,192,94528,1,0,0:0:0:0:
192,192,94867,1,0,0:0:0:0:
320,192,95206,1,0,0:0:0:0:
192,192,95545,1,0,0:0:0:0:
64,192,95884,1,0,0:0:0:0:
448,192,96223,1,0,0:0:0:0:
192,192,96562,1,0,0:0:0:0:
320,192,96901,1,0,0:0:0:0:
192,192,97240,1,0,0:0:0:0:
64,192,97579,1,0,0:0:0:0:
448,192,97918,1,0,0:0:0:0:
320,192,98257,1,0,0:0:0:0:
192,192,98596,1,0,0:0:0:0:
64,192,98935,1,0,0:0:0:0:
448,192,99274,1,0,0:0:0:0:
448,192,99613,1,0,0:0:0:0:
64,192,99613,1,0,0:0:0:0:
192,192,99782,1,0,0:0:0:0:
320,192,99952,1,0,0:0:0:0:
448,192,100121,1,0,0:0:0:0:
64,192,100291,1,0,0:0:0:0:
320,192,100460,1,0,0:0:0:0:
192,192,100630,1,0,0:0:0:0:
64,192,100799,1,0,0:0:0:0:
192,192,101138,1,0,0:0:0:0:
320,192,101477,128,0,102324:0:0:0:0:
64,192,102324,1,0,0:0:0:0:
448,192,102663,1,0,0:0:0:0:
192,192,103002,1,0,0:0:0:0:
320,192,103341,1,0,0:0:0:0:
64,192,103680,1,0,0:0:0:0:
320,192,104019,1,0,0:0:0:0:
64,192,104358,1,0,0:0:0:0:
192,192,104697,1,0,0:0:0:0:
448,192,105036,1,0,0:0:0:0:
192,192,105375,1,0,0:0:0:0:
448,192,105714,1,0,0:0:0:0:
320,192,106053,1,0,0:0:0:0:
64,192,106392,128,0,107070:0:0:0:0:
448,192,107070,1,0,0:0:0:0:
320,192,107409,1,0,0:0:0:0:
192,192,107748,128,0,108087:0:0:0:0:
448,192,108087,1,0,0:0:0:0:
320,192,108426,128,0,108765:0:0:0:0:
192,192,108765,1,0,0:0:0:0:
64,192,109104,128,0,109443:0:0:0:0:
320,192,109443,1,0,0:0:0:0:
448,192,109782,128,0,110121:0:0:0:0:
192,192,110121,1,0,0:0:0:0:
64,192,110460,1,0,0:0:0:0:
320,192,110460,1,0,0:0:0:0:
192,192,110968,1,0,0:0:0:0:
448,192,110968,1,0,0:0:0:0:
64,192,111477,1,0,0:0:0:0:
320,192,111477,1,0,0:0:0:0:
192,192,111985,1,0,0:0:0:0:
320,192,112155,1,0,0:0:0:0:
448,192,112324,1,0,0:0:0:0:
192,192,112494,128,0,112833:0:0:0:0:
64,192,112833,128,0,113172:0:0:0:0:
448,192,113172,128,0,115884:0:0:0:0:
64,192,115375,128,0,115884:0:0:0:0:
