osu file format v14

[General]
AudioFilename: Trickstarz.mp3
AudioLeadIn: 2
PreviewTime: 35150
Countdown: 0
SampleSet: None
StackLeniency: 0.7
Mode: 3
LetterboxInBreaks: 0
SpecialStyle: 0
WidescreenStoryboard: 0

[Editor]
DistanceSpacing: 0.8
BeatDivisor: 4
GridSize: 8
TimelineZoom: 1

[Metadata]
Title:Trickstarz
TitleUnicode:Trickstarz
Artist:Yu_Asahina
ArtistUnicode:Yu_Asahina
Creator:hi19hi19
Version:STEPMANIA
Source:
Tags:Stepmania Yu_Asahina Trickstarz
BeatmapID:770548
BeatmapSetID:349432

[Difficulty]
HPDrainRate:8
CircleSize:4
OverallDifficulty:7
ApproachRate:10
SliderMultiplier:1.4
SliderTickRate:1

[Events]
//Background and Video events
0,0,"background.png",0,0
//Break Periods
//Storyboard Layer 0 (Background)
//Storyboard Layer 1 (Fail)
//Storyboard Layer 2 (Pass)
//Storyboard Layer 3 (Foreground)
//Storyboard Sound Samples

[TimingPoints]
574,338.9811,4,2,0,15,1,0

[HitObjects]
64,192,658,5,0,0:0:0:0:
192,192,828,1,0,0:0:0:0:
320,192,997,1,0,0:0:0:0:
64,192,1167,1,0,0:0:0:0:
192,192,1167,1,0,0:0:0:0:
448,192,1167,1,0,0:0:0:0:
320,192,1506,1,0,0:0:0:0:
448,192,1675,1,0,0:0:0:0:
64,192,2014,1,0,0:0:0:0:
192,192,2014,1,0,0:0:0:0:
64,192,2332,1,0,0:0:0:0:
192,192,2353,1,0,0:0:0:0:
320,192,2353,1,0,0:0:0:0:
320,192,2862,1,0,0:0:0:0:
192,192,3201,1,0,0:0:0:0:
448,192,3201,1,0,0:0:0:0:
320,192,3518,1,0,0:0:0:0:
448,192,3540,1,0,0:0:0:0:
64,192,3879,1,0,0:0:0:0:
320,192,3879,1,0,0:0:0:0:
320,192,4218,1,0,0:0:0:0:
320,192,4387,1,0,0:0:0:0:
64,192,4726,1,0,0:0:0:0:
192,192,4726,1,0,0:0:0:0:
192,192,5044,1,0,0:0:0:0:
320,192,5065,1,0,0:0:0:0:
448,192,5065,1,0,0:0:0:0:
192,192,5404,1,0,0:0:0:0:
192,192,5573,1,0,0:0:0:0:
192,192,5912,1,0,0:0:0:0:
448,192,5912,1,0,0:0:0:0:
320,192,6082,1,0,0:0:0:0:
64,192,6251,1,0,0:0:0:0:
320,192,6421,1,0,0:0:0:0:
64,192,6590,1,0,0:0:0:0:
192,192,6590,1,0,0:0:0:0:
64,192,7438,1,0,0:0:0:0:
192,192,7438,1,0,0:0:0:0:
320,192,7607,1,0,0:0:0:0:
64,192,7777,1,0,0:0:0:0:
448,192,7777,1,0,0:0:0:0:
192,192,8285,1,0,0:0:0:0:
192,192,8624,1,0,0:0:0:0:
320,192,8624,1,0,0:0:0:0:
320,192,8942,1,0,0:0:0:0:
448,192,8963,1,0,0:0:0:0:
192,192,9302,1,0,0:0:0:0:
448,192,9302,1,0,0:0:0:0:
320,192,9980,1,0,0:0:0:0:
64,192,10150,1,0,0:0:0:0:
448,192,10150,1,0,0:0:0:0:
320,192,10319,1,0,0:0:0:0:
64,192,10489,1,0,0:0:0:0:
192,192,10489,1,0,0:0:0:0:
448,192,11167,1,0,0:0:0:0:
320,192,11223,1,0,0:0:0:0:
192,192,11280,1,0,0:0:0:0:
64,192,11336,1,0,0:0:0:0:
448,192,11845,1,0,0:0:0:0:
320,192,11929,1,0,0:0:0:0:
64,192,12014,1,0,0:0:0:0:
192,192,12014,1,0,0:0:0:0:
320,192,12099,1,0,0:0:0:0:
448,192,12099,1,0,0:0:0:0:
64,192,12184,1,0,0:0:0:0:
192,192,12184,1,0,0:0:0:0:
320,192,12268,1,0,0:0:0:0:
448,192,12268,1,0,0:0:0:0:
192,192,12353,1,0,0:0:0:0:
320,192,12353,1,0,0:0:0:0:
64,192,12438,1,0,0:0:0:0:
448,192,12438,1,0,0:0:0:0:
192,192,12523,1,0,0:0:0:0:
320,192,12523,1,0,0:0:0:0:
64,192,12607,1,0,0:0:0:0:
448,192,12607,1,0,0:0:0:0:
64,192,12692,1,0,0:0:0:0:
320,192,12692,1,0,0:0:0:0:
192,192,12777,1,0,0:0:0:0:
448,192,12777,1,0,0:0:0:0:
64,192,12862,1,0,0:0:0:0:
320,192,12862,1,0,0:0:0:0:
192,192,12946,1,0,0:0:0:0:
448,192,12946,1,0,0:0:0:0:
64,192,13031,1,0,0:0:0:0:
192,192,13031,1,0,0:0:0:0:
320,192,13116,1,0,0:0:0:0:
448,192,13116,1,0,0:0:0:0:
64,192,13201,1,0,0:0:0:0:
192,192,13201,1,0,0:0:0:0:
320,192,13285,1,0,0:0:0:0:
448,192,13285,1,0,0:0:0:0:
64,192,13370,1,0,0:0:0:0:
192,192,13370,1,0,0:0:0:0:
448,192,13370,1,0,0:0:0:0:
320,192,13540,1,0,0:0:0:0:
64,192,13709,1,0,0:0:0:0:
192,192,13709,1,0,0:0:0:0:
448,192,13879,1,0,0:0:0:0:
64,192,14048,1,0,0:0:0:0:
320,192,14048,1,0,0:0:0:0:
192,192,14217,1,0,0:0:0:0:
320,192,14387,1,0,0:0:0:0:
448,192,14387,1,0,0:0:0:0:
192,192,14556,1,0,0:0:0:0:
64,192,14726,1,0,0:0:0:0:
448,192,14726,1,0,0:0:0:0:
320,192,14895,1,0,0:0:0:0:
192,192,15065,1,0,0:0:0:0:
448,192,15065,1,0,0:0:0:0:
64,192,15234,1,0,0:0:0:0:
192,192,15404,1,0,0:0:0:0:
448,192,15404,1,0,0:0:0:0:
320,192,15573,1,0,0:0:0:0:
64,192,15743,1,0,0:0:0:0:
192,192,15743,1,0,0:0:0:0:
448,192,15912,1,0,0:0:0:0:
192,192,16082,1,0,0:0:0:0:
448,192,16082,1,0,0:0:0:0:
320,192,16251,1,0,0:0:0:0:
64,192,16421,1,0,0:0:0:0:
192,192,16421,1,0,0:0:0:0:
448,192,16590,1,0,0:0:0:0:
64,192,16760,1,0,0:0:0:0:
320,192,16760,1,0,0:0:0:0:
192,192,16929,1,0,0:0:0:0:
320,192,17099,1,0,0:0:0:0:
448,192,17099,1,0,0:0:0:0:
192,192,17268,1,0,0:0:0:0:
64,192,17438,1,0,0:0:0:0:
448,192,17438,1,0,0:0:0:0:
320,192,17607,1,0,0:0:0:0:
192,192,17777,1,0,0:0:0:0:
448,192,17777,1,0,0:0:0:0:
64,192,17946,1,0,0:0:0:0:
192,192,18116,1,0,0:0:0:0:
448,192,18116,1,0,0:0:0:0:
320,192,18285,1,0,0:0:0:0:
64,192,18455,1,0,0:0:0:0:
192,192,18455,1,0,0:0:0:0:
448,192,18624,1,0,0:0:0:0:
192,192,18794,1,0,0:0:0:0:
448,192,18794,1,0,0:0:0:0:
320,192,18963,1,0,0:0:0:0:
64,192,19133,1,0,0:0:0:0:
192,192,19133,1,0,0:0:0:0:
448,192,19302,1,0,0:0:0:0:
64,192,19472,1,0,0:0:0:0:
320,192,19472,1,0,0:0:0:0:
192,192,19641,1,0,0:0:0:0:
320,192,19811,1,0,0:0:0:0:
448,192,19811,1,0,0:0:0:0:
192,192,19980,1,0,0:0:0:0:
64,192,20150,1,0,0:0:0:0:
448,192,20150,1,0,0:0:0:0:
320,192,20319,1,0,0:0:0:0:
192,192,20489,1,0,0:0:0:0:
448,192,20489,1,0,0:0:0:0:
64,192,20658,1,0,0:0:0:0:
192,192,20828,1,0,0:0:0:0:
448,192,20828,1,0,0:0:0:0:
320,192,20997,1,0,0:0:0:0:
64,192,21167,1,0,0:0:0:0:
192,192,21167,1,0,0:0:0:0:
448,192,21336,1,0,0:0:0:0:
192,192,21506,1,0,0:0:0:0:
448,192,21506,1,0,0:0:0:0:
320,192,21675,1,0,0:0:0:0:
64,192,21845,1,0,0:0:0:0:
192,192,21845,1,0,0:0:0:0:
448,192,22014,1,0,0:0:0:0:
64,192,22184,1,0,0:0:0:0:
320,192,22184,1,0,0:0:0:0:
192,192,22353,1,0,0:0:0:0:
320,192,22523,1,0,0:0:0:0:
448,192,22523,1,0,0:0:0:0:
192,192,22692,1,0,0:0:0:0:
64,192,22862,1,0,0:0:0:0:
448,192,22862,1,0,0:0:0:0:
320,192,23031,1,0,0:0:0:0:
192,192,23200,1,0,0:0:0:0:
448,192,23200,1,0,0:0:0:0:
64,192,23370,1,0,0:0:0:0:
192,192,23539,1,0,0:0:0:0:
448,192,23539,1,0,0:0:0:0:
320,192,23709,1,0,0:0:0:0:
64,192,23878,1,0,0:0:0:0:
192,192,23878,1,0,0:0:0:0:
320,192,24048,1,0,0:0:0:0:
448,192,24048,1,0,0:0:0:0:
64,192,24133,1,0,0:0:0:0:
192,192,24133,1,0,0:0:0:0:
320,192,24217,1,0,0:0:0:0:
448,192,24217,1,0,0:0:0:0:
64,192,24260,1,0,0:0:0:0:
192,192,24302,1,0,0:0:0:0:
320,192,24345,1,0,0:0:0:0:
448,192,24387,1,0,0:0:0:0:
64,192,24429,1,0,0:0:0:0:
192,192,24472,1,0,0:0:0:0:
320,192,24514,1,0,0:0:0:0:
448,192,24556,1,0,0:0:0:0:
192,192,24599,1,0,0:0:0:0:
64,192,24641,1,0,0:0:0:0:
320,192,24684,1,0,0:0:0:0:
192,192,24726,1,0,0:0:0:0:
448,192,24768,1,0,0:0:0:0:
64,192,24811,1,0,0:0:0:0:
320,192,24853,1,0,0:0:0:0:
448,192,24895,1,0,0:0:0:0:
192,192,24938,1,0,0:0:0:0:
64,192,24980,1,0,0:0:0:0:
448,192,25023,1,0,0:0:0:0:
320,192,25065,1,0,0:0:0:0:
192,192,25107,1,0,0:0:0:0:
64,192,25150,1,0,0:0:0:0:
448,192,25192,1,0,0:0:0:0:
192,192,25234,1,0,0:0:0:0:
320,192,25277,1,0,0:0:0:0:
64,192,25319,1,0,0:0:0:0:
448,192,25361,1,0,0:0:0:0:
192,192,25404,1,0,0:0:0:0:
320,192,25446,1,0,0:0:0:0:
64,192,25489,1,0,0:0:0:0:
192,192,25531,1,0,0:0:0:0:
320,192,25573,1,0,0:0:0:0:
448,192,25616,1,0,0:0:0:0:
64,192,25658,1,0,0:0:0:0:
192,192,25700,1,0,0:0:0:0:
320,192,25743,1,0,0:0:0:0:
448,192,25785,1,0,0:0:0:0:
64,192,25828,1,0,0:0:0:0:
192,192,25870,1,0,0:0:0:0:
448,192,25912,1,0,0:0:0:0:
320,192,25955,1,0,0:0:0:0:
64,192,25997,1,0,0:0:0:0:
448,192,26039,1,0,0:0:0:0:
192,192,26082,1,0,0:0:0:0:
320,192,26124,1,0,0:0:0:0:
64,192,26167,1,0,0:0:0:0:
192,192,26209,1,0,0:0:0:0:
448,192,26251,1,0,0:0:0:0:
320,192,26294,1,0,0:0:0:0:
192,192,26336,1,0,0:0:0:0:
64,192,26378,1,0,0:0:0:0:
448,192,26421,1,0,0:0:0:0:
320,192,26463,1,0,0:0:0:0:
192,192,26506,1,0,0:0:0:0:
64,192,26548,1,0,0:0:0:0:
320,192,26590,1,0,0:0:0:0:
192,192,26633,1,0,0:0:0:0:
448,192,26675,1,0,0:0:0:0:
64,192,26717,1,0,0:0:0:0:
320,192,26760,1,0,0:0:0:0:
192,192,26802,1,0,0:0:0:0:
448,192,26845,1,0,0:0:0:0:
64,192,26887,1,0,0:0:0:0:
192,192,26929,1,0,0:0:0:0:
320,192,26972,1,0,0:0:0:0:
448,192,27014,1,0,0:0:0:0:
64,192,27056,1,0,0:0:0:0:
320,192,27099,1,0,0:0:0:0:
192,192,27141,1,0,0:0:0:0:
64,192,27184,1,0,0:0:0:0:
448,192,27226,1,0,0:0:0:0:
320,192,27268,1,0,0:0:0:0:
192,192,27311,1,0,0:0:0:0:
64,192,27353,1,0,0:0:0:0:
448,192,27395,1,0,0:0:0:0:
192,192,27438,1,0,0:0:0:0:
320,192,27480,1,0,0:0:0:0:
64,192,27522,1,0,0:0:0:0:
192,192,27565,1,0,0:0:0:0:
448,192,27607,1,0,0:0:0:0:
320,192,27650,1,0,0:0:0:0:
192,192,27692,1,0,0:0:0:0:
64,192,27734,1,0,0:0:0:0:
448,192,27777,1,0,0:0:0:0:
320,192,27819,1,0,0:0:0:0:
192,192,27861,1,0,0:0:0:0:
64,192,27904,1,0,0:0:0:0:
320,192,27946,1,0,0:0:0:0:
448,192,27989,1,0,0:0:0:0:
192,192,28031,1,0,0:0:0:0:
320,192,28073,1,0,0:0:0:0:
64,192,28116,1,0,0:0:0:0:
448,192,28158,1,0,0:0:0:0:
192,192,28200,1,0,0:0:0:0:
320,192,28243,1,0,0:0:0:0:
64,192,28285,1,0,0:0:0:0:
192,192,28328,1,0,0:0:0:0:
320,192,28370,1,0,0:0:0:0:
448,192,28412,1,0,0:0:0:0:
64,192,28455,1,0,0:0:0:0:
192,192,28497,1,0,0:0:0:0:
320,192,28539,1,0,0:0:0:0:
448,192,28582,1,0,0:0:0:0:
64,192,28624,1,0,0:0:0:0:
192,192,28667,1,0,0:0:0:0:
320,192,28709,1,0,0:0:0:0:
448,192,28751,1,0,0:0:0:0:
64,192,28794,1,0,0:0:0:0:
192,192,28836,1,0,0:0:0:0:
320,192,28878,1,0,0:0:0:0:
64,192,28921,1,0,0:0:0:0:
448,192,28963,1,0,0:0:0:0:
320,192,29006,1,0,0:0:0:0:
192,192,29048,1,0,0:0:0:0:
64,192,29090,1,0,0:0:0:0:
448,192,29133,1,0,0:0:0:0:
192,192,29175,1,0,0:0:0:0:
320,192,29217,1,0,0:0:0:0:
64,192,29260,1,0,0:0:0:0:
448,192,29302,1,0,0:0:0:0:
320,192,29345,1,0,0:0:0:0:
192,192,29387,1,0,0:0:0:0:
64,192,29429,1,0,0:0:0:0:
448,192,29472,1,0,0:0:0:0:
320,192,29514,1,0,0:0:0:0:
192,192,29556,1,0,0:0:0:0:
64,192,29599,1,0,0:0:0:0:
320,192,29641,1,0,0:0:0:0:
448,192,29641,1,0,0:0:0:0:
64,192,29726,1,0,0:0:0:0:
192,192,29726,1,0,0:0:0:0:
320,192,29811,1,0,0:0:0:0:
448,192,29811,1,0,0:0:0:0:
64,192,29895,1,0,0:0:0:0:
192,192,29895,1,0,0:0:0:0:
64,192,29980,1,0,0:0:0:0:
448,192,29980,1,0,0:0:0:0:
192,192,30065,1,0,0:0:0:0:
320,192,30065,1,0,0:0:0:0:
64,192,30150,1,0,0:0:0:0:
448,192,30150,1,0,0:0:0:0:
192,192,30234,1,0,0:0:0:0:
320,192,30234,1,0,0:0:0:0:
192,192,30319,1,0,0:0:0:0:
448,192,30319,1,0,0:0:0:0:
64,192,30404,1,0,0:0:0:0:
320,192,30404,1,0,0:0:0:0:
192,192,30489,1,0,0:0:0:0:
448,192,30489,1,0,0:0:0:0:
64,192,30573,1,0,0:0:0:0:
320,192,30573,1,0,0:0:0:0:
64,192,30658,1,0,0:0:0:0:
192,192,30658,1,0,0:0:0:0:
320,192,30743,1,0,0:0:0:0:
448,192,30743,1,0,0:0:0:0:
64,192,30828,1,0,0:0:0:0:
192,192,30828,1,0,0:0:0:0:
320,192,30912,1,0,0:0:0:0:
448,192,30912,1,0,0:0:0:0:
64,192,30997,1,0,0:0:0:0:
192,192,30997,1,0,0:0:0:0:
320,192,30997,1,0,0:0:0:0:
64,192,31082,1,0,0:0:0:0:
448,192,31082,1,0,0:0:0:0:
192,192,31167,1,0,0:0:0:0:
320,192,31167,1,0,0:0:0:0:
64,192,31251,1,0,0:0:0:0:
448,192,31251,1,0,0:0:0:0:
192,192,31336,1,0,0:0:0:0:
448,192,31336,1,0,0:0:0:0:
64,192,31421,1,0,0:0:0:0:
320,192,31421,1,0,0:0:0:0:
192,192,31506,1,0,0:0:0:0:
448,192,31506,1,0,0:0:0:0:
64,192,31590,1,0,0:0:0:0:
320,192,31590,1,0,0:0:0:0:
64,192,31675,1,0,0:0:0:0:
448,192,31675,1,0,0:0:0:0:
192,192,31760,1,0,0:0:0:0:
320,192,31760,1,0,0:0:0:0:
64,192,31845,1,0,0:0:0:0:
448,192,31845,1,0,0:0:0:0:
192,192,31929,1,0,0:0:0:0:
320,192,31929,1,0,0:0:0:0:
320,192,32014,1,0,0:0:0:0:
448,192,32014,1,0,0:0:0:0:
64,192,32099,1,0,0:0:0:0:
192,192,32099,1,0,0:0:0:0:
320,192,32183,1,0,0:0:0:0:
448,192,32183,1,0,0:0:0:0:
64,192,32268,1,0,0:0:0:0:
192,192,32268,1,0,0:0:0:0:
320,192,32353,1,0,0:0:0:0:
448,192,32353,1,0,0:0:0:0:
192,192,32522,1,0,0:0:0:0:
448,192,32522,1,0,0:0:0:0:
192,192,32692,1,0,0:0:0:0:
320,192,32692,1,0,0:0:0:0:
64,192,32861,1,0,0:0:0:0:
320,192,32861,1,0,0:0:0:0:
64,192,33031,1,0,0:0:0:0:
192,192,33031,1,0,0:0:0:0:
192,192,33200,1,0,0:0:0:0:
448,192,33200,1,0,0:0:0:0:
64,192,33285,1,0,0:0:0:0:
320,192,33285,1,0,0:0:0:0:
192,192,33370,1,0,0:0:0:0:
448,192,33370,1,0,0:0:0:0:
320,192,33539,1,0,0:0:0:0:
448,192,33539,1,0,0:0:0:0:
64,192,33596,1,0,0:0:0:0:
192,192,33596,1,0,0:0:0:0:
320,192,33652,1,0,0:0:0:0:
448,192,33652,1,0,0:0:0:0:
64,192,33709,1,0,0:0:0:0:
192,192,33709,1,0,0:0:0:0:
320,192,33794,1,0,0:0:0:0:
448,192,33794,1,0,0:0:0:0:
64,192,33878,1,0,0:0:0:0:
192,192,33878,1,0,0:0:0:0:
320,192,33963,1,0,0:0:0:0:
448,192,33963,1,0,0:0:0:0:
64,192,34048,1,0,0:0:0:0:
192,192,34048,1,0,0:0:0:0:
320,192,34133,1,0,0:0:0:0:
448,192,34133,1,0,0:0:0:0:
64,192,34217,1,0,0:0:0:0:
192,192,34217,1,0,0:0:0:0:
320,192,34274,1,0,0:0:0:0:
448,192,34274,1,0,0:0:0:0:
64,192,34330,1,0,0:0:0:0:
192,192,34330,1,0,0:0:0:0:
320,192,34387,1,0,0:0:0:0:
448,192,34387,1,0,0:0:0:0:
64,192,34443,1,0,0:0:0:0:
192,192,34443,1,0,0:0:0:0:
320,192,34500,1,0,0:0:0:0:
448,192,34500,1,0,0:0:0:0:
64,192,34556,1,0,0:0:0:0:
192,192,34556,1,0,0:0:0:0:
320,192,34641,1,0,0:0:0:0:
448,192,34641,1,0,0:0:0:0:
64,192,34726,1,0,0:0:0:0:
192,192,34726,1,0,0:0:0:0:
320,192,34782,1,0,0:0:0:0:
448,192,34782,1,0,0:0:0:0:
64,192,34839,1,0,0:0:0:0:
192,192,34839,1,0,0:0:0:0:
320,192,34895,1,0,0:0:0:0:
448,192,34895,1,0,0:0:0:0:
64,192,34980,1,0,0:0:0:0:
192,192,34980,1,0,0:0:0:0:
64,192,35065,1,0,0:0:0:0:
320,192,35065,1,0,0:0:0:0:
448,192,35065,1,0,0:0:0:0:
192,192,35234,1,0,0:0:0:0:
64,192,35404,1,0,0:0:0:0:
320,192,35404,1,0,0:0:0:0:
448,192,35573,1,0,0:0:0:0:
64,192,35743,1,0,0:0:0:0:
192,192,35743,1,0,0:0:0:0:
320,192,35743,1,0,0:0:0:0:
192,192,35912,1,0,0:0:0:0:
448,192,35912,1,0,0:0:0:0:
64,192,36082,1,0,0:0:0:0:
320,192,36082,1,0,0:0:0:0:
448,192,36082,1,0,0:0:0:0:
192,192,36251,1,0,0:0:0:0:
320,192,36251,1,0,0:0:0:0:
64,192,36421,1,0,0:0:0:0:
448,192,36421,1,0,0:0:0:0:
192,192,36590,1,0,0:0:0:0:
320,192,36760,1,0,0:0:0:0:
448,192,36760,1,0,0:0:0:0:
64,192,36929,1,0,0:0:0:0:
192,192,37099,1,0,0:0:0:0:
448,192,37099,1,0,0:0:0:0:
64,192,37268,1,0,0:0:0:0:
320,192,37268,1,0,0:0:0:0:
64,192,37438,1,0,0:0:0:0:
192,192,37438,1,0,0:0:0:0:
448,192,37438,1,0,0:0:0:0:
192,192,37607,1,0,0:0:0:0:
320,192,37607,1,0,0:0:0:0:
64,192,37777,1,0,0:0:0:0:
320,192,37777,1,0,0:0:0:0:
448,192,37777,1,0,0:0:0:0:
192,192,37946,1,0,0:0:0:0:
192,192,38116,1,0,0:0:0:0:
320,192,38116,1,0,0:0:0:0:
448,192,38116,1,0,0:0:0:0:
64,192,38285,1,0,0:0:0:0:
448,192,38285,1,0,0:0:0:0:
192,192,38455,1,0,0:0:0:0:
320,192,38455,1,0,0:0:0:0:
64,192,38624,1,0,0:0:0:0:
320,192,38624,1,0,0:0:0:0:
192,192,38794,1,0,0:0:0:0:
448,192,38794,1,0,0:0:0:0:
192,192,38963,1,0,0:0:0:0:
320,192,38963,1,0,0:0:0:0:
64,192,39133,1,0,0:0:0:0:
448,192,39133,1,0,0:0:0:0:
192,192,39302,1,0,0:0:0:0:
320,192,39472,1,0,0:0:0:0:
448,192,39472,1,0,0:0:0:0:
64,192,39641,1,0,0:0:0:0:
192,192,39811,1,0,0:0:0:0:
320,192,39811,1,0,0:0:0:0:
64,192,39980,1,0,0:0:0:0:
448,192,39980,1,0,0:0:0:0:
64,192,40150,1,0,0:0:0:0:
192,192,40150,1,0,0:0:0:0:
448,192,40150,1,0,0:0:0:0:
192,192,40319,1,0,0:0:0:0:
320,192,40319,1,0,0:0:0:0:
64,192,40489,1,0,0:0:0:0:
320,192,40489,1,0,0:0:0:0:
448,192,40489,1,0,0:0:0:0:
192,192,40658,1,0,0:0:0:0:
192,192,40828,1,0,0:0:0:0:
320,192,40828,1,0,0:0:0:0:
448,192,40828,1,0,0:0:0:0:
64,192,40997,1,0,0:0:0:0:
448,192,40997,1,0,0:0:0:0:
192,192,41166,1,0,0:0:0:0:
320,192,41166,1,0,0:0:0:0:
64,192,41336,1,0,0:0:0:0:
320,192,41336,1,0,0:0:0:0:
192,192,41505,1,0,0:0:0:0:
448,192,41505,1,0,0:0:0:0:
64,192,41675,1,0,0:0:0:0:
320,192,41675,1,0,0:0:0:0:
192,192,41844,1,0,0:0:0:0:
320,192,41844,1,0,0:0:0:0:
448,192,42014,1,0,0:0:0:0:
64,192,42183,1,0,0:0:0:0:
192,192,42183,1,0,0:0:0:0:
320,192,42183,1,0,0:0:0:0:
448,192,42353,1,0,0:0:0:0:
64,192,42522,1,0,0:0:0:0:
192,192,42522,1,0,0:0:0:0:
448,192,42522,1,0,0:0:0:0:
320,192,42692,1,0,0:0:0:0:
192,192,42861,1,0,0:0:0:0:
320,192,42861,1,0,0:0:0:0:
448,192,42861,1,0,0:0:0:0:
64,192,43031,1,0,0:0:0:0:
192,192,43200,1,0,0:0:0:0:
320,192,43200,1,0,0:0:0:0:
448,192,43200,1,0,0:0:0:0:
64,192,43370,1,0,0:0:0:0:
320,192,43370,1,0,0:0:0:0:
64,192,43539,1,0,0:0:0:0:
192,192,43539,1,0,0:0:0:0:
448,192,43539,1,0,0:0:0:0:
320,192,43709,1,0,0:0:0:0:
448,192,43709,1,0,0:0:0:0:
64,192,43878,1,0,0:0:0:0:
192,192,43878,1,0,0:0:0:0:
192,192,44048,1,0,0:0:0:0:
320,192,44048,1,0,0:0:0:0:
448,192,44048,1,0,0:0:0:0:
64,192,44217,1,0,0:0:0:0:
192,192,44217,1,0,0:0:0:0:
320,192,44217,1,0,0:0:0:0:
64,192,44387,1,0,0:0:0:0:
320,192,44387,1,0,0:0:0:0:
448,192,44387,1,0,0:0:0:0:
192,192,44556,1,0,0:0:0:0:
448,192,44556,1,0,0:0:0:0:
64,192,44726,1,0,0:0:0:0:
320,192,44726,1,0,0:0:0:0:
192,192,44895,1,0,0:0:0:0:
320,192,44895,1,0,0:0:0:0:
448,192,44895,1,0,0:0:0:0:
64,192,45065,1,0,0:0:0:0:
448,192,45065,1,0,0:0:0:0:
64,192,45234,1,0,0:0:0:0:
192,192,45234,1,0,0:0:0:0:
320,192,45404,1,0,0:0:0:0:
448,192,45404,1,0,0:0:0:0:
64,192,45573,1,0,0:0:0:0:
192,192,45573,1,0,0:0:0:0:
448,192,45573,1,0,0:0:0:0:
320,192,45743,1,0,0:0:0:0:
448,192,45743,1,0,0:0:0:0:
64,192,45912,1,0,0:0:0:0:
192,192,45912,1,0,0:0:0:0:
320,192,45912,1,0,0:0:0:0:
448,192,45912,1,0,0:0:0:0:
192,192,46082,1,0,0:0:0:0:
64,192,46251,1,0,0:0:0:0:
320,192,46251,1,0,0:0:0:0:
448,192,46421,1,0,0:0:0:0:
64,192,46590,1,0,0:0:0:0:
192,192,46590,1,0,0:0:0:0:
320,192,46590,1,0,0:0:0:0:
320,192,46760,1,0,0:0:0:0:
448,192,46760,1,0,0:0:0:0:
64,192,46929,1,0,0:0:0:0:
192,192,46929,1,0,0:0:0:0:
448,192,46929,1,0,0:0:0:0:
64,192,47099,1,0,0:0:0:0:
192,192,47099,1,0,0:0:0:0:
320,192,47099,1,0,0:0:0:0:
320,192,47268,1,0,0:0:0:0:
448,192,47268,1,0,0:0:0:0:
64,192,47438,1,0,0:0:0:0:
192,192,47607,1,0,0:0:0:0:
320,192,47607,1,0,0:0:0:0:
64,192,47777,1,0,0:0:0:0:
192,192,47946,1,0,0:0:0:0:
448,192,47946,1,0,0:0:0:0:
64,192,48116,1,0,0:0:0:0:
320,192,48116,1,0,0:0:0:0:
64,192,48285,1,0,0:0:0:0:
192,192,48285,1,0,0:0:0:0:
448,192,48285,1,0,0:0:0:0:
192,192,48455,1,0,0:0:0:0:
320,192,48455,1,0,0:0:0:0:
64,192,48624,1,0,0:0:0:0:
320,192,48624,1,0,0:0:0:0:
448,192,48624,1,0,0:0:0:0:
448,192,48794,1,0,0:0:0:0:
64,192,48963,1,0,0:0:0:0:
192,192,48963,1,0,0:0:0:0:
320,192,48963,1,0,0:0:0:0:
192,192,49133,1,0,0:0:0:0:
448,192,49133,1,0,0:0:0:0:
64,192,49302,1,0,0:0:0:0:
320,192,49302,1,0,0:0:0:0:
192,192,49450,1,0,0:0:0:0:
320,192,49472,1,0,0:0:0:0:
448,192,49472,1,0,0:0:0:0:
64,192,49641,1,0,0:0:0:0:
320,192,49641,1,0,0:0:0:0:
64,192,49811,1,0,0:0:0:0:
192,192,49811,1,0,0:0:0:0:
448,192,49811,1,0,0:0:0:0:
320,192,49980,1,0,0:0:0:0:
448,192,49980,1,0,0:0:0:0:
192,192,50149,1,0,0:0:0:0:
64,192,50319,1,0,0:0:0:0:
320,192,50319,1,0,0:0:0:0:
448,192,50319,1,0,0:0:0:0:
192,192,50488,1,0,0:0:0:0:
64,192,50658,1,0,0:0:0:0:
320,192,50658,1,0,0:0:0:0:
448,192,50658,1,0,0:0:0:0:
192,192,50827,1,0,0:0:0:0:
192,192,50997,1,0,0:0:0:0:
320,192,50997,1,0,0:0:0:0:
448,192,50997,1,0,0:0:0:0:
64,192,51082,1,0,0:0:0:0:
192,192,51166,1,0,0:0:0:0:
448,192,51166,1,0,0:0:0:0:
320,192,51251,1,0,0:0:0:0:
64,192,51336,1,0,0:0:0:0:
192,192,51336,1,0,0:0:0:0:
448,192,51336,1,0,0:0:0:0:
192,192,51505,1,0,0:0:0:0:
64,192,51675,1,0,0:0:0:0:
320,192,51675,1,0,0:0:0:0:
448,192,51675,1,0,0:0:0:0:
64,192,51844,1,0,0:0:0:0:
320,192,51844,1,0,0:0:0:0:
192,192,52014,1,0,0:0:0:0:
320,192,52014,1,0,0:0:0:0:
64,192,52183,1,0,0:0:0:0:
192,192,52183,1,0,0:0:0:0:
448,192,52183,1,0,0:0:0:0:
192,192,52353,1,0,0:0:0:0:
320,192,52353,1,0,0:0:0:0:
448,192,52353,1,0,0:0:0:0:
64,192,52522,1,0,0:0:0:0:
320,192,52522,1,0,0:0:0:0:
448,192,52522,1,0,0:0:0:0:
192,192,52692,1,0,0:0:0:0:
320,192,52692,1,0,0:0:0:0:
448,192,52861,1,0,0:0:0:0:
64,192,53031,1,0,0:0:0:0:
192,192,53031,1,0,0:0:0:0:
320,192,53031,1,0,0:0:0:0:
448,192,53200,1,0,0:0:0:0:
64,192,53370,1,0,0:0:0:0:
192,192,53370,1,0,0:0:0:0:
448,192,53370,1,0,0:0:0:0:
192,192,53539,1,0,0:0:0:0:
320,192,53539,1,0,0:0:0:0:
64,192,53709,1,0,0:0:0:0:
320,192,53709,1,0,0:0:0:0:
448,192,53709,1,0,0:0:0:0:
192,192,53878,1,0,0:0:0:0:
448,192,53878,1,0,0:0:0:0:
64,192,54048,1,0,0:0:0:0:
192,192,54048,1,0,0:0:0:0:
320,192,54048,1,0,0:0:0:0:
448,192,54217,1,0,0:0:0:0:
64,192,54387,1,0,0:0:0:0:
192,192,54387,1,0,0:0:0:0:
448,192,54387,1,0,0:0:0:0:
192,192,54556,1,0,0:0:0:0:
320,192,54556,1,0,0:0:0:0:
64,192,54726,1,0,0:0:0:0:
448,192,54726,1,0,0:0:0:0:
192,192,54874,1,0,0:0:0:0:
320,192,54895,1,0,0:0:0:0:
448,192,54895,1,0,0:0:0:0:
64,192,55065,1,0,0:0:0:0:
192,192,55065,1,0,0:0:0:0:
64,192,55234,1,0,0:0:0:0:
192,192,55234,1,0,0:0:0:0:
320,192,55234,1,0,0:0:0:0:
448,192,55234,1,0,0:0:0:0:
192,192,55573,1,0,0:0:0:0:
448,192,55573,1,0,0:0:0:0:
64,192,55743,1,0,0:0:0:0:
320,192,55743,1,0,0:0:0:0:
448,192,55743,1,0,0:0:0:0:
192,192,55912,1,0,0:0:0:0:
64,192,56082,1,0,0:0:0:0:
192,192,56082,1,0,0:0:0:0:
448,192,56082,1,0,0:0:0:0:
320,192,56251,1,0,0:0:0:0:
448,192,56336,1,0,0:0:0:0:
64,192,56421,1,0,0:0:0:0:
320,192,56421,1,0,0:0:0:0:
192,192,56590,1,0,0:0:0:0:
320,192,56590,1,0,0:0:0:0:
64,192,56760,1,0,0:0:0:0:
192,192,56760,1,0,0:0:0:0:
448,192,56760,1,0,0:0:0:0:
320,192,57099,1,0,0:0:0:0:
448,192,57099,1,0,0:0:0:0:
64,192,57268,1,0,0:0:0:0:
320,192,57268,1,0,0:0:0:0:
64,192,57438,1,0,0:0:0:0:
192,192,57607,1,0,0:0:0:0:
320,192,57777,1,0,0:0:0:0:
448,192,57777,1,0,0:0:0:0:
64,192,57946,1,0,0:0:0:0:
192,192,57946,1,0,0:0:0:0:
64,192,58285,1,0,0:0:0:0:
192,192,58455,1,0,0:0:0:0:
448,192,58455,1,0,0:0:0:0:
64,192,58624,1,0,0:0:0:0:
320,192,58624,1,0,0:0:0:0:
64,192,58963,1,0,0:0:0:0:
192,192,58963,1,0,0:0:0:0:
320,192,59048,1,0,0:0:0:0:
192,192,59132,1,0,0:0:0:0:
448,192,59132,1,0,0:0:0:0:
64,192,59302,1,0,0:0:0:0:
320,192,59302,1,0,0:0:0:0:
320,192,59471,1,0,0:0:0:0:
192,192,59810,1,0,0:0:0:0:
320,192,59810,1,0,0:0:0:0:
64,192,59980,1,0,0:0:0:0:
448,192,59980,1,0,0:0:0:0:
64,192,60149,1,0,0:0:0:0:
320,192,60319,1,0,0:0:0:0:
448,192,60488,1,0,0:0:0:0:
64,192,60658,1,0,0:0:0:0:
192,192,60658,1,0,0:0:0:0:
64,192,60997,1,0,0:0:0:0:
320,192,61166,1,0,0:0:0:0:
192,192,61336,1,0,0:0:0:0:
64,192,61675,1,0,0:0:0:0:
192,192,61675,1,0,0:0:0:0:
448,192,61760,1,0,0:0:0:0:
64,192,61844,1,0,0:0:0:0:
320,192,61844,1,0,0:0:0:0:
192,192,62014,1,0,0:0:0:0:
448,192,62014,1,0,0:0:0:0:
192,192,62183,1,0,0:0:0:0:
448,192,62183,1,0,0:0:0:0:
320,192,62522,1,0,0:0:0:0:
448,192,62522,1,0,0:0:0:0:
64,192,62692,1,0,0:0:0:0:
448,192,62692,1,0,0:0:0:0:
64,192,62861,1,0,0:0:0:0:
192,192,63031,1,0,0:0:0:0:
448,192,63200,1,0,0:0:0:0:
64,192,63370,1,0,0:0:0:0:
320,192,63370,1,0,0:0:0:0:
320,192,63709,1,0,0:0:0:0:
64,192,63878,1,0,0:0:0:0:
192,192,63878,1,0,0:0:0:0:
320,192,64048,1,0,0:0:0:0:
192,192,64217,1,0,0:0:0:0:
64,192,64387,1,0,0:0:0:0:
192,192,64471,1,0,0:0:0:0:
320,192,64556,1,0,0:0:0:0:
448,192,64556,1,0,0:0:0:0:
64,192,64895,1,0,0:0:0:0:
320,192,64895,1,0,0:0:0:0:
448,192,65234,1,0,0:0:0:0:
64,192,65404,1,0,0:0:0:0:
64,192,65573,1,0,0:0:0:0:
448,192,65912,1,0,0:0:0:0:
320,192,66082,1,0,0:0:0:0:
64,192,66251,1,0,0:0:0:0:
192,192,66251,1,0,0:0:0:0:
64,192,66590,1,0,0:0:0:0:
192,192,66590,1,0,0:0:0:0:
320,192,66760,1,0,0:0:0:0:
320,192,67099,1,0,0:0:0:0:
448,192,67099,1,0,0:0:0:0:
64,192,67183,1,0,0:0:0:0:
192,192,67183,1,0,0:0:0:0:
320,192,67268,1,0,0:0:0:0:
448,192,67268,1,0,0:0:0:0:
64,192,67353,1,0,0:0:0:0:
192,192,67353,1,0,0:0:0:0:
320,192,67438,1,0,0:0:0:0:
448,192,67438,1,0,0:0:0:0:
64,192,67522,1,0,0:0:0:0:
192,192,67522,1,0,0:0:0:0:
192,192,67607,1,0,0:0:0:0:
320,192,67607,1,0,0:0:0:0:
448,192,67607,1,0,0:0:0:0:
64,192,67777,1,0,0:0:0:0:
192,192,67819,1,0,0:0:0:0:
320,192,67861,1,0,0:0:0:0:
448,192,67904,1,0,0:0:0:0:
64,192,67946,1,0,0:0:0:0:
192,192,67988,1,0,0:0:0:0:
320,192,68031,1,0,0:0:0:0:
448,192,68073,1,0,0:0:0:0:
320,192,68115,1,0,0:0:0:0:
192,192,68158,1,0,0:0:0:0:
64,192,68200,1,0,0:0:0:0:
320,192,68243,1,0,0:0:0:0:
192,192,68285,1,0,0:0:0:0:
64,192,68454,1,0,0:0:0:0:
320,192,68624,1,0,0:0:0:0:
448,192,68624,1,0,0:0:0:0:
64,192,68793,1,0,0:0:0:0:
192,192,69132,1,0,0:0:0:0:
320,192,69175,1,0,0:0:0:0:
448,192,69217,1,0,0:0:0:0:
64,192,69260,1,0,0:0:0:0:
192,192,69302,1,0,0:0:0:0:
320,192,69344,1,0,0:0:0:0:
64,192,69387,1,0,0:0:0:0:
448,192,69429,1,0,0:0:0:0:
320,192,69471,1,0,0:0:0:0:
192,192,69514,1,0,0:0:0:0:
64,192,69556,1,0,0:0:0:0:
192,192,69599,1,0,0:0:0:0:
320,192,69641,1,0,0:0:0:0:
192,192,69980,1,0,0:0:0:0:
320,192,69980,1,0,0:0:0:0:
64,192,70319,1,0,0:0:0:0:
192,192,70488,1,0,0:0:0:0:
320,192,70531,1,0,0:0:0:0:
448,192,70573,1,0,0:0:0:0:
320,192,70615,1,0,0:0:0:0:
192,192,70658,1,0,0:0:0:0:
64,192,70700,1,0,0:0:0:0:
320,192,70743,1,0,0:0:0:0:
448,192,70785,1,0,0:0:0:0:
192,192,70827,1,0,0:0:0:0:
64,192,70870,1,0,0:0:0:0:
448,192,70912,1,0,0:0:0:0:
192,192,70954,1,0,0:0:0:0:
320,192,70997,1,0,0:0:0:0:
64,192,71166,1,0,0:0:0:0:
448,192,71336,1,0,0:0:0:0:
192,192,71505,1,0,0:0:0:0:
64,192,71844,1,0,0:0:0:0:
192,192,71887,1,0,0:0:0:0:
320,192,71929,1,0,0:0:0:0:
192,192,71971,1,0,0:0:0:0:
448,192,72014,1,0,0:0:0:0:
64,192,72056,1,0,0:0:0:0:
320,192,72099,1,0,0:0:0:0:
448,192,72141,1,0,0:0:0:0:
192,192,72183,1,0,0:0:0:0:
320,192,72226,1,0,0:0:0:0:
64,192,72268,1,0,0:0:0:0:
448,192,72310,1,0,0:0:0:0:
320,192,72353,1,0,0:0:0:0:
64,192,72522,1,0,0:0:0:0:
192,192,72692,1,0,0:0:0:0:
448,192,72692,1,0,0:0:0:0:
320,192,72861,1,0,0:0:0:0:
64,192,73031,1,0,0:0:0:0:
448,192,73031,1,0,0:0:0:0:
64,192,73200,1,0,0:0:0:0:
192,192,73243,1,0,0:0:0:0:
320,192,73285,1,0,0:0:0:0:
448,192,73327,1,0,0:0:0:0:
64,192,73370,1,0,0:0:0:0:
192,192,73412,1,0,0:0:0:0:
320,192,73454,1,0,0:0:0:0:
448,192,73497,1,0,0:0:0:0:
320,192,73539,1,0,0:0:0:0:
192,192,73582,1,0,0:0:0:0:
64,192,73624,1,0,0:0:0:0:
320,192,73666,1,0,0:0:0:0:
192,192,73709,1,0,0:0:0:0:
448,192,73878,1,0,0:0:0:0:
320,192,73921,1,0,0:0:0:0:
192,192,73963,1,0,0:0:0:0:
64,192,74005,1,0,0:0:0:0:
448,192,74048,1,0,0:0:0:0:
320,192,74090,1,0,0:0:0:0:
192,192,74132,1,0,0:0:0:0:
64,192,74175,1,0,0:0:0:0:
192,192,74217,1,0,0:0:0:0:
320,192,74260,1,0,0:0:0:0:
448,192,74302,1,0,0:0:0:0:
192,192,74344,1,0,0:0:0:0:
320,192,74387,1,0,0:0:0:0:
192,192,74556,1,0,0:0:0:0:
320,192,74598,1,0,0:0:0:0:
448,192,74641,1,0,0:0:0:0:
192,192,74683,1,0,0:0:0:0:
320,192,74726,1,0,0:0:0:0:
64,192,74768,1,0,0:0:0:0:
192,192,74810,1,0,0:0:0:0:
448,192,74853,1,0,0:0:0:0:
320,192,74895,1,0,0:0:0:0:
192,192,74937,1,0,0:0:0:0:
64,192,74980,1,0,0:0:0:0:
448,192,75022,1,0,0:0:0:0:
320,192,75065,1,0,0:0:0:0:
64,192,75234,1,0,0:0:0:0:
320,192,75276,1,0,0:0:0:0:
192,192,75319,1,0,0:0:0:0:
448,192,75361,1,0,0:0:0:0:
64,192,75404,1,0,0:0:0:0:
320,192,75446,1,0,0:0:0:0:
192,192,75488,1,0,0:0:0:0:
448,192,75531,1,0,0:0:0:0:
64,192,75573,1,0,0:0:0:0:
320,192,75573,1,0,0:0:0:0:
320,192,76082,1,0,0:0:0:0:
448,192,76082,1,0,0:0:0:0:
192,192,76421,1,0,0:0:0:0:
448,192,76590,1,0,0:0:0:0:
192,192,76760,1,0,0:0:0:0:
320,192,76760,1,0,0:0:0:0:
64,192,76929,1,0,0:0:0:0:
192,192,76929,1,0,0:0:0:0:
448,192,76929,1,0,0:0:0:0:
320,192,77268,1,0,0:0:0:0:
192,192,77437,1,0,0:0:0:0:
448,192,77437,1,0,0:0:0:0:
64,192,77607,1,0,0:0:0:0:
192,192,77946,1,0,0:0:0:0:
320,192,77946,1,0,0:0:0:0:
64,192,78031,1,0,0:0:0:0:
448,192,78031,1,0,0:0:0:0:
192,192,78115,1,0,0:0:0:0:
320,192,78115,1,0,0:0:0:0:
64,192,78200,1,0,0:0:0:0:
448,192,78200,1,0,0:0:0:0:
192,192,78285,1,0,0:0:0:0:
320,192,78285,1,0,0:0:0:0:
448,192,78285,1,0,0:0:0:0:
64,192,78370,1,0,0:0:0:0:
192,192,78370,1,0,0:0:0:0:
320,192,78454,1,0,0:0:0:0:
448,192,78454,1,0,0:0:0:0:
64,192,78511,1,0,0:0:0:0:
192,192,78511,1,0,0:0:0:0:
320,192,78567,1,0,0:0:0:0:
448,192,78567,1,0,0:0:0:0:
64,192,78624,1,0,0:0:0:0:
192,192,78624,1,0,0:0:0:0:
320,192,78709,1,0,0:0:0:0:
448,192,78709,1,0,0:0:0:0:
192,192,78793,1,0,0:0:0:0:
320,192,78793,1,0,0:0:0:0:
64,192,78878,1,0,0:0:0:0:
448,192,78878,1,0,0:0:0:0:
192,192,78963,1,0,0:0:0:0:
320,192,78963,1,0,0:0:0:0:
64,192,79048,1,0,0:0:0:0:
448,192,79048,1,0,0:0:0:0:
64,192,79132,1,0,0:0:0:0:
192,192,79132,1,0,0:0:0:0:
320,192,79132,1,0,0:0:0:0:
320,192,79217,1,0,0:0:0:0:
448,192,79217,1,0,0:0:0:0:
64,192,79302,1,0,0:0:0:0:
192,192,79302,1,0,0:0:0:0:
320,192,79387,1,0,0:0:0:0:
448,192,79387,1,0,0:0:0:0:
64,192,79471,1,0,0:0:0:0:
192,192,79471,1,0,0:0:0:0:
320,192,79528,1,0,0:0:0:0:
448,192,79528,1,0,0:0:0:0:
64,192,79584,1,0,0:0:0:0:
192,192,79584,1,0,0:0:0:0:
320,192,79641,1,0,0:0:0:0:
448,192,79641,1,0,0:0:0:0:
64,192,79726,1,0,0:0:0:0:
192,192,79726,1,0,0:0:0:0:
320,192,79810,1,0,0:0:0:0:
448,192,79810,1,0,0:0:0:0:
64,192,79867,1,0,0:0:0:0:
192,192,79867,1,0,0:0:0:0:
320,192,79923,1,0,0:0:0:0:
448,192,79923,1,0,0:0:0:0:
64,192,79980,1,0,0:0:0:0:
192,192,79980,1,0,0:0:0:0:
320,192,80065,1,0,0:0:0:0:
448,192,80065,1,0,0:0:0:0:
64,192,80149,1,0,0:0:0:0:
192,192,80149,1,0,0:0:0:0:
320,192,80206,1,0,0:0:0:0:
448,192,80206,1,0,0:0:0:0:
64,192,80262,1,0,0:0:0:0:
192,192,80262,1,0,0:0:0:0:
320,192,80319,1,0,0:0:0:0:
448,192,80319,1,0,0:0:0:0:
64,192,80404,1,0,0:0:0:0:
192,192,80404,1,0,0:0:0:0:
320,192,80488,1,0,0:0:0:0:
64,192,80658,1,0,0:0:0:0:
448,192,80658,1,0,0:0:0:0:
192,192,80743,1,0,0:0:0:0:
320,192,80743,1,0,0:0:0:0:
64,192,80827,1,0,0:0:0:0:
448,192,80827,1,0,0:0:0:0:
192,192,80912,1,0,0:0:0:0:
320,192,80912,1,0,0:0:0:0:
64,192,80997,1,0,0:0:0:0:
448,192,80997,1,0,0:0:0:0:
192,192,81082,1,0,0:0:0:0:
320,192,81082,1,0,0:0:0:0:
64,192,81166,1,0,0:0:0:0:
448,192,81166,1,0,0:0:0:0:
320,192,81209,1,0,0:0:0:0:
192,192,81251,1,0,0:0:0:0:
64,192,81293,1,0,0:0:0:0:
448,192,81336,1,0,0:0:0:0:
192,192,81378,1,0,0:0:0:0:
320,192,81420,1,0,0:0:0:0:
64,192,81463,1,0,0:0:0:0:
448,192,81505,1,0,0:0:0:0:
320,192,81548,1,0,0:0:0:0:
192,192,81590,1,0,0:0:0:0:
64,192,81632,1,0,0:0:0:0:
192,192,81675,1,0,0:0:0:0:
320,192,81717,1,0,0:0:0:0:
448,192,81759,1,0,0:0:0:0:
64,192,81802,1,0,0:0:0:0:
192,192,81844,1,0,0:0:0:0:
320,192,81887,1,0,0:0:0:0:
448,192,81929,1,0,0:0:0:0:
64,192,81971,1,0,0:0:0:0:
192,192,82014,1,0,0:0:0:0:
448,192,82056,1,0,0:0:0:0:
320,192,82098,1,0,0:0:0:0:
64,192,82141,1,0,0:0:0:0:
448,192,82183,1,0,0:0:0:0:
192,192,82226,1,0,0:0:0:0:
320,192,82268,1,0,0:0:0:0:
64,192,82310,1,0,0:0:0:0:
448,192,82353,1,0,0:0:0:0:
192,192,82395,1,0,0:0:0:0:
320,192,82437,1,0,0:0:0:0:
64,192,82480,1,0,0:0:0:0:
192,192,82522,1,0,0:0:0:0:
320,192,82565,1,0,0:0:0:0:
448,192,82607,1,0,0:0:0:0:
320,192,82649,1,0,0:0:0:0:
192,192,82692,1,0,0:0:0:0:
64,192,82734,1,0,0:0:0:0:
448,192,82776,1,0,0:0:0:0:
320,192,82819,1,0,0:0:0:0:
192,192,82861,1,0,0:0:0:0:
64,192,82904,1,0,0:0:0:0:
448,192,82946,1,0,0:0:0:0:
320,192,82988,1,0,0:0:0:0:
192,192,83031,1,0,0:0:0:0:
64,192,83073,1,0,0:0:0:0:
192,192,83115,1,0,0:0:0:0:
320,192,83158,1,0,0:0:0:0:
448,192,83200,1,0,0:0:0:0:
192,192,83243,1,0,0:0:0:0:
64,192,83285,1,0,0:0:0:0:
320,192,83327,1,0,0:0:0:0:
192,192,83370,1,0,0:0:0:0:
448,192,83412,1,0,0:0:0:0:
320,192,83454,1,0,0:0:0:0:
64,192,83497,1,0,0:0:0:0:
192,192,83539,1,0,0:0:0:0:
320,192,83581,1,0,0:0:0:0:
448,192,83624,1,0,0:0:0:0:
64,192,83666,1,0,0:0:0:0:
192,192,83709,1,0,0:0:0:0:
320,192,83751,1,0,0:0:0:0:
448,192,83793,1,0,0:0:0:0:
64,192,83836,1,0,0:0:0:0:
320,192,83878,1,0,0:0:0:0:
192,192,83920,1,0,0:0:0:0:
64,192,83963,1,0,0:0:0:0:
320,192,84005,1,0,0:0:0:0:
448,192,84048,1,0,0:0:0:0:
64,192,84090,1,0,0:0:0:0:
192,192,84132,1,0,0:0:0:0:
320,192,84175,1,0,0:0:0:0:
448,192,84217,1,0,0:0:0:0:
320,192,84259,1,0,0:0:0:0:
192,192,84302,1,0,0:0:0:0:
64,192,84344,1,0,0:0:0:0:
448,192,84387,1,0,0:0:0:0:
320,192,84429,1,0,0:0:0:0:
192,192,84471,1,0,0:0:0:0:
64,192,84514,1,0,0:0:0:0:
448,192,84556,1,0,0:0:0:0:
192,192,84598,1,0,0:0:0:0:
320,192,84641,1,0,0:0:0:0:
64,192,84683,1,0,0:0:0:0:
192,192,84726,1,0,0:0:0:0:
448,192,84768,1,0,0:0:0:0:
320,192,84810,1,0,0:0:0:0:
192,192,84853,1,0,0:0:0:0:
64,192,84895,1,0,0:0:0:0:
448,192,84937,1,0,0:0:0:0:
320,192,84980,1,0,0:0:0:0:
192,192,85022,1,0,0:0:0:0:
64,192,85065,1,0,0:0:0:0:
448,192,85107,1,0,0:0:0:0:
192,192,85149,1,0,0:0:0:0:
64,192,85192,1,0,0:0:0:0:
320,192,85234,1,0,0:0:0:0:
448,192,85276,1,0,0:0:0:0:
192,192,85319,1,0,0:0:0:0:
64,192,85361,1,0,0:0:0:0:
448,192,85404,1,0,0:0:0:0:
320,192,85446,1,0,0:0:0:0:
192,192,85488,1,0,0:0:0:0:
64,192,85531,1,0,0:0:0:0:
448,192,85573,1,0,0:0:0:0:
320,192,85615,1,0,0:0:0:0:
64,192,85658,1,0,0:0:0:0:
448,192,85700,1,0,0:0:0:0:
192,192,85743,1,0,0:0:0:0:
320,192,85785,1,0,0:0:0:0:
64,192,85827,1,0,0:0:0:0:
192,192,85870,1,0,0:0:0:0:
320,192,85912,1,0,0:0:0:0:
448,192,85954,1,0,0:0:0:0:
64,192,85997,1,0,0:0:0:0:
192,192,86039,1,0,0:0:0:0:
320,192,86081,1,0,0:0:0:0:
192,192,86124,1,0,0:0:0:0:
64,192,86166,1,0,0:0:0:0:
448,192,86209,1,0,0:0:0:0:
320,192,86251,1,0,0:0:0:0:
192,192,86293,1,0,0:0:0:0:
64,192,86336,1,0,0:0:0:0:
320,192,86378,1,0,0:0:0:0:
192,192,86420,1,0,0:0:0:0:
448,192,86463,1,0,0:0:0:0:
64,192,86505,1,0,0:0:0:0:
192,192,86548,1,0,0:0:0:0:
448,192,86590,1,0,0:0:0:0:
320,192,86632,1,0,0:0:0:0:
64,192,86675,1,0,0:0:0:0:
192,192,86717,1,0,0:0:0:0:
448,192,86759,1,0,0:0:0:0:
320,192,86802,1,0,0:0:0:0:
64,192,86844,1,0,0:0:0:0:
192,192,86887,1,0,0:0:0:0:
448,192,86929,1,0,0:0:0:0:
320,192,86971,1,0,0:0:0:0:
192,192,87014,1,0,0:0:0:0:
64,192,87056,1,0,0:0:0:0:
448,192,87098,1,0,0:0:0:0:
320,192,87141,1,0,0:0:0:0:
192,192,87183,1,0,0:0:0:0:
64,192,87226,1,0,0:0:0:0:
192,192,87268,1,0,0:0:0:0:
320,192,87310,1,0,0:0:0:0:
448,192,87353,1,0,0:0:0:0:
64,192,87395,1,0,0:0:0:0:
320,192,87437,1,0,0:0:0:0:
192,192,87480,1,0,0:0:0:0:
448,192,87522,1,0,0:0:0:0:
64,192,87565,1,0,0:0:0:0:
448,192,87607,1,0,0:0:0:0:
320,192,87649,1,0,0:0:0:0:
192,192,87692,1,0,0:0:0:0:
64,192,87734,1,0,0:0:0:0:
448,192,87776,1,0,0:0:0:0:
192,192,87819,1,0,0:0:0:0:
320,192,87861,1,0,0:0:0:0:
64,192,87904,1,0,0:0:0:0:
448,192,87946,1,0,0:0:0:0:
192,192,87988,1,0,0:0:0:0:
320,192,88031,1,0,0:0:0:0:
64,192,88073,1,0,0:0:0:0:
192,192,88115,1,0,0:0:0:0:
320,192,88158,1,0,0:0:0:0:
448,192,88200,1,0,0:0:0:0:
64,192,88242,1,0,0:0:0:0:
320,192,88285,1,0,0:0:0:0:
192,192,88327,1,0,0:0:0:0:
448,192,88370,1,0,0:0:0:0:
320,192,88412,1,0,0:0:0:0:
192,192,88454,1,0,0:0:0:0:
64,192,88497,1,0,0:0:0:0:
448,192,88539,1,0,0:0:0:0:
192,192,88581,1,0,0:0:0:0:
320,192,88624,1,0,0:0:0:0:
64,192,88666,1,0,0:0:0:0:
448,192,88709,1,0,0:0:0:0:
320,192,88751,1,0,0:0:0:0:
192,192,88793,1,0,0:0:0:0:
64,192,88836,1,0,0:0:0:0:
320,192,88878,1,0,0:0:0:0:
448,192,88920,1,0,0:0:0:0:
192,192,88963,1,0,0:0:0:0:
64,192,89005,1,0,0:0:0:0:
320,192,89048,1,0,0:0:0:0:
192,192,89090,1,0,0:0:0:0:
448,192,89132,1,0,0:0:0:0:
320,192,89175,1,0,0:0:0:0:
192,192,89217,1,0,0:0:0:0:
64,192,89259,1,0,0:0:0:0:
448,192,89302,1,0,0:0:0:0:
320,192,89344,1,0,0:0:0:0:
192,192,89387,1,0,0:0:0:0:
64,192,89429,1,0,0:0:0:0:
192,192,89471,1,0,0:0:0:0:
320,192,89514,1,0,0:0:0:0:
448,192,89556,1,0,0:0:0:0:
64,192,89598,1,0,0:0:0:0:
192,192,89641,1,0,0:0:0:0:
320,192,89683,1,0,0:0:0:0:
448,192,89726,1,0,0:0:0:0:
192,192,89768,1,0,0:0:0:0:
64,192,89810,1,0,0:0:0:0:
320,192,89853,1,0,0:0:0:0:
192,192,89895,1,0,0:0:0:0:
448,192,89937,1,0,0:0:0:0:
64,192,89980,1,0,0:0:0:0:
320,192,90022,1,0,0:0:0:0:
192,192,90065,1,0,0:0:0:0:
448,192,90107,1,0,0:0:0:0:
320,192,90149,1,0,0:0:0:0:
192,192,90192,1,0,0:0:0:0:
64,192,90234,1,0,0:0:0:0:
448,192,90276,1,0,0:0:0:0:
192,192,90319,1,0,0:0:0:0:
320,192,90361,1,0,0:0:0:0:
64,192,90403,1,0,0:0:0:0:
192,192,90446,1,0,0:0:0:0:
320,192,90488,1,0,0:0:0:0:
448,192,90531,1,0,0:0:0:0:
64,192,90573,1,0,0:0:0:0:
192,192,90615,1,0,0:0:0:0:
320,192,90658,1,0,0:0:0:0:
448,192,90700,1,0,0:0:0:0:
320,192,90742,1,0,0:0:0:0:
192,192,90785,1,0,0:0:0:0:
64,192,90827,1,0,0:0:0:0:
448,192,90870,1,0,0:0:0:0:
192,192,90912,1,0,0:0:0:0:
320,192,90954,1,0,0:0:0:0:
64,192,90997,1,0,0:0:0:0:
192,192,91039,1,0,0:0:0:0:
448,192,91081,1,0,0:0:0:0:
320,192,91124,1,0,0:0:0:0:
192,192,91166,1,0,0:0:0:0:
64,192,91209,1,0,0:0:0:0:
192,192,91251,1,0,0:0:0:0:
320,192,91293,1,0,0:0:0:0:
448,192,91336,1,0,0:0:0:0:
64,192,91378,1,0,0:0:0:0:
320,192,91420,1,0,0:0:0:0:
192,192,91463,1,0,0:0:0:0:
448,192,91505,1,0,0:0:0:0:
320,192,91548,1,0,0:0:0:0:
192,192,91590,1,0,0:0:0:0:
64,192,91632,1,0,0:0:0:0:
448,192,91675,1,0,0:0:0:0:
320,192,91717,1,0,0:0:0:0:
64,192,91759,1,0,0:0:0:0:
192,192,91802,1,0,0:0:0:0:
320,192,91844,1,0,0:0:0:0:
64,192,91887,1,0,0:0:0:0:
448,192,91929,1,0,0:0:0:0:
320,192,91971,1,0,0:0:0:0:
64,192,92014,1,0,0:0:0:0:
192,192,92014,1,0,0:0:0:0:
320,192,92183,1,0,0:0:0:0:
64,192,92353,1,0,0:0:0:0:
192,192,92353,1,0,0:0:0:0:
448,192,92353,1,0,0:0:0:0:
320,192,92522,1,0,0:0:0:0:
448,192,92522,1,0,0:0:0:0:
192,192,92692,1,0,0:0:0:0:
64,192,92861,1,0,0:0:0:0:
320,192,92861,1,0,0:0:0:0:
192,192,93031,1,0,0:0:0:0:
448,192,93031,1,0,0:0:0:0:
64,192,93200,1,0,0:0:0:0:
192,192,93200,1,0,0:0:0:0:
320,192,93200,1,0,0:0:0:0:
448,192,93200,1,0,0:0:0:0:
64,192,93370,1,0,0:0:0:0:
192,192,93539,1,0,0:0:0:0:
320,192,93709,1,0,0:0:0:0:
448,192,93709,1,0,0:0:0:0:
192,192,93878,1,0,0:0:0:0:
64,192,94048,1,0,0:0:0:0:
192,192,94217,1,0,0:0:0:0:
320,192,94217,1,0,0:0:0:0:
64,192,94387,1,0,0:0:0:0:
320,192,94387,1,0,0:0:0:0:
448,192,94387,1,0,0:0:0:0:
192,192,94556,1,0,0:0:0:0:
448,192,94556,1,0,0:0:0:0:
64,192,94726,1,0,0:0:0:0:
192,192,94726,1,0,0:0:0:0:
320,192,94726,1,0,0:0:0:0:
448,192,94726,1,0,0:0:0:0:
320,192,94895,1,0,0:0:0:0:
64,192,95064,1,0,0:0:0:0:
192,192,95064,1,0,0:0:0:0:
448,192,95064,1,0,0:0:0:0:
320,192,95234,1,0,0:0:0:0:
448,192,95234,1,0,0:0:0:0:
192,192,95403,1,0,0:0:0:0:
64,192,95573,1,0,0:0:0:0:
320,192,95573,1,0,0:0:0:0:
192,192,95742,1,0,0:0:0:0:
448,192,95742,1,0,0:0:0:0:
64,192,95891,1,0,0:0:0:0:
192,192,95912,1,0,0:0:0:0:
320,192,95912,1,0,0:0:0:0:
448,192,95912,1,0,0:0:0:0:
320,192,96081,1,0,0:0:0:0:
192,192,96251,1,0,0:0:0:0:
64,192,96420,1,0,0:0:0:0:
320,192,96420,1,0,0:0:0:0:
448,192,96420,1,0,0:0:0:0:
192,192,96590,1,0,0:0:0:0:
64,192,96759,1,0,0:0:0:0:
320,192,96759,1,0,0:0:0:0:
448,192,96929,1,0,0:0:0:0:
64,192,97098,1,0,0:0:0:0:
192,192,97098,1,0,0:0:0:0:
320,192,97098,1,0,0:0:0:0:
448,192,97098,1,0,0:0:0:0:
320,192,97268,1,0,0:0:0:0:
64,192,97437,1,0,0:0:0:0:
192,192,97437,1,0,0:0:0:0:
448,192,97437,1,0,0:0:0:0:
448,192,97607,1,0,0:0:0:0:
64,192,97776,1,0,0:0:0:0:
192,192,97776,1,0,0:0:0:0:
320,192,97776,1,0,0:0:0:0:
192,192,97946,1,0,0:0:0:0:
448,192,97946,1,0,0:0:0:0:
320,192,98115,1,0,0:0:0:0:
64,192,98285,1,0,0:0:0:0:
192,192,98285,1,0,0:0:0:0:
64,192,98454,1,0,0:0:0:0:
320,192,98454,1,0,0:0:0:0:
192,192,98624,1,0,0:0:0:0:
448,192,98624,1,0,0:0:0:0:
320,192,98793,1,0,0:0:0:0:
64,192,98963,1,0,0:0:0:0:
320,192,99132,1,0,0:0:0:0:
448,192,99132,1,0,0:0:0:0:
64,192,99302,1,0,0:0:0:0:
192,192,99302,1,0,0:0:0:0:
192,192,99471,1,0,0:0:0:0:
320,192,99471,1,0,0:0:0:0:
192,192,99641,1,0,0:0:0:0:
448,192,99641,1,0,0:0:0:0:
64,192,99810,1,0,0:0:0:0:
320,192,99810,1,0,0:0:0:0:
448,192,99810,1,0,0:0:0:0:
64,192,99980,1,0,0:0:0:0:
192,192,99980,1,0,0:0:0:0:
320,192,99980,1,0,0:0:0:0:
448,192,99980,1,0,0:0:0:0:
192,192,100149,1,0,0:0:0:0:
64,192,100319,1,0,0:0:0:0:
320,192,100319,1,0,0:0:0:0:
64,192,100488,1,0,0:0:0:0:
192,192,100488,1,0,0:0:0:0:
448,192,100488,1,0,0:0:0:0:
320,192,100658,1,0,0:0:0:0:
448,192,100658,1,0,0:0:0:0:
64,192,100827,1,0,0:0:0:0:
192,192,100827,1,0,0:0:0:0:
320,192,100827,1,0,0:0:0:0:
448,192,100827,1,0,0:0:0:0:
64,192,100997,1,0,0:0:0:0:
192,192,100997,1,0,0:0:0:0:
192,192,101166,1,0,0:0:0:0:
320,192,101166,1,0,0:0:0:0:
448,192,101166,1,0,0:0:0:0:
64,192,101336,1,0,0:0:0:0:
320,192,101336,1,0,0:0:0:0:
64,192,101505,1,0,0:0:0:0:
192,192,101505,1,0,0:0:0:0:
320,192,101505,1,0,0:0:0:0:
448,192,101505,1,0,0:0:0:0:
192,192,101675,1,0,0:0:0:0:
320,192,101675,1,0,0:0:0:0:
64,192,101844,1,0,0:0:0:0:
192,192,101844,1,0,0:0:0:0:
448,192,101844,1,0,0:0:0:0:
320,192,102014,1,0,0:0:0:0:
448,192,102014,1,0,0:0:0:0:
64,192,102183,1,0,0:0:0:0:
192,192,102353,1,0,0:0:0:0:
320,192,102353,1,0,0:0:0:0:
64,192,102437,1,0,0:0:0:0:
448,192,102437,1,0,0:0:0:0:
192,192,102522,1,0,0:0:0:0:
320,192,102522,1,0,0:0:0:0:
64,192,102607,1,0,0:0:0:0:
448,192,102607,1,0,0:0:0:0:
192,192,102692,1,0,0:0:0:0:
320,192,102692,1,0,0:0:0:0:
64,192,102776,1,0,0:0:0:0:
448,192,102776,1,0,0:0:0:0:
192,192,102861,1,0,0:0:0:0:
320,192,102861,1,0,0:0:0:0:
448,192,102903,1,0,0:0:0:0:
64,192,102946,1,0,0:0:0:0:
192,192,102988,1,0,0:0:0:0:
448,192,103031,1,0,0:0:0:0:
320,192,103073,1,0,0:0:0:0:
192,192,103115,1,0,0:0:0:0:
64,192,103158,1,0,0:0:0:0:
448,192,103200,1,0,0:0:0:0:
320,192,103242,1,0,0:0:0:0:
192,192,103285,1,0,0:0:0:0:
64,192,103327,1,0,0:0:0:0:
320,192,103370,1,0,0:0:0:0:
448,192,103412,1,0,0:0:0:0:
64,192,103454,1,0,0:0:0:0:
320,192,103497,1,0,0:0:0:0:
192,192,103539,1,0,0:0:0:0:
448,192,103581,1,0,0:0:0:0:
64,192,103624,1,0,0:0:0:0:
320,192,103666,1,0,0:0:0:0:
192,192,103708,1,0,0:0:0:0:
448,192,103751,1,0,0:0:0:0:
320,192,103793,1,0,0:0:0:0:
64,192,103836,1,0,0:0:0:0:
192,192,103878,1,0,0:0:0:0:
320,192,103920,1,0,0:0:0:0:
448,192,103963,1,0,0:0:0:0:
192,192,104005,1,0,0:0:0:0:
64,192,104047,1,0,0:0:0:0:
320,192,104090,1,0,0:0:0:0:
192,192,104132,1,0,0:0:0:0:
64,192,104175,1,0,0:0:0:0:
448,192,104217,1,0,0:0:0:0:
320,192,104259,1,0,0:0:0:0:
192,192,104302,1,0,0:0:0:0:
64,192,104344,1,0,0:0:0:0:
192,192,104386,1,0,0:0:0:0:
320,192,104429,1,0,0:0:0:0:
448,192,104471,1,0,0:0:0:0:
64,192,104514,1,0,0:0:0:0:
320,192,104556,1,0,0:0:0:0:
192,192,104598,1,0,0:0:0:0:
448,192,104641,1,0,0:0:0:0:
320,192,104683,1,0,0:0:0:0:
64,192,104725,1,0,0:0:0:0:
192,192,104768,1,0,0:0:0:0:
320,192,104810,1,0,0:0:0:0:
448,192,104853,1,0,0:0:0:0:
192,192,104895,1,0,0:0:0:0:
64,192,104937,1,0,0:0:0:0:
448,192,104980,1,0,0:0:0:0:
320,192,105022,1,0,0:0:0:0:
64,192,105064,1,0,0:0:0:0:
192,192,105107,1,0,0:0:0:0:
448,192,105149,1,0,0:0:0:0:
320,192,105192,1,0,0:0:0:0:
64,192,105234,1,0,0:0:0:0:
448,192,105276,1,0,0:0:0:0:
192,192,105319,1,0,0:0:0:0:
320,192,105361,1,0,0:0:0:0:
64,192,105403,1,0,0:0:0:0:
448,192,105446,1,0,0:0:0:0:
192,192,105488,1,0,0:0:0:0:
64,192,105531,1,0,0:0:0:0:
320,192,105573,1,0,0:0:0:0:
448,192,105615,1,0,0:0:0:0:
192,192,105658,1,0,0:0:0:0:
320,192,105700,1,0,0:0:0:0:
64,192,105742,1,0,0:0:0:0:
192,192,105785,1,0,0:0:0:0:
320,192,105827,1,0,0:0:0:0:
448,192,105870,1,0,0:0:0:0:
320,192,105912,1,0,0:0:0:0:
192,192,105954,1,0,0:0:0:0:
64,192,105997,1,0,0:0:0:0:
448,192,106039,1,0,0:0:0:0:
320,192,106081,1,0,0:0:0:0:
192,192,106124,1,0,0:0:0:0:
64,192,106166,1,0,0:0:0:0:
448,192,106208,1,0,0:0:0:0:
192,192,106251,1,0,0:0:0:0:
64,192,106293,1,0,0:0:0:0:
448,192,106336,1,0,0:0:0:0:
320,192,106378,1,0,0:0:0:0:
192,192,106420,1,0,0:0:0:0:
64,192,106463,1,0,0:0:0:0:
448,192,106505,1,0,0:0:0:0:
320,192,106547,1,0,0:0:0:0:
192,192,106590,1,0,0:0:0:0:
64,192,106632,1,0,0:0:0:0:
320,192,106675,1,0,0:0:0:0:
448,192,106717,1,0,0:0:0:0:
192,192,106759,1,0,0:0:0:0:
320,192,106802,1,0,0:0:0:0:
64,192,106844,1,0,0:0:0:0:
448,192,106886,1,0,0:0:0:0:
192,192,106929,1,0,0:0:0:0:
320,192,106971,1,0,0:0:0:0:
64,192,107014,1,0,0:0:0:0:
192,192,107056,1,0,0:0:0:0:
448,192,107098,1,0,0:0:0:0:
64,192,107141,1,0,0:0:0:0:
320,192,107183,1,0,0:0:0:0:
448,192,107225,1,0,0:0:0:0:
192,192,107268,1,0,0:0:0:0:
64,192,107310,1,0,0:0:0:0:
320,192,107353,1,0,0:0:0:0:
192,192,107395,1,0,0:0:0:0:
448,192,107437,1,0,0:0:0:0:
320,192,107480,1,0,0:0:0:0:
64,192,107522,1,0,0:0:0:0:
192,192,107564,1,0,0:0:0:0:
448,192,107607,1,0,0:0:0:0:
320,192,107649,1,0,0:0:0:0:
192,192,107692,1,0,0:0:0:0:
64,192,107734,1,0,0:0:0:0:
192,192,107776,1,0,0:0:0:0:
320,192,107819,1,0,0:0:0:0:
448,192,107861,1,0,0:0:0:0:
64,192,107903,1,0,0:0:0:0:
320,192,107946,1,0,0:0:0:0:
192,192,107988,1,0,0:0:0:0:
448,192,108031,1,0,0:0:0:0:
64,192,108073,1,0,0:0:0:0:
320,192,108115,1,0,0:0:0:0:
448,192,108158,1,0,0:0:0:0:
192,192,108200,1,0,0:0:0:0:
64,192,108242,1,0,0:0:0:0:
448,192,108285,1,0,0:0:0:0:
192,192,108327,1,0,0:0:0:0:
320,192,108369,1,0,0:0:0:0:
64,192,108412,1,0,0:0:0:0:
448,192,108454,1,0,0:0:0:0:
64,192,108497,1,0,0:0:0:0:
192,192,108539,1,0,0:0:0:0:
320,192,108581,1,0,0:0:0:0:
448,192,108624,1,0,0:0:0:0:
320,192,108666,1,0,0:0:0:0:
192,192,108708,1,0,0:0:0:0:
64,192,108751,1,0,0:0:0:0:
448,192,108793,1,0,0:0:0:0:
320,192,108836,1,0,0:0:0:0:
192,192,108878,1,0,0:0:0:0:
64,192,108920,1,0,0:0:0:0:
320,192,108963,1,0,0:0:0:0:
192,192,109005,1,0,0:0:0:0:
448,192,109047,1,0,0:0:0:0:
320,192,109090,1,0,0:0:0:0:
192,192,109132,1,0,0:0:0:0:
64,192,109175,1,0,0:0:0:0:
192,192,109217,1,0,0:0:0:0:
320,192,109259,1,0,0:0:0:0:
448,192,109302,1,0,0:0:0:0:
64,192,109344,1,0,0:0:0:0:
192,192,109386,1,0,0:0:0:0:
448,192,109429,1,0,0:0:0:0:
320,192,109471,1,0,0:0:0:0:
192,192,109514,1,0,0:0:0:0:
64,192,109556,1,0,0:0:0:0:
448,192,109598,1,0,0:0:0:0:
320,192,109641,1,0,0:0:0:0:
192,192,109683,1,0,0:0:0:0:
320,192,109725,1,0,0:0:0:0:
448,192,109768,1,0,0:0:0:0:
192,192,109810,1,0,0:0:0:0:
64,192,109853,1,0,0:0:0:0:
320,192,109895,1,0,0:0:0:0:
192,192,109937,1,0,0:0:0:0:
448,192,109980,1,0,0:0:0:0:
320,192,110022,1,0,0:0:0:0:
64,192,110064,1,0,0:0:0:0:
192,192,110107,1,0,0:0:0:0:
320,192,110149,1,0,0:0:0:0:
448,192,110192,1,0,0:0:0:0:
64,192,110234,1,0,0:0:0:0:
192,192,110276,1,0,0:0:0:0:
320,192,110319,1,0,0:0:0:0:
448,192,110361,1,0,0:0:0:0:
64,192,110403,1,0,0:0:0:0:
320,192,110446,1,0,0:0:0:0:
192,192,110488,1,0,0:0:0:0:
448,192,110530,1,0,0:0:0:0:
320,192,110573,1,0,0:0:0:0:
64,192,110615,1,0,0:0:0:0:
192,192,110658,1,0,0:0:0:0:
320,192,110700,1,0,0:0:0:0:
192,192,110742,1,0,0:0:0:0:
64,192,110785,1,0,0:0:0:0:
448,192,110827,1,0,0:0:0:0:
320,192,110869,1,0,0:0:0:0:
192,192,110912,1,0,0:0:0:0:
64,192,110954,1,0,0:0:0:0:
448,192,110997,1,0,0:0:0:0:
192,192,111039,1,0,0:0:0:0:
320,192,111081,1,0,0:0:0:0:
64,192,111124,1,0,0:0:0:0:
448,192,111166,1,0,0:0:0:0:
192,192,111208,1,0,0:0:0:0:
320,192,111251,1,0,0:0:0:0:
64,192,111293,1,0,0:0:0:0:
448,192,111336,1,0,0:0:0:0:
192,192,111378,1,0,0:0:0:0:
64,192,111420,1,0,0:0:0:0:
320,192,111463,1,0,0:0:0:0:
192,192,111505,1,0,0:0:0:0:
448,192,111547,1,0,0:0:0:0:
320,192,111590,1,0,0:0:0:0:
192,192,111632,1,0,0:0:0:0:
64,192,111675,1,0,0:0:0:0:
448,192,111717,1,0,0:0:0:0:
320,192,111759,1,0,0:0:0:0:
192,192,111802,1,0,0:0:0:0:
64,192,111844,1,0,0:0:0:0:
320,192,111886,1,0,0:0:0:0:
448,192,111929,1,0,0:0:0:0:
192,192,111971,1,0,0:0:0:0:
320,192,112014,1,0,0:0:0:0:
64,192,112056,1,0,0:0:0:0:
448,192,112098,1,0,0:0:0:0:
192,192,112141,1,0,0:0:0:0:
320,192,112183,1,0,0:0:0:0:
64,192,112225,1,0,0:0:0:0:
448,192,112268,1,0,0:0:0:0:
320,192,112310,1,0,0:0:0:0:
64,192,112353,1,0,0:0:0:0:
192,192,112395,1,0,0:0:0:0:
448,192,112437,1,0,0:0:0:0:
320,192,112480,1,0,0:0:0:0:
64,192,112522,1,0,0:0:0:0:
192,192,112564,1,0,0:0:0:0:
320,192,112607,1,0,0:0:0:0:
448,192,112649,1,0,0:0:0:0:
320,192,112691,1,0,0:0:0:0:
192,192,112734,1,0,0:0:0:0:
64,192,112776,1,0,0:0:0:0:
448,192,112819,1,0,0:0:0:0:
320,192,112861,1,0,0:0:0:0:
192,192,112903,1,0,0:0:0:0:
64,192,112946,1,0,0:0:0:0:
448,192,112988,1,0,0:0:0:0:
192,192,113030,1,0,0:0:0:0:
320,192,113073,1,0,0:0:0:0:
64,192,113115,1,0,0:0:0:0:
448,192,113158,1,0,0:0:0:0:
192,192,113200,1,0,0:0:0:0:
64,192,113242,1,0,0:0:0:0:
320,192,113285,1,0,0:0:0:0:
448,192,113327,1,0,0:0:0:0:
192,192,113369,1,0,0:0:0:0:
320,192,113412,1,0,0:0:0:0:
64,192,113454,1,0,0:0:0:0:
192,192,113497,1,0,0:0:0:0:
448,192,113539,1,0,0:0:0:0:
320,192,113581,1,0,0:0:0:0:
192,192,113624,1,0,0:0:0:0:
64,192,113666,1,0,0:0:0:0:
448,192,113708,1,0,0:0:0:0:
320,192,113751,1,0,0:0:0:0:
192,192,113793,1,0,0:0:0:0:
64,192,113836,1,0,0:0:0:0:
448,192,113878,1,0,0:0:0:0:
192,192,113920,1,0,0:0:0:0:
64,192,113963,1,0,0:0:0:0:
320,192,114005,1,0,0:0:0:0:
448,192,114047,1,0,0:0:0:0:
320,192,114090,1,0,0:0:0:0:
192,192,114132,1,0,0:0:0:0:
64,192,114175,1,0,0:0:0:0:
448,192,114217,1,0,0:0:0:0:
192,192,114259,1,0,0:0:0:0:
320,192,114302,1,0,0:0:0:0:
64,192,114344,1,0,0:0:0:0:
448,192,114386,1,0,0:0:0:0:
192,192,114429,1,0,0:0:0:0:
64,192,114471,1,0,0:0:0:0:
320,192,114514,1,0,0:0:0:0:
192,192,114556,1,0,0:0:0:0:
448,192,114598,1,0,0:0:0:0:
64,192,114641,1,0,0:0:0:0:
192,192,114683,1,0,0:0:0:0:
448,192,114725,1,0,0:0:0:0:
320,192,114768,1,0,0:0:0:0:
64,192,114810,1,0,0:0:0:0:
192,192,114853,1,0,0:0:0:0:
448,192,114895,1,0,0:0:0:0:
320,192,114937,1,0,0:0:0:0:
192,192,114980,1,0,0:0:0:0:
64,192,115022,1,0,0:0:0:0:
448,192,115064,1,0,0:0:0:0:
320,192,115107,1,0,0:0:0:0:
64,192,115149,1,0,0:0:0:0:
192,192,115191,1,0,0:0:0:0:
320,192,115234,1,0,0:0:0:0:
448,192,115276,1,0,0:0:0:0:
320,192,115319,1,0,0:0:0:0:
192,192,115361,1,0,0:0:0:0:
64,192,115403,1,0,0:0:0:0:
448,192,115446,1,0,0:0:0:0:
192,192,115488,1,0,0:0:0:0:
320,192,115530,1,0,0:0:0:0:
64,192,115573,1,0,0:0:0:0:
192,192,115615,1,0,0:0:0:0:
448,192,115658,1,0,0:0:0:0:
64,192,115700,1,0,0:0:0:0:
192,192,115742,1,0,0:0:0:0:
320,192,115785,1,0,0:0:0:0:
448,192,115827,1,0,0:0:0:0:
64,192,115869,1,0,0:0:0:0:
192,192,115912,1,0,0:0:0:0:
448,192,115954,1,0,0:0:0:0:
320,192,115997,1,0,0:0:0:0:
192,192,116039,1,0,0:0:0:0:
64,192,116081,1,0,0:0:0:0:
448,192,116124,1,0,0:0:0:0:
320,192,116166,1,0,0:0:0:0:
64,192,116208,1,0,0:0:0:0:
448,192,116251,1,0,0:0:0:0:
192,192,116293,1,0,0:0:0:0:
320,192,116336,1,0,0:0:0:0:
64,192,116378,1,0,0:0:0:0:
448,192,116420,1,0,0:0:0:0:
192,192,116463,1,0,0:0:0:0:
64,192,116505,1,0,0:0:0:0:
320,192,116547,1,0,0:0:0:0:
448,192,116590,1,0,0:0:0:0:
64,192,116632,1,0,0:0:0:0:
192,192,116675,1,0,0:0:0:0:
448,192,116717,1,0,0:0:0:0:
320,192,116759,1,0,0:0:0:0:
64,192,116802,1,0,0:0:0:0:
448,192,116844,1,0,0:0:0:0:
320,192,116886,1,0,0:0:0:0:
192,192,116929,1,0,0:0:0:0:
64,192,116971,1,0,0:0:0:0:
320,192,117014,1,0,0:0:0:0:
192,192,117056,1,0,0:0:0:0:
64,192,117098,1,0,0:0:0:0:
448,192,117141,1,0,0:0:0:0:
320,192,117183,1,0,0:0:0:0:
192,192,117225,1,0,0:0:0:0:
64,192,117268,1,0,0:0:0:0:
192,192,117310,1,0,0:0:0:0:
320,192,117352,1,0,0:0:0:0:
448,192,117395,1,0,0:0:0:0:
192,192,117437,1,0,0:0:0:0:
64,192,117480,1,0,0:0:0:0:
320,192,117522,1,0,0:0:0:0:
192,192,117564,1,0,0:0:0:0:
448,192,117607,1,0,0:0:0:0:
320,192,117649,1,0,0:0:0:0:
192,192,117691,1,0,0:0:0:0:
64,192,117734,1,0,0:0:0:0:
448,192,117776,1,0,0:0:0:0:
320,192,117819,1,0,0:0:0:0:
64,192,117861,1,0,0:0:0:0:
192,192,117903,1,0,0:0:0:0:
320,192,117946,1,0,0:0:0:0:
448,192,117988,1,0,0:0:0:0:
64,192,118030,1,0,0:0:0:0:
192,192,118073,1,0,0:0:0:0:
320,192,118115,1,0,0:0:0:0:
448,192,118158,1,0,0:0:0:0:
64,192,118200,1,0,0:0:0:0:
320,192,118242,1,0,0:0:0:0:
192,192,118285,1,0,0:0:0:0:
448,192,118327,1,0,0:0:0:0:
320,192,118369,1,0,0:0:0:0:
192,192,118412,1,0,0:0:0:0:
64,192,118454,1,0,0:0:0:0:
320,192,118497,1,0,0:0:0:0:
448,192,118539,1,0,0:0:0:0:
192,192,118581,1,0,0:0:0:0:
64,192,118624,1,0,0:0:0:0:
320,192,118666,1,0,0:0:0:0:
448,192,118708,1,0,0:0:0:0:
192,192,118751,1,0,0:0:0:0:
320,192,118793,1,0,0:0:0:0:
64,192,118836,1,0,0:0:0:0:
448,192,118878,1,0,0:0:0:0:
320,192,118920,1,0,0:0:0:0:
192,192,118963,1,0,0:0:0:0:
64,192,119005,1,0,0:0:0:0:
320,192,119047,1,0,0:0:0:0:
192,192,119090,1,0,0:0:0:0:
448,192,119132,1,0,0:0:0:0:
64,192,119175,1,0,0:0:0:0:
192,192,119217,1,0,0:0:0:0:
320,192,119259,1,0,0:0:0:0:
448,192,119302,1,0,0:0:0:0:
320,192,119344,1,0,0:0:0:0:
192,192,119386,1,0,0:0:0:0:
64,192,119429,1,0,0:0:0:0:
448,192,119471,1,0,0:0:0:0:
320,192,119513,1,0,0:0:0:0:
192,192,119556,1,0,0:0:0:0:
64,192,119598,1,0,0:0:0:0:
448,192,119641,1,0,0:0:0:0:
320,192,119683,1,0,0:0:0:0:
192,192,119725,1,0,0:0:0:0:
64,192,119768,1,0,0:0:0:0:
448,192,119810,1,0,0:0:0:0:
192,192,119852,1,0,0:0:0:0:
320,192,119895,1,0,0:0:0:0:
64,192,119937,1,0,0:0:0:0:
448,192,119980,1,0,0:0:0:0:
192,192,120022,1,0,0:0:0:0:
320,192,120064,1,0,0:0:0:0:
64,192,120107,1,0,0:0:0:0:
192,192,120149,1,0,0:0:0:0:
320,192,120191,1,0,0:0:0:0:
448,192,120234,1,0,0:0:0:0:
320,192,120276,1,0,0:0:0:0:
192,192,120319,1,0,0:0:0:0:
64,192,120361,1,0,0:0:0:0:
320,192,120403,1,0,0:0:0:0:
448,192,120446,1,0,0:0:0:0:
192,192,120488,1,0,0:0:0:0:
64,192,120530,1,0,0:0:0:0:
320,192,120573,1,0,0:0:0:0:
448,192,120615,1,0,0:0:0:0:
64,192,120658,1,0,0:0:0:0:
192,192,120700,1,0,0:0:0:0:
320,192,120742,1,0,0:0:0:0:
448,192,120785,1,0,0:0:0:0:
64,192,120827,1,0,0:0:0:0:
192,192,120869,1,0,0:0:0:0:
320,192,120912,1,0,0:0:0:0:
448,192,120954,1,0,0:0:0:0:
192,192,120997,1,0,0:0:0:0:
64,192,121039,1,0,0:0:0:0:
320,192,121081,1,0,0:0:0:0:
192,192,121124,1,0,0:0:0:0:
448,192,121166,1,0,0:0:0:0:
64,192,121208,1,0,0:0:0:0:
320,192,121251,1,0,0:0:0:0:
192,192,121293,1,0,0:0:0:0:
448,192,121336,1,0,0:0:0:0:
320,192,121378,1,0,0:0:0:0:
192,192,121420,1,0,0:0:0:0:
64,192,121463,1,0,0:0:0:0:
320,192,121505,1,0,0:0:0:0:
448,192,121547,1,0,0:0:0:0:
192,192,121590,1,0,0:0:0:0:
320,192,121632,1,0,0:0:0:0:
64,192,121674,1,0,0:0:0:0:
192,192,121717,1,0,0:0:0:0:
448,192,121759,1,0,0:0:0:0:
320,192,121802,1,0,0:0:0:0:
64,192,121844,1,0,0:0:0:0:
192,0,121844,128,0,122296:1:0:0:0:
320,192,122183,1,0,0:0:0:0:
64,192,122352,1,0,0:0:0:0:
192,192,122522,1,0,0:0:0:0:
448,192,122522,1,0,0:0:0:0:
320,0,122522,128,0,122974:1:0:0:0:
448,192,122861,1,0,0:0:0:0:
192,192,123030,1,0,0:0:0:0:
64,192,123200,1,0,0:0:0:0:
320,192,123200,1,0,0:0:0:0:
448,0,123200,128,0,123454:1:0:0:0:
192,192,123539,1,0,0:0:0:0:
64,0,123539,128,0,123793:1:0:0:0:
192,192,123878,1,0,0:0:0:0:
320,192,123878,1,0,0:0:0:0:
448,0,123878,128,0,124471:1:0:0:0:
64,192,124217,1,0,0:0:0:0:
192,192,124556,1,0,0:0:0:0:
320,192,124556,1,0,0:0:0:0:
448,192,124725,1,0,0:0:0:0:
64,192,124895,1,0,0:0:0:0:
192,192,124895,1,0,0:0:0:0:
448,192,125064,1,0,0:0:0:0:
64,192,125234,1,0,0:0:0:0:
320,192,125234,1,0,0:0:0:0:
192,192,125403,1,0,0:0:0:0:
320,192,125573,1,0,0:0:0:0:
448,192,125573,1,0,0:0:0:0:
192,192,125742,1,0,0:0:0:0:
64,192,125912,1,0,0:0:0:0:
448,192,125912,1,0,0:0:0:0:
320,192,126081,1,0,0:0:0:0:
192,192,126251,1,0,0:0:0:0:
448,192,126251,1,0,0:0:0:0:
64,192,126420,1,0,0:0:0:0:
192,192,126590,1,0,0:0:0:0:
448,192,126590,1,0,0:0:0:0:
192,192,126759,1,0,0:0:0:0:
320,192,126759,1,0,0:0:0:0:
64,192,126929,1,0,0:0:0:0:
320,192,126929,1,0,0:0:0:0:
448,192,127098,1,0,0:0:0:0:
192,192,127268,1,0,0:0:0:0:
448,192,127268,1,0,0:0:0:0:
320,192,127437,1,0,0:0:0:0:
64,192,127607,1,0,0:0:0:0:
192,192,127607,1,0,0:0:0:0:
448,192,127776,1,0,0:0:0:0:
64,192,127946,1,0,0:0:0:0:
320,192,127946,1,0,0:0:0:0:
192,192,128115,1,0,0:0:0:0:
320,192,128285,1,0,0:0:0:0:
448,192,128285,1,0,0:0:0:0:
192,192,128454,1,0,0:0:0:0:
64,192,128624,1,0,0:0:0:0:
448,192,128624,1,0,0:0:0:0:
320,192,128793,1,0,0:0:0:0:
192,192,128963,1,0,0:0:0:0:
448,192,128963,1,0,0:0:0:0:
64,192,129132,1,0,0:0:0:0:
192,192,129302,1,0,0:0:0:0:
448,192,129302,1,0,0:0:0:0:
64,192,129471,1,0,0:0:0:0:
320,192,129471,1,0,0:0:0:0:
192,192,129641,1,0,0:0:0:0:
320,192,129641,1,0,0:0:0:0:
448,192,129810,1,0,0:0:0:0:
192,192,129980,1,0,0:0:0:0:
448,192,129980,1,0,0:0:0:0:
320,192,130149,1,0,0:0:0:0:
64,192,130319,1,0,0:0:0:0:
192,192,130319,1,0,0:0:0:0:
448,192,130488,1,0,0:0:0:0:
64,192,130657,1,0,0:0:0:0:
320,192,130657,1,0,0:0:0:0:
192,192,130827,1,0,0:0:0:0:
64,192,130996,1,0,0:0:0:0:
448,192,130996,1,0,0:0:0:0:
320,192,131166,1,0,0:0:0:0:
64,192,131335,1,0,0:0:0:0:
192,192,131335,1,0,0:0:0:0:
448,192,131335,1,0,0:0:0:0:
320,192,131505,1,0,0:0:0:0:
192,192,131674,1,0,0:0:0:0:
448,192,131674,1,0,0:0:0:0:
64,192,131844,1,0,0:0:0:0:
192,192,132013,1,0,0:0:0:0:
320,192,132013,1,0,0:0:0:0:
448,192,132013,1,0,0:0:0:0:
64,192,132183,1,0,0:0:0:0:
192,192,132352,1,0,0:0:0:0:
320,192,132352,1,0,0:0:0:0:
448,192,132522,1,0,0:0:0:0:
64,192,132691,1,0,0:0:0:0:
192,192,132691,1,0,0:0:0:0:
320,192,132691,1,0,0:0:0:0:
448,192,132861,1,0,0:0:0:0:
192,192,133030,1,0,0:0:0:0:
320,192,133030,1,0,0:0:0:0:
448,192,133030,1,0,0:0:0:0:
64,192,133200,1,0,0:0:0:0:
320,192,133200,1,0,0:0:0:0:
64,192,133369,1,0,0:0:0:0:
192,192,133369,1,0,0:0:0:0:
320,192,133539,1,0,0:0:0:0:
448,192,133539,1,0,0:0:0:0:
64,192,133708,1,0,0:0:0:0:
192,192,133708,1,0,0:0:0:0:
192,192,133878,1,0,0:0:0:0:
320,192,133878,1,0,0:0:0:0:
448,192,133878,1,0,0:0:0:0:
64,192,134047,1,0,0:0:0:0:
320,192,134047,1,0,0:0:0:0:
448,192,134217,1,0,0:0:0:0:
192,192,134386,1,0,0:0:0:0:
320,192,134386,1,0,0:0:0:0:
448,192,134556,1,0,0:0:0:0:
192,192,134725,1,0,0:0:0:0:
448,192,134725,1,0,0:0:0:0:
64,192,134895,1,0,0:0:0:0:
320,192,134895,1,0,0:0:0:0:
64,192,135064,1,0,0:0:0:0:
192,192,135064,1,0,0:0:0:0:
448,192,135064,1,0,0:0:0:0:
192,192,135234,1,0,0:0:0:0:
320,192,135234,1,0,0:0:0:0:
64,192,135403,1,0,0:0:0:0:
320,192,135403,1,0,0:0:0:0:
448,192,135403,1,0,0:0:0:0:
192,192,135573,1,0,0:0:0:0:
64,192,135742,1,0,0:0:0:0:
192,192,135742,1,0,0:0:0:0:
320,192,135742,1,0,0:0:0:0:
64,192,135912,1,0,0:0:0:0:
448,192,135912,1,0,0:0:0:0:
192,192,136081,1,0,0:0:0:0:
320,192,136081,1,0,0:0:0:0:
192,192,136251,1,0,0:0:0:0:
448,192,136251,1,0,0:0:0:0:
64,192,136420,1,0,0:0:0:0:
320,192,136420,1,0,0:0:0:0:
192,192,136590,1,0,0:0:0:0:
320,192,136590,1,0,0:0:0:0:
448,192,136590,1,0,0:0:0:0:
64,192,136759,1,0,0:0:0:0:
192,192,136759,1,0,0:0:0:0:
448,192,136929,1,0,0:0:0:0:
64,192,137098,1,0,0:0:0:0:
192,192,137098,1,0,0:0:0:0:
320,192,137098,1,0,0:0:0:0:
448,192,137268,1,0,0:0:0:0:
64,192,137437,1,0,0:0:0:0:
320,192,137437,1,0,0:0:0:0:
448,192,137437,1,0,0:0:0:0:
192,192,137607,1,0,0:0:0:0:
192,192,137776,1,0,0:0:0:0:
320,192,137776,1,0,0:0:0:0:
448,192,137776,1,0,0:0:0:0:
64,192,137946,1,0,0:0:0:0:
192,192,138115,1,0,0:0:0:0:
320,192,138115,1,0,0:0:0:0:
448,192,138115,1,0,0:0:0:0:
64,192,138200,1,0,0:0:0:0:
192,192,138200,1,0,0:0:0:0:
320,192,138285,1,0,0:0:0:0:
448,192,138285,1,0,0:0:0:0:
64,192,138369,1,0,0:0:0:0:
192,192,138369,1,0,0:0:0:0:
192,192,138454,1,0,0:0:0:0:
320,192,138454,1,0,0:0:0:0:
64,192,138539,1,0,0:0:0:0:
448,192,138539,1,0,0:0:0:0:
192,192,138624,1,0,0:0:0:0:
320,192,138624,1,0,0:0:0:0:
64,192,138708,1,0,0:0:0:0:
448,192,138708,1,0,0:0:0:0:
64,192,138793,1,0,0:0:0:0:
320,192,138793,1,0,0:0:0:0:
192,192,138878,1,0,0:0:0:0:
448,192,138878,1,0,0:0:0:0:
64,192,138963,1,0,0:0:0:0:
320,192,138963,1,0,0:0:0:0:
192,192,139047,1,0,0:0:0:0:
448,192,139047,1,0,0:0:0:0:
64,192,139132,1,0,0:0:0:0:
192,192,139132,1,0,0:0:0:0:
320,192,139217,1,0,0:0:0:0:
448,192,139217,1,0,0:0:0:0:
64,192,139302,1,0,0:0:0:0:
192,192,139302,1,0,0:0:0:0:
320,192,139386,1,0,0:0:0:0:
448,192,139386,1,0,0:0:0:0:
192,192,139471,1,0,0:0:0:0:
320,192,139471,1,0,0:0:0:0:
64,192,139556,1,0,0:0:0:0:
448,192,139556,1,0,0:0:0:0:
192,192,139640,1,0,0:0:0:0:
320,192,139640,1,0,0:0:0:0:
64,192,139725,1,0,0:0:0:0:
448,192,139725,1,0,0:0:0:0:
192,192,139810,1,0,0:0:0:0:
448,192,139810,1,0,0:0:0:0:
64,192,139895,1,0,0:0:0:0:
320,192,139895,1,0,0:0:0:0:
192,192,139979,1,0,0:0:0:0:
448,192,139979,1,0,0:0:0:0:
64,192,140064,1,0,0:0:0:0:
320,192,140064,1,0,0:0:0:0:
320,192,140149,1,0,0:0:0:0:
448,192,140149,1,0,0:0:0:0:
64,192,140234,1,0,0:0:0:0:
192,192,140234,1,0,0:0:0:0:
320,192,140318,1,0,0:0:0:0:
448,192,140318,1,0,0:0:0:0:
64,192,140403,1,0,0:0:0:0:
192,192,140403,1,0,0:0:0:0:
192,192,140488,1,0,0:0:0:0:
320,192,140488,1,0,0:0:0:0:
64,192,140573,1,0,0:0:0:0:
448,192,140573,1,0,0:0:0:0:
192,192,140657,1,0,0:0:0:0:
320,192,140657,1,0,0:0:0:0:
448,192,140714,1,0,0:0:0:0:
64,192,140742,1,0,0:0:0:0:
192,192,140770,1,0,0:0:0:0:
320,192,140827,1,0,0:0:0:0:
448,192,140827,1,0,0:0:0:0:
64,192,140890,1,0,0:0:0:0:
192,192,140890,1,0,0:0:0:0:
320,192,140940,1,0,0:0:0:0:
448,192,140940,1,0,0:0:0:0:
64,192,140996,1,0,0:0:0:0:
192,192,140996,1,0,0:0:0:0:
320,192,141081,1,0,0:0:0:0:
448,192,141081,1,0,0:0:0:0:
64,192,141166,1,0,0:0:0:0:
192,192,141166,1,0,0:0:0:0:
320,192,141229,1,0,0:0:0:0:
448,192,141229,1,0,0:0:0:0:
64,192,141279,1,0,0:0:0:0:
192,192,141279,1,0,0:0:0:0:
320,192,141335,1,0,0:0:0:0:
448,192,141335,1,0,0:0:0:0:
64,192,141420,1,0,0:0:0:0:
192,192,141420,1,0,0:0:0:0:
320,192,141505,1,0,0:0:0:0:
448,192,141505,1,0,0:0:0:0:
64,192,141568,1,0,0:0:0:0:
192,192,141568,1,0,0:0:0:0:
320,192,141618,1,0,0:0:0:0:
448,192,141618,1,0,0:0:0:0:
64,192,141674,1,0,0:0:0:0:
192,192,141674,1,0,0:0:0:0:
320,192,141759,1,0,0:0:0:0:
448,192,141759,1,0,0:0:0:0:
64,192,141844,1,0,0:0:0:0:
192,192,141844,1,0,0:0:0:0:
320,192,141907,1,0,0:0:0:0:
448,192,141907,1,0,0:0:0:0:
64,192,141957,1,0,0:0:0:0:
192,192,141957,1,0,0:0:0:0:
320,192,142013,1,0,0:0:0:0:
448,192,142013,1,0,0:0:0:0:
64,192,142070,1,0,0:0:0:0:
192,192,142070,1,0,0:0:0:0:
320,192,142126,1,0,0:0:0:0:
448,192,142126,1,0,0:0:0:0:
64,192,142183,1,0,0:0:0:0:
192,192,142183,1,0,0:0:0:0:
320,192,142225,1,0,0:0:0:0:
448,192,142268,1,0,0:0:0:0:
192,192,142310,1,0,0:0:0:0:
320,192,142352,1,0,0:0:0:0:
64,192,142395,1,0,0:0:0:0:
448,192,142437,1,0,0:0:0:0:
320,192,142479,1,0,0:0:0:0:
192,192,142522,1,0,0:0:0:0:
64,192,142564,1,0,0:0:0:0:
448,192,142607,1,0,0:0:0:0:
192,192,142649,1,0,0:0:0:0:
320,192,142691,1,0,0:0:0:0:
64,192,142734,1,0,0:0:0:0:
448,192,142776,1,0,0:0:0:0:
320,192,142818,1,0,0:0:0:0:
192,192,142861,1,0,0:0:0:0:
64,192,142903,1,0,0:0:0:0:
448,192,142946,1,0,0:0:0:0:
192,192,142988,1,0,0:0:0:0:
320,192,143030,1,0,0:0:0:0:
64,192,143073,1,0,0:0:0:0:
448,192,143115,1,0,0:0:0:0:
320,192,143157,1,0,0:0:0:0:
192,192,143200,1,0,0:0:0:0:
64,192,143242,1,0,0:0:0:0:
448,192,143285,1,0,0:0:0:0:
192,192,143327,1,0,0:0:0:0:
320,192,143369,1,0,0:0:0:0:
64,192,143412,1,0,0:0:0:0:
448,192,143454,1,0,0:0:0:0:
320,192,143496,1,0,0:0:0:0:
192,192,143539,1,0,0:0:0:0:
64,192,143581,1,0,0:0:0:0:
448,192,143624,1,0,0:0:0:0:
192,192,143666,1,0,0:0:0:0:
