osu file format v9

[General]
AudioFilename: Senjou no Kizuna.mp3
AudioLeadIn: 0
PreviewTime: 50800
Countdown: 1
SampleSet: Normal
StackLeniency: 0.7
Mode: 0
LetterboxInBreaks: 1

[Editor]
DistanceSpacing: 1
BeatDivisor: 4
GridSize: 4

[Metadata]
Title:Senjou no Kizuna
Artist:YuNa
Creator:Hijiri Tezuka
Version:Hatsune
Source:Secret Game CODE: Revise
Tags:flat murder game visual novel opening loli girlfriend kills herself blood everywhere Backfire

[Difficulty]
HPDrainRate:7
CircleSize:5
OverallDifficulty:7
ApproachRate:7
SliderMultiplier:1
SliderTickRate:1

[Events]
//Background and Video events
Video,0,"Secret Game CODE Revise OP HD.flv"
0,0,"CR3.jpg"
//Break Periods
2,23571,24014
2,26314,26414
2,94886,96529
//Storyboard Layer 0 (Background)
//Storyboard Layer 1 (Fail)
//Storyboard Layer 2 (Pass)
//Storyboard Layer 3 (Foreground)
//Storyboard Sound Samples
//Background Colour Transformations
3,100,255,0,0

[TimingPoints]
1429,342.857142857143,4,1,1,39,1,0
1461,-100,4,2,1,70,0,0
1686,-100,4,2,0,49,0,0
2714,-100,4,2,1,70,0,0
2886,-100,4,2,0,50,0,0
3571,-100,4,2,0,0,0,0
3743,-100,4,2,0,50,0,0
4086,-100,4,2,1,70,0,0
4257,-100,4,2,0,51,0,0
5457,-100,4,2,1,70,0,0
5629,-100,4,2,0,49,0,0
6857,-100,4,1,1,51,0,0
7020,-100,4,2,0,51,0,0
7686,-100,4,2,0,0,0,0
7857,-100,4,2,0,51,0,0
8192,-100,4,2,1,69,0,0
8371,-100,4,2,0,51,0,0
9571,-100,4,2,1,69,0,0
9743,-100,4,2,0,52,0,0
10771,-100,4,2,0,61,0,0
10943,-100,4,2,0,61,0,0
11629,-100,4,1,0,38,0,0
12314,-100,4,2,0,50,0,0
14029,-100,4,2,1,50,0,0
14543,-100,4,2,0,50,0,0
16943,-100,4,2,1,50,0,0
17114,-100,4,2,0,50,0,0
19514,-100,4,2,1,50,0,0
20029,-100,4,2,0,50,0,0
23286,-100,4,2,0,50,0,0
28086,-100,4,1,1,50,0,0
59029,-100,4,1,1,40,0,0
60486,-100,4,1,1,20,0,0
60657,-100,4,1,1,23,0,0
60829,-100,4,1,1,30,0,0
61000,-100,4,1,1,35,0,0
61171,-100,4,1,1,40,0,0
61343,-100,4,1,1,44,0,0
61514,-100,4,1,1,49,0,0
61686,-100,4,1,1,50,0,0
61776,-100,4,1,1,50,0,1
61857,-66.6666666666667,4,1,1,50,0,1
67171,-66.6666666666667,4,1,1,50,0,0
67257,-66.6666666666667,4,1,1,50,0,1
67343,-66.6666666666667,4,1,1,50,0,0
68286,-66.6666666666667,4,1,1,50,0,1
68371,-66.6666666666667,4,1,1,50,0,0
72743,-66.6666666666667,4,1,1,50,0,1
83800,-100,4,2,0,50,0,0
85343,-100,4,2,1,50,0,0
85857,-100,4,2,0,50,0,0
90829,-100,4,2,1,50,0,0
91343,-100,4,2,0,50,0,0
94086,-100,4,2,0,0,0,0
94643,-100,4,2,0,50,0,0
97514,-200,4,2,0,50,0,0
98114,-200,4,2,0,39,0,0
98800,-200,4,2,0,29,0,0
99486,-200,4,2,0,21,0,0
100171,-200,4,2,0,9,0,0
100943,-200,4,2,0,0,0,0

[Colours]
Combo1 : 0,128,0
Combo2 : 176,0,0
Combo3 : 2,2,117

[HitObjects]
96,84,1429,1,2
144,84,1600,1,2
184,112,1771,2,0,B|236:159,1,50
292,216,2286,1,0
327,251,2457,1,0
400,320,2800,1,2
350,320,2971,1,0
299,320,3143,1,0
249,320,3314,2,0,B|93:321,1,150
44,280,4171,5,2
68,252,4343,1,0
90,219,4514,1,0
128,184,4686,1,0
256,192,5029,1,0
256,192,5200,1,0
256,272,5543,1,2
256,232,5714,2,0,B|256:168,1,50
256,141,6057,1,0
256,21,6571,1,0
336,72,6914,5,2
295,72,7086,1,0
256,72,7257,1,0
215,72,7429,2,0,B|56:72,1,150
60,144,8286,1,2
60,183,8457,1,0
60,223,8629,2,0,B|60:288,1,50
132,320,9314,1,0
208,356,9657,1,2
248,351,9829,1,0
248,312,10000,1,0
248,272,10171,1,0
248,151,10514,1,0
248,151,10686,1,0
240,88,10857,5,0
240,88,11029,1,4
168,72,11286,1,4
144,144,11543,1,4
144,196,11714,1,0
144,220,11800,1,0
148,240,11886,1,0
152,260,11971,1,0
160,280,12057,1,0
168,300,12143,1,0
176,320,12229,1,0
256,328,12400,5,2
204,268,12743,1,2
223,233,12914,1,2
248,200,13086,1,0
279,176,13257,2,2,B|319:153|315:137|299:117|275:105,1,100,0|2
412,120,14114,1,2
426,134,14200,1,2
440,148,14286,1,2
452,164,14371,1,2
464,184,14457,1,2
481,277,14800,6,2,B|456:304|432:312|388:312,1,100,2|2
390,311,15486,2,2,B|328:312,1,50,0|0
340,312,15829,1,0
236,312,16171,1,2
160,260,16514,1,0
132,224,16686,1,2
132,180,16857,1,0
172,156,17029,1,2
216,144,17200,1,2
216,232,17543,1,0
216,232,17886,5,4
272,288,18229,1,2
308,272,18400,1,2
343,289,18571,1,0
388,276,18743,2,2,B|388:171,1,100
267,176,19600,1,2
246,176,19686,1,2
228,176,19771,1,2
208,176,19857,1,2
188,176,19943,1,2
88,176,20286,6,2,B|85:128|101:108|109:104|141:88,1,100,2|2
209,93,20971,1,0
248,96,21143,1,2
284,112,21314,1,0
332,180,21657,1,2
251,180,22000,1,0
216,204,22171,1,2
244,232,22343,1,0
272,260,22514,1,2
272,260,22686,1,2
356,264,23029,5,0
356,240,23114,1,0
356,220,23200,1,0
356,200,23286,1,0
356,180,23371,1,4
256,192,24914,5,0
256,192,25086,1,4
328,260,25429,1,2
292,280,25600,1,0
252,264,25771,1,2
216,284,25943,1,0
180,264,26114,1,4
316,32,27314,5,0
316,32,27486,1,4
316,32,27743,1,4
316,105,28000,1,0
316,152,28171,1,0
316,177,28257,1,0
316,196,28343,1,0
316,221,28429,1,0
316,240,28514,1,0
316,265,28600,1,0
316,288,28686,1,0
316,287,28857,5,4
235,287,29200,2,0,B|207:280|199:256|199:224|199:196,2,100,8|0|8
316,287,30229,1,0
356,276,30400,1,0
388,256,30571,2,0,B|408:228|408:204,1,50
376,136,31086,1,0
352,96,31257,1,8
352,96,31429,1,0
352,96,31600,6,0,B|236:96,1,100,8|8
204,96,32114,1,0
204,96,32286,1,8
131,96,32629,2,0,B|104:104|96:136|96:196,1,100,8|0
120,260,33314,1,8
120,260,33486,1,0
172,260,33657,1,0
256,276,34000,2,0,B|256:172,1,100,8|0
256,176,34686,6,0,B|256:68,1,100,8|0
256,76,35200,1,0
256,76,35371,1,8
352,72,35714,1,0
380,104,35886,1,0
396,148,36057,2,0,B|416:176|400:208,1,50,8|0
396,276,36571,1,0
396,276,36743,2,0,B|372:304|348:304|304:288,1,100,8|0
264,284,37257,1,0
264,284,37429,6,0,B|264:228,2,50,8|0|0
212,284,37943,1,0
156,268,38114,1,8
108,200,38457,2,0,B|98:162|102:142|110:122|122:102,2,100,8|8|8
186,198,39486,2,0,B|244:196,2,50,8|8|4
216,124,40171,5,8
216,124,40343,1,0
216,124,40514,2,0,B|217:15,1,100,0|8
216,24,41029,1,0
348,32,41371,1,0
392,72,41543,1,8
408,128,41714,1,0
372,176,41886,1,0
284,256,42229,2,0,B|256:276|236:276,1,50,8|0
184,216,42743,6,0,B|120:216,3,50,0|8|0|0
134,296,43600,1,8
134,296,43771,1,0
220,328,44114,1,0
220,328,44286,2,0,B|252:312|268:296|276:276|284:252|280:228|280:200|232:156,1,200
267,54,45658,5,8
267,54,45829,1,0
267,54,46000,2,0,B|384:54,1,100,8|0
367,54,46514,1,0
472,96,46857,1,0
480,148,47029,1,8
448,184,47200,1,0
416,228,47371,2,0,B|397:258|405:278|421:298|393:322,1,100,0|8
340,352,47886,1,0
340,352,48229,6,8,B|288:316,1,50,0|8
233,280,48743,1,0
172,332,49086,1,8
172,332,49257,1,0
104,292,49600,1,0
104,292,49771,2,0,B|104:236|104:212|104:188|104:168|104:152|108:132|120:120|140:120|160:120|184:120|224:124|260:124,1,300,8|4
260,232,51143,5,0
340,236,51486,2,0,B|408:236,1,50,8|0
470,236,52000,2,0,B|472:124,1,100,8|0
416,80,52686,1,8
368,168,53029,1,8
344,164,53114,1,0
312,152,53200,1,0
288,156,53286,1,0
264,140,53371,1,4
244,128,53457,1,0
224,112,53543,1,8
120,72,53886,6,0,B|118:180,1,100,8|0
120,212,54400,1,8
120,292,54743,2,0,B|232:294,1,100,8|0
276,237,55429,1,8
219,180,55771,1,8
232,160,55857,1,0
236,144,55943,1,0
225,121,56029,1,0
220,108,56114,1,4
228,84,56200,1,0
248,79,56286,1,0
339,108,56629,6,0,B|448:108,1,100,8|0
439,108,57143,1,0
439,188,57486,2,0,B|420:212|412:228|420:260|432:280,1,100,8|0
352,280,58171,1,8
271,280,58514,1,0
248,248,58686,1,0
212,264,58857,1,4
144,172,59200,5,0
172,108,59371,1,0
232,132,59543,1,0
304,132,59714,1,0
316,60,59886,1,0
192,28,60229,1,0
256,72,60571,5,0
256,92,60657,1,0
256,112,60743,1,0
256,132,60829,1,0
256,152,60914,1,0
256,172,61000,1,0
256,192,61086,1,0
256,212,61171,1,0
256,232,61257,1,0
260,252,61343,1,0
268,272,61429,1,0
280,288,61514,1,0
300,300,61600,1,0
320,308,61686,1,0
336,312,61771,1,4
432,248,62114,5,0
412,196,62286,1,0
388,144,62457,1,0
345,101,62629,2,0,B|184:96,1,149.999995529652
123,119,63143,2,0,B|44:168,2,74.9999977648259
92,240,63657,5,0
144,212,63829,2,0,B|176:280,1,74.9999977648259
218,237,64171,1,0
268,260,64343,1,0
268,260,64514,1,4
248,144,64857,1,0
272,88,65029,1,0
320,48,65200,1,0
376,44,65371,1,0
344,140,65543,1,0
344,140,65714,1,0
452,196,66057,21,0
396,196,66229,1,8
396,196,66400,2,0,B|312:196,1,74.9999977648259
261,196,66743,1,0
261,196,66914,1,8
200,196,67086,1,0
172,116,67257,6,4,B|156:152|140:188|148:220|156:240|164:268|176:300|200:328,1,224.999993294478,4|0
340,116,68286,6,4,B|356:152|372:188|364:220|356:240|348:268|336:300|312:328,1,224.999993294478
256,332,69143,5,0
256,272,69314,1,8
256,212,69486,1,0
256,152,69657,2,0,B|256:68,2,74.9999977648259
404,104,70343,5,0
352,132,70514,1,0
304,156,70686,1,0
240,164,70857,5,0
188,136,71029,1,0
140,100,71200,1,0
256,84,71543,1,0
256,204,71886,6,0,B|256:284,5,74.9999977648259,0|0|0|0|0|4
368,236,73086,1,0
416,272,73257,1,0
464,224,73429,1,0
412,184,73600,1,0
368,236,73771,1,0
312,236,73943,2,0,B|69:236,1,224.999993294478,0|8
76,180,74629,21,0
80,124,74800,2,0,B|88:88|128:64,1,74.9999977648259
184,56,75143,1,0
248,56,75314,1,0
312,56,75486,2,0,B|360:56|392:64|424:84|436:128,1,149.999995529652,4|8
440,184,76000,1,0
448,248,76171,1,0
416,304,76343,1,0
360,332,76514,1,0
360,332,76686,6,0,B|120:332,1,224.999993294478,0|8
103,261,77371,1,0
180,260,77543,1,0
256,256,77714,1,8
256,180,77886,1,0
256,104,78057,1,0
152,96,78229,6,4,B|117:121|113:169|125:201|197:305,1,224.999993294478,4|8
360,100,79257,6,4,B|395:125|399:173|387:205|315:309,1,224.999993294478,4|8
256,196,80114,5,0
256,196,80286,2,0,B|256:100,2,74.9999977648259
256,256,80800,1,0
256,324,80971,1,0
152,324,81314,1,0
148,260,81486,1,0
252,260,81829,2,0,B|252:104,1,149.999995529652
344,21,82514,5,0
344,21,82686,1,0
344,141,83029,2,0,B|400:156|396:176|384:200|352:264,1,149.999995529652
316,304,83543,1,0
264,304,83714,1,0
144,296,84057,5,2
144,296,84229,1,0
124,264,84400,1,2
101,231,84571,2,0,B|96:196|104:172|100:152|120:128,1,100
192,64,85429,1,2
210,54,85515,1,2
230,50,85601,1,2
250,50,85686,1,2
269,50,85771,1,2
316,132,86114,6,2,B|353:156|349:172|349:196|329:232,1,100
256,196,86800,1,2
256,196,86971,1,2
256,236,87143,1,2
172,284,87486,1,2
96,308,87829,1,2
68,280,88000,1,2
68,240,88171,1,2
96,211,88343,1,0
124,260,88514,2,0,B|148:256|176:236|188:208|192:188,1,100,2|0
48,180,89200,5,4
104,132,89543,2,2,B|156:88,1,50
175,122,89886,1,0
208,148,90057,1,2
236,176,90229,1,0
256,212,90400,1,2
304,216,90571,1,0
312,104,90914,1,2
312,104,91000,1,2
312,104,91086,1,2
312,104,91171,1,2
312,104,91257,1,2
416,56,91600,6,0,B|416:92|416:116|408:136|400:144|392:152,1,100,0|2
313,150,92286,1,0
313,150,92457,1,2
313,190,92629,1,0
312,264,92971,1,2
312,264,93143,1,4
228,260,93486,1,6
256,192,93829,1,2
256,192,94000,1,2
256,152,94171,5,0
256,132,94257,1,0
256,112,94343,1,0
256,92,94429,1,0
256,72,94514,1,0
256,52,94600,1,0
256,32,94686,1,4
56,32,97429,5,2
56,72,97600,2,0,B|56:152|56:152|420:152|420:152|424:288,1,575
