osu file format v12

[General]
AudioFilename: Secret Game.mp3
AudioLeadIn: 0
PreviewTime: 63498
Countdown: 0
SampleSet: None
StackLeniency: 0.4
Mode: 0
LetterboxInBreaks: 1

[Editor]
DistanceSpacing: 1.1
BeatDivisor: 4
GridSize: 8

[Metadata]
Title:Secret Game
TitleUnicode:
Artist:YuNa
ArtistUnicode:
Creator:antho
Version:Normal
Source:
Tags:
BeatmapID:250972
BeatmapSetID:92914

[Difficulty]
HPDrainRate:2
CircleSize:4
OverallDifficulty:3
ApproachRate:6
SliderMultiplier:1.4
SliderTickRate:2

[Events]
//Background and Video events
0,0,"2010032103031822d.jpg",0,0
//Break Periods
2,48697,53785
2,97512,109983
//Storyboard Layer 0 (Background)
//Storyboard Layer 1 (Fail)
//Storyboard Layer 2 (Pass)
//Storyboard Layer 3 (Foreground)
//Storyboard Sound Samples
//Background Colour Transformations
3,100,163,162,255

[TimingPoints]
1174,422.535211267606,4,1,0,100,1,0
63709,-100,4,1,0,100,0,1
77124,-100,4,1,0,100,0,0
77230,-100,4,1,0,100,0,1
90751,-100,4,1,0,100,0,0
96878,-100,4,1,0,5,0,0
97089,-100,4,1,0,100,0,0

[Colours]
Combo1 : 153,153,204
Combo2 : 148,241,20
Combo3 : 172,89,255
Combo4 : 255,162,255

[HitObjects]
388,71,7934,2,0,B|364:119|364:119|388:143|388:143|364:199,1,140,4|0,0:0|0:0,0:0:0:0:
368,192,8568,1,4,0:0:0:0:
464,312,8990,1,4,0:0:0:0:
312,344,9413,2,0,B|208:232|48:304,2,280,4|0|0,0:0|0:0|0:0,0:0:0:0:
384,312,11314,6,0,B|408:264|408:264|384:240|384:240|408:184,1,140,4|0,0:0|0:0,0:0:0:0:
404,191,11948,1,4,0:0:0:0:
312,64,12371,1,4,0:0:0:0:
176,136,12793,2,0,B|32:152,2,140,4|0|0,0:0|0:0|0:0,0:0:0:0:
176,136,13850,1,4,0:0:0:0:
104,272,14272,6,0,B|80:352,1,70
200,328,14695,6,0,B|272:352|338:299,1,140,4|0,0:0|0:0,0:0:0:0:
400,344,15328,1,0,0:0:0:0:
496,224,15751,1,0,0:0:0:0:
384,112,16174,1,0,0:0:0:0:
288,232,16596,1,0,0:0:0:0:
288,232,16807,2,0,B|272:304,1,70
200,336,17230,2,0,B|122:358|72:296,1,140
74,298,17864,1,0,0:0:0:0:
64,184,18075,5,0,0:0:0:0:
80,72,18392,1,0,0:0:0:0:
184,128,18709,1,0,0:0:0:0:
304,216,18920,5,0,0:0:0:0:
456,168,19237,1,0,0:0:0:0:
432,328,19554,1,0,0:0:0:0:
256,192,19765,12,8,21033,0:0:0:0:
440,104,21455,6,0,B|416:256,1,140,4|0,0:0|0:0,0:0:0:0:
418,242,22089,1,0,0:0:0:0:
288,160,22512,1,0,0:0:0:0:
232,304,22934,1,0,0:0:0:0:
160,320,23145,1,0,0:0:0:0:
88,336,23357,1,0,0:0:0:0:
16,200,23779,1,0,0:0:0:0:
72,56,24202,1,0,0:0:0:0:
192,152,24624,1,0,0:0:0:0:
248,208,24835,6,0,B|424:249|504:112,2,280
192,152,26737,1,0,0:0:0:0:
192,152,26948,1,0,0:0:0:0:
136,200,27159,2,0,B|112:272,1,70
40,296,27582,2,0,B|112:280|176:344,1,140
248,320,28216,6,0,B|312:264|248:192|304:120,1,210
440,64,29272,1,0,0:0:0:0:
472,216,29695,1,0,0:0:0:0:
400,192,29906,1,0,0:0:0:0:
328,168,30117,1,0,0:0:0:0:
232,48,30540,1,0,0:0:0:0:
192,200,30962,1,0,0:0:0:0:
96,80,31385,1,0,0:0:0:0:
32,128,31596,6,0,B|56:360,1,210
53,336,32441,1,0,0:0:0:0:
208,360,32864,1,0,0:0:0:0:
264,304,33075,1,0,0:0:0:0:
216,240,33286,2,0,B|200:168,1,70
152,112,33709,2,0,B|168:184,1,70
40,272,34343,1,0,0:0:0:0:
88,336,34554,2,0,B|168:368|240:304,1,140,0|4,0:0|0:0,0:0:0:0:
376,344,35399,5,0,0:0:0:0:
376,344,35610,1,0,0:0:0:0:
488,240,36033,1,0,0:0:0:0:
376,344,36455,1,0,0:0:0:0:
224,320,36878,1,0,0:0:0:0:
160,280,37089,1,0,0:0:0:0:
120,344,37300,1,0,0:0:0:0:
8,232,37723,1,0,0:0:0:0:
88,96,38145,1,0,0:0:0:0:
88,96,38357,6,0,B|384:80,2,280
56,168,40258,1,0,0:0:0:0:
56,168,40469,1,0,0:0:0:0:
128,200,40681,2,0,B|216:176,1,70
232,112,41103,2,0,B|216:184|264:248,1,140
248,320,41737,6,0,B|176:384|104:320|32:376,1,210
160,264,42793,1,0,0:0:0:0:
288,344,43216,1,0,0:0:0:0:
360,360,43427,1,0,0:0:0:0:
416,312,43638,1,0,0:0:0:0:
464,168,44061,1,0,0:0:0:0:
312,208,44483,1,0,0:0:0:0:
336,56,44906,1,0,0:0:0:0:
280,112,45117,6,0,B|160:144|96:48,1,210
96,48,45962,1,0,0:0:0:0:
64,200,46385,2,0,B|80:296,1,70
136,312,46807,6,0,B|0:328,2,105
208,272,47652,2,0,B|72:288,2,105
208,272,48497,1,4,0:0:0:0:
56,120,54835,5,0,0:0:0:0:
56,120,55258,2,0,B|170:157|257:76,1,210,4|0,0:0|0:0,0:0:0:0:
384,160,56314,5,0,0:0:0:0:
416,232,56526,1,0,0:0:0:0:
480,184,56737,1,0,0:0:0:0:
416,232,56948,2,0,B|302:269|215:188,1,210,0|0,0:0|0:0,0:0:0:0:
96,280,58004,5,0,0:0:0:0:
152,336,58216,2,0,B|232:360|296:312,1,140,0|4,0:0|0:0,0:0:0:0:
360,344,58850,5,0,0:0:0:0:
432,312,59061,1,0,0:0:0:0:
360,344,59272,1,0,0:0:0:0:
432,312,59483,1,0,0:0:0:0:
280,288,59906,1,0,0:0:0:0:
248,216,60117,1,0,0:0:0:0:
256,192,60328,12,4,62019,0:0:0:0:
256,192,62124,12,4,63286,0:0:0:0:
64,304,63709,6,0,B|24:240|24:240|48:96,2,210,4|0|0,0:0|0:0|0:0,0:0:0:0:
136,336,65188,2,0,B|288:344,1,140
336,296,65821,1,0,0:0:0:0:
408,328,66033,1,0,0:0:0:0:
464,272,66244,2,0,B|480:200,1,70
472,128,66666,2,0,B|456:200,1,70
384,224,67089,6,0,B|333:178|346:91,1,140
400,40,67723,1,0,0:0:0:0:
448,184,68145,1,0,0:0:0:0:
296,152,68568,1,0,0:0:0:0:
184,48,68990,1,0,0:0:0:0:
128,104,69202,1,0,0:0:0:0:
56,72,69413,1,0,0:0:0:0:
128,104,69624,2,0,B|152:176|128:248,2,140,0|0|4,0:0|0:0|0:0,0:0:0:0:
40,232,70892,5,0,0:0:0:0:
40,232,71103,1,0,0:0:0:0:
144,344,71526,1,0,0:0:0:0:
288,304,71948,2,0,B|448:328,1,140
488,272,72582,1,0,0:0:0:0:
456,200,72793,1,0,0:0:0:0:
376,208,73004,1,0,0:0:0:0:
328,144,73216,1,0,0:0:0:0:
360,72,73427,1,0,0:0:0:0:
440,64,73638,1,0,0:0:0:0:
488,128,73850,6,0,B|464:280,1,140
466,266,74483,1,0,0:0:0:0:
328,344,74906,1,0,0:0:0:0:
466,266,75328,1,0,0:0:0:0:
328,344,75751,1,0,0:0:0:0:
256,312,75962,6,0,B|232:224,1,70
168,280,76385,2,0,B|144:192,1,70
80,248,76807,2,0,B|56:160,1,70
8,128,77230,6,0,B|128:160|216:72,2,210,4|0|0,0:0|0:0|0:0,0:0:0:0:
8,128,78709,1,0,0:0:0:0:
136,48,79131,1,0,0:0:0:0:
104,200,79554,1,0,0:0:0:0:
232,120,79976,1,0,0:0:0:0:
232,120,80188,1,0,0:0:0:0:
272,56,80399,1,0,0:0:0:0:
336,104,80610,6,0,B|416:128|480:56,1,140
465,71,81244,1,0,0:0:0:0:
320,24,81666,1,0,0:0:0:0:
184,96,82089,1,0,0:0:0:0:
32,72,82512,1,0,0:0:0:0:
48,144,82723,1,0,0:0:0:0:
64,216,82934,1,0,0:0:0:0:
136,240,83145,2,0,B|160:88,2,140,0|0|4,0:0|0:0|0:0,0:0:0:0:
24,144,84413,5,0,0:0:0:0:
24,144,84624,1,0,0:0:0:0:
144,48,85047,1,0,0:0:0:0:
216,184,85469,2,0,B|184:328,1,140
112,344,86103,1,0,0:0:0:0:
112,344,86314,1,0,0:0:0:0:
48,296,86526,1,0,0:0:0:0:
48,296,86737,1,0,0:0:0:0:
80,224,86948,1,0,0:0:0:0:
80,224,87159,1,0,0:0:0:0:
144,272,87371,6,0,B|187:221|164:137,1,140
164,139,88004,1,0,0:0:0:0:
8,88,88427,1,0,0:0:0:0:
164,139,88850,1,0,0:0:0:0:
8,88,89272,1,0,0:0:0:0:
72,128,89483,6,0,B|160:104,1,70
152,184,89906,2,0,B|240:160,1,70
232,240,90328,2,0,B|320:216,1,70
360,272,90751,6,0,B|424:216|360:144|416:72,2,210,4|0|0,0:0|0:0|0:0,0:0:0:0:
360,272,92441,1,0,0:0:0:0:
224,344,92864,1,0,0:0:0:0:
200,192,93286,1,0,0:0:0:0:
224,344,93709,1,0,0:0:0:0:
72,312,94131,6,0,B|-5:229|59:116,1,210
256,192,94976,12,4,95821,0:0:0:0:
256,200,96138,5,4,0:0:0:0:
256,200,96455,1,4,0:0:0:0:
408,240,96878,6,0,B|392:320,1,70,0|8,0:0|0:0,0:0:0:0:
256,192,111033,5,0,0:0:0:0:
