osu file format v9

[General]
AudioFilename: Yunaaa.mp3
AudioLeadIn: 0
PreviewTime: 26045
Countdown: 1
SampleSet: Soft
StackLeniency: 0.7
Mode: 0
LetterboxInBreaks: 1

[Editor]
Bookmarks: 5552,19074,46116,95130,101890
DistanceSpacing: 1
BeatDivisor: 4
GridSize: 8

[Metadata]
Title:Secret Game
Artist:YuNa
Creator:Teras
Version:Killer Queen
Source:SecretGame -KILLER QUEEN-
Tags:PS2 Horror Nekoo[] roflninja

[Difficulty]
HPDrainRate:7
CircleSize:4
OverallDifficulty:7
ApproachRate:8
SliderMultiplier:1.6
SliderTickRate:1

[Events]
//Background and Video events
0,0,"SGDE_kabegami01_SD.jpg"
Video,0,"Killer queen PS2 OP_wmv2.avi"
//Break Periods
2,13990,14942
//Storyboard Layer 0 (Background)
//Storyboard Layer 1 (Fail)
//Storyboard Layer 2 (Pass)
//Storyboard Layer 3 (Foreground)
//Storyboard Sound Samples
//Background Colour Transformations
3,100,163,162,255

[TimingPoints]
12312,422.535211267606,4,2,0,59,1,0
25304,-100,4,2,1,59,0,0
25516,-100,4,2,0,59,0,0
68088,-100,4,1,0,47,0,1
95130,-100,4,2,0,60,0,0
100200,-100,4,1,0,60,0,0
101890,-100,4,1,0,61,0,1
101996,-100,4,2,0,100,0,0

[HitObjects]
80,80,12311,2,0,B|336:80,1,240,0|0
424,296,13368,1,0
184,296,13790,1,4
40,192,15692,6,0,B|88:104|264:104,1,240,4|2
464,224,16748,1,0
248,328,17171,2,0,B|0:328|0:328,1,240,4|0
336,192,18227,5,4
96,192,18650,1,4
16,128,19072,6,0,B|88:80|176:80,1,160,4|8
224,128,19706,1,0
296,128,19917,1,0
344,184,20128,1,0
296,240,20340,1,8
392,320,20551,6,0,B|320:360|224:344,1,160
160,328,21185,1,8
192,256,21396,1,0
192,256,21502,1,0
192,256,21607,1,0
128,216,21819,1,0
152,144,22030,2,0,B|224:112|320:128,1,160,8|4
424,192,22875,5,8
384,256,23086,1,0
424,320,23297,2,0,B|336:344|264:320,1,160,0|8
240,248,23931,1,0
184,296,24142,5,4
136,72,24459,1,4
384,192,24776,1,4
40,312,25410,6,0,B|208:312,1,160,8|4
256,256,26044,5,0
328,256,26255,1,8
400,256,26466,2,0,B|432:192|376:152,1,80
328,160,26889,2,0,B|320:112|344:80,1,80,0|8
272,48,27311,1,0
272,48,27417,2,0,B|80:120,1,200,2|8
136,184,28157,2,0,B|192:184,2,40
88,240,28579,1,8
128,304,28790,1,8
200,304,29002,1,0
272,304,29213,6,0,B|368:304|424:232,2,160,0|8|0
224,248,30269,1,0
152,248,30481,1,8
104,192,30692,1,0
104,192,30797,2,0,B|106:72|236:72,1,200,0|8
286,131,31537,2,0,B|286:187,2,40
342,74,31959,1,8
401,127,32171,1,8
475,99,32382,1,0
475,99,32488,1,0
475,99,32593,1,4
320,248,32804,5,0
288,321,33016,1,8
217,282,33227,1,0
154,332,33438,1,0
100,272,33650,1,0
136,192,33861,1,8
136,192,34072,1,0
139,193,34178,2,0,B|241:225|347:149,1,200,2|8
304,64,34917,1,0
280,72,35023,1,0
256,64,35128,1,0
184,96,35340,1,8
112,64,35551,2,0,B|48:120|48:216,1,160,8|4
112,240,36185,5,0
152,304,36396,1,8
224,272,36607,1,0
280,329,36819,2,0,B|329:340|344:281,1,80
352,216,37241,1,8
427,190,37452,1,0
428,191,37558,1,0
168,48,38086,5,8
112,112,38297,1,0
112,112,38403,1,0
112,112,38509,1,0
160,184,38720,1,8
160,184,38931,1,8
437,335,39354,6,0,B|270:344|285:167,1,240,4|0
357,195,40199,1,0
400,136,40410,1,0
360,72,40621,1,8
360,72,40727,1,0
360,72,40833,2,0,B|272:48|248:48,1,80,0|2
224,104,41255,2,0,B|184:160|120:120,1,80,0|8
80,112,41678,2,0,B|56:64,2,40
88,192,42100,2,0,B|120:272,1,80,2|8
184,304,42523,1,8
256,320,42734,6,0,B|352:304|400:216,1,160,4|8
400,168,43368,2,0,B|400:120|360:80,1,80
304,64,43790,1,0
232,88,44002,1,0
168,48,44213,1,0
168,48,44319,2,0,B|80:56|24:136|40:200,1,200,4|8
88,232,45058,1,0
88,232,45164,1,0
88,232,45269,1,0
160,264,45481,2,8,B|208:248|240:296,1,80,8|8
304,248,45903,1,0
336,232,46009,1,8
358,198,46114,5,4
369,113,46326,1,0
299,67,46537,1,8
219,74,46748,1,0
219,74,46854,2,0,B|171:90|171:146,1,80
172,132,47171,1,0
161,211,47382,2,0,B|160:274|235:330,1,120,8|0
297,334,47804,2,0,B|343:256|473:292,1,160,0|8
424,168,48438,5,0
408,160,48544,1,0
392,152,48650,1,0
376,144,48755,1,0
360,136,48861,1,0
344,128,48966,1,0
328,120,49072,1,8
256,64,49283,1,8
184,112,49495,6,4,B|46:129|34:274,1,240,4|0
112,296,50340,1,0
176,264,50551,1,0
240,296,50762,1,0
304,264,50973,1,0
304,264,51079,1,0
304,264,51185,1,4
400,80,51502,5,0
152,80,51819,1,0
96,136,52030,1,4
192,312,52347,1,4
192,312,52452,1,0
272,320,52664,5,0
302,310,52769,1,0
332,299,52875,2,0,B|444:307|452:195,1,160,4|0
400,160,53509,1,0
368,136,53614,2,0,B|152:136,1,200,0|8
112,192,54354,5,0
112,192,54459,1,0
112,192,54565,1,0
152,264,54776,1,0
227,235,54988,1,0
301,263,55199,1,0
306,342,55410,2,4,B|225:368|137:336,1,160,4|4
80,280,56044,5,0
80,280,56150,1,0
80,280,56255,2,0,B|80:112,1,160,4|0
128,64,56889,1,0
160,88,56995,2,0,B|360:88,1,200
440,80,57734,6,0,B|496:80,2,40
424,160,58157,2,0,B|368:160,2,40
424,240,58579,1,0
424,240,58685,2,0,B|344:304|208:304,1,200,4|4
176,256,59424,5,0
104,256,59635,2,0,B|32:200|32:200|32:48,1,240,4|0
256,56,60692,1,0
320,96,60903,1,2
392,96,61114,1,8
448,152,61326,2,0,B|368:207|368:207|369:349,1,240,4|0
369,350,62171,1,0
192,216,62593,2,0,B|96:216|56:120,1,160,0|4
104,72,63227,5,0
183,77,63438,1,0
248,120,63650,1,0
304,176,63861,2,0,B|480:176,1,160,4|4
256,192,64495,12,4,68086
256,80,68509,5,0
256,80,68720,1,0
56,200,69142,1,0
256,328,69565,2,0,B|360:320|424:240,1,160,4|0
384,192,70199,1,8
432,128,70410,1,0
432,128,70516,1,0
432,128,70621,1,0
384,64,70833,1,8
336,128,71044,2,0,B|240:128,1,80,8|0
200,64,71466,6,0,B|112:64|48:152,1,160,4|0
112,192,72100,1,0
184,192,72312,1,0
232,248,72523,2,0,B|336:248,1,80
368,304,72945,2,0,B|480:184|480:184|376:48,1,320
384,58,74002,1,4
384,58,74424,1,4
384,58,74635,5,0
384,58,74741,1,0
384,58,74847,1,4
320,104,75058,1,0
256,152,75269,2,0,B|152:152,1,80,8|0
112,200,75692,1,0
64,272,75903,2,0,B|152:272,1,80,0|8
208,224,76326,2,0,B|325:269|451:220,1,240,0|8
440,136,77171,2,0,B|504:136,2,40
384,72,77593,1,8
304,72,77804,1,8
224,72,78016,6,0,B|224:16,2,40
168,128,78438,1,0
112,184,78650,1,8
64,248,78861,2,0,B|240:248,1,160
424,312,79706,1,0
336,128,80128,1,0
336,128,80340,2,0,B|168:128,1,160,4|0
112,160,80973,5,0
72,224,81185,1,0
112,288,81396,1,0
152,224,81607,2,0,B|320:224,1,160,4|0
384,224,82241,2,0,B|456:224|456:168,1,80
424,120,82664,1,0
424,120,82769,1,0
424,120,82875,1,0
368,64,83086,2,0,B|184:64,1,160
208,64,83720,1,8
152,128,83931,2,0,B|88:104,2,40
104,200,84354,2,8,B|104:288,1,80
184,320,84776,5,0
216,320,84882,1,0
248,320,84988,2,0,B|344:320|440:320,1,160,4|0
464,256,85621,2,0,B|280:256,1,160
224,72,86466,2,0,B|392:72,1,160
432,128,87100,1,0
384,184,87312,1,0
336,240,87523,1,0
256,240,87734,1,0
256,240,87840,1,0
256,240,87945,1,0
192,288,88157,5,0
192,288,88262,1,0
192,288,88368,2,0,B|88:288|72:200,1,160
128,144,89002,1,0
256,48,89424,2,0,B|424:48,1,160
392,192,90269,5,0
360,192,90375,1,0
328,192,90481,1,8
368,272,90692,1,0
336,272,90797,1,0
304,272,90903,1,0
224,256,91114,1,0
144,256,91326,1,8
88,192,91537,5,0
88,192,91642,1,0
88,192,91748,2,0,B|192:192|192:96,1,160
272,48,92382,2,0,B|368:48,1,80
424,88,92804,2,0,B|472:88|472:160,1,80
408,192,93227,2,0,B|240:192,1,160
248,192,93861,1,0
160,272,94178,5,0
272,304,94495,1,0
336,216,94706,1,0
336,216,94811,1,0
336,216,94917,1,0
336,216,95023,1,0
336,216,95128,1,4
408,168,95340,6,0,B|408:96|336:96,1,80,0|8
296,128,95762,2,0,B|192:128,1,80,0|0
176,48,96185,2,0,B|104:48|80:104,1,80,0|8
56,192,96819,5,4
256,328,97241,1,4
456,192,97664,1,4
256,56,98086,1,4
91,302,98509,6,0,B|91:238|135:198|227:214,1,160,4|8
256,256,99142,1,0
312,208,99354,2,0,B|408:208|456:144|456:104,1,160,0|8
208,56,100199,5,0
40,192,100516,1,0
208,328,100833,1,0
472,192,101466,1,8
40,192,101889,1,4
