osu file format v7

[General]
AudioFilename: Game OP audio.mp3
AudioLeadIn: 0
PreviewTime: 73566
Countdown: 1
SampleSet: Normal
StackLeniency: 0.7
Mode: 0
LetterboxInBreaks: 1

[Editor]
Bookmarks: 90740,106609,117914
DistanceSpacing: 0.5
BeatDivisor: 2
GridSize: 8

[Metadata]
Title:Causal Chain
Artist:YuNa
Creator:Teras
Version:Protector
Source:Utatemeguri
Tags:Preview Flat Visual Novel Oyashiro Beatrice Nekoo[]

[Difficulty]
HPDrainRate:2
CircleSize:3
OverallDifficulty:1
SliderMultiplier:1.4
SliderTickRate:1

[Events]
//Background and Video events
0,0,"1536flat302pl.jpg"
Video,0,"PV_one_wmv2(2).avi"
//Break Periods
//Storyboard Layer 0 (Background)
//Storyboard Layer 1 (Fail)
//Storyboard Layer 2 (Pass)
//Storyboard Layer 3 (Foreground)
//Storyboard Sound Samples
//Background Colour Transformations
3,100,163,162,255

[TimingPoints]
16171,434.782608695652,4,1,0,60,1,0
71935,-100,4,1,0,40,0,0
73566,-100,4,1,0,60,0,1
103131,-100,4,1,0,60,0,0

[HitObjects]
256,192,30084,2,0,B|256:40,1,140
424,64,31388,1,0
424,232,32257,1,0
352,88,33127,5,0
256,136,33562,2,0,B|136:256,1,140,4|0
312,312,34866,1,0
424,184,35736,1,0
272,104,36605,5,0
200,128,37040,2,0,B|200:296,1,140,4|0
48,344,38344,1,0
192,256,39214,1,0
360,280,40084,5,0
280,312,40518,2,0,L|208:224|192:176,1,140,4|0
96,112,41823,1,0
80,248,42692,1,0
224,248,43562,5,0
264,304,43997,2,4,B|344:272,2,70
384,232,45301,1,0
296,128,46171,1,0
160,120,47040,5,0
88,128,47475,2,4,B|88:208,2,70
176,240,48779,1,0
304,296,49649,1,0
312,160,50518,5,0
312,88,50953,2,4,B|240:96,2,70
184,144,52257,1,0
176,280,53127,1,0
304,336,53997,5,0
352,288,54431,2,4,B|424:208,2,70
368,152,55736,1,0
232,112,56605,1,0
144,224,57475,1,0
280,192,58344,5,10
328,248,58779,1,10
368,304,59214,1,10
232,344,60084,1,0
168,312,60518,1,4
80,208,61388,6,4,B|184:112,1,140
272,200,62692,1,0
384,288,63562,1,0
248,320,64431,6,4,B|112:208,2,140
264,184,66170,1,0
128,144,67040,1,0
112,280,67910,1,0
200,168,68779,6,0,B|384:168,2,140
192,240,70084,1,0
128,216,70518,1,4
96,152,70953,1,4
72,88,71388,1,4
256,192,71823,12,8,73562
216,88,74431,5,0
328,176,75301,1,0
240,280,76170,2,0,B|168:176,2,70
128,200,77475,1,0
208,80,78344,5,0
344,112,79214,2,0,B|280:200,2,70
344,256,80518,5,0
208,216,81388,1,0
72,208,82257,2,0,B|72:112|104:56,1,140
160,48,83127,1,0
248,160,83997,5,0
160,272,84866,1,0
56,184,85736,2,0,B|160:48,1,140,0|4
208,72,86605,5,12
296,176,87475,1,0
168,232,88344,1,0
80,336,89214,2,0,B|184:320,2,70
128,280,90084,1,0
248,216,90953,5,0
392,216,91823,1,0
384,288,92257,2,0,B|336:344|240:336,1,140
128,312,93562,1,0
200,192,94431,5,0
96,96,95301,1,0
72,232,96170,2,0,B|80:328|184:336,2,140
136,256,97475,1,0
168,192,97910,6,0,B|168:72|280:88,2,140
240,184,99214,1,0
232,256,99649,1,0
176,304,100084,2,0,B|24:296|48:88,2,280
256,288,102257,1,0
328,280,102692,1,0
256,192,103127,12,0,106605
176,104,107475,6,0,B|256:72|352:120,1,140
336,168,108344,1,0
384,216,108779,1,0
376,288,109214,2,0,B|256:360|184:336,1,140
200,288,110084,5,0
152,240,110518,1,0
104,184,110953,2,0,B|80:104|184:64,1,140
232,72,111823,1,0
296,88,112257,5,0
360,104,112692,2,0,B|368:264,1,140
328,304,113562,1,0
256,304,113997,1,0
184,304,114431,6,0,B|88:312|64:240,1,140
80,176,115301,1,0
112,112,115736,2,0,B|296:112,1,140
256,112,116605,1,0
256,112,117040,6,0,B|256:192,4,70
