osu file format v7

[General]
AudioFilename: Game OP audio.mp3
AudioLeadIn: 0
PreviewTime: 73566
Countdown: 1
SampleSet: Normal
StackLeniency: 0.7
Mode: 0
LetterboxInBreaks: 1

[Editor]
Bookmarks: 30084,106609,117914
DistanceSpacing: 0.800000011920929
BeatDivisor: 4
GridSize: 8

[Metadata]
Title:Causal Chain
Artist:YuNa
Creator:Teras
Version:Monster
Source:Utatemeguri
Tags:Preview Flat Visual Novel Oyashiro Beatrice Nekoo[]

[Difficulty]
HPDrainRate:7
CircleSize:5
OverallDifficulty:7
SliderMultiplier:1.4
SliderTickRate:1

[Events]
//Background and Video events
0,0,"1536flat302pl.jpg"
Video,0,"PV_one_wmv2(2).avi"
//Break Periods
2,106809,110926
//Storyboard Layer 0 (Background)
//Storyboard Layer 1 (Fail)
//Storyboard Layer 2 (Pass)
//Storyboard Layer 3 (Foreground)
//Storyboard Sound Samples
//Background Colour Transformations
3,100,163,162,255

[TimingPoints]
16171,434.782608695652,4,1,0,60,1,0
71935,-100,4,1,0,40,0,0
73566,-100,4,1,0,60,0,1
103131,-100,4,1,0,60,0,0
117044,-100,4,2,0,72,0,0
117696,-100,4,2,0,72,0,1
117805,-100,4,2,0,72,0,0

[HitObjects]
64,72,29866,1,0
88,72,29975,1,0
112,72,30087,2,0,B|272:72,1,140
312,112,30739,1,0
280,176,30956,1,0
208,176,31174,1,0
136,176,31391,1,0
80,224,31609,2,0,B|80:304|128:304,1,70
112,296,31935,1,0
128,296,32043,1,0
200,296,32261,2,0,B|352:296,1,140
256,160,33348,5,0
256,160,33456,1,0
256,160,33565,2,0,B|408:160,1,140
440,104,34217,1,0
392,48,34435,1,0
360,48,34543,1,0
328,72,34652,2,0,B|240:72,1,70
192,104,35087,1,4
128,144,35304,2,0,B|56:144|56:248,1,140,0|0
120,264,35956,1,0
176,304,36174,1,4
296,184,36826,5,0
280,128,37043,1,0
216,96,37261,1,0
200,96,37369,1,0
184,96,37478,1,0
96,136,37696,2,0,B|184:136|144:192,1,70
156,159,38130,1,0
156,159,38239,1,0
32,248,38565,2,0,B|88:304|112:304,1,70
152,296,39000,1,0
152,296,39217,1,0
224,296,39435,1,0
296,296,39652,2,0,B|464:296,1,140
472,192,40304,5,0
472,192,40413,1,0
472,192,40522,2,0,B|312:192,1,140
288,128,41174,1,0
240,72,41391,2,0,B|160:72,1,70
152,72,41717,1,0
152,72,42043,1,0
96,120,42261,2,0,B|96:216|200:216,1,140
248,216,42913,1,0
320,216,43130,2,0,B|320:304|192:304,1,140
152,224,43783,5,0
136,224,43891,1,0
120,224,44000,1,0
64,168,44217,1,0
136,168,44435,2,0,B|224:168|192:120,1,70
264,144,44869,1,0
336,144,45087,1,0
336,144,45196,1,0
464,296,45522,2,0,B|400:328|368:320,1,70,0|0
344,272,45956,1,0
280,296,46174,1,0
216,320,46391,1,0
152,344,46609,2,0,B|48:344|48:240,1,140,8|0
48,160,47261,6,0,B|0:160,2,35
112,200,47696,1,0
176,160,47913,1,0
240,200,48130,1,0
304,160,48348,2,0,B|384:160,1,70
400,128,48674,2,0,B|480:128|480:64,1,105
416,32,49217,2,0,B|256:32,1,140
276,32,49869,1,0
224,80,50087,2,0,B|128:80|128:184,1,140,2|0
192,240,50739,6,0,B|272:240,1,70
224,320,51174,2,0,B|144:320,1,70
104,264,51609,1,0
48,208,51826,1,0
104,160,52043,1,0
104,160,52152,1,0
256,48,52478,2,0,B|320:48|312:112,1,70
384,88,52913,1,0
336,144,53130,1,0
264,144,53348,1,0
216,208,53565,2,0,B|216:304|320:304,1,140,8|4
376,256,54217,5,0
384,240,54326,1,0
392,224,54435,1,0
448,176,54652,2,0,B|480:136|440:104,1,70
376,120,55087,2,0,B|336:96|296:96,1,70
248,128,55522,1,0
184,104,55739,1,0
120,128,55956,1,0
184,176,56174,2,0,B|168:248|256:288,1,140
320,288,56826,1,2
320,288,57043,1,8
464,48,57913,6,0,B|328:48|280:88|208:88|160:48|40:48,1,420,4|8
112,136,59435,1,8
208,192,59652,2,4,B|320:192|344:248|344:248|408:248,2,210
144,192,61174,1,8
96,240,61391,1,8
256,320,61826,6,8,B|344:320|368:248,1,140,8|4
416,200,62478,1,0
384,136,62696,1,8
352,72,62913,1,8
280,72,63130,2,8,B|128:72,1,140,4|8
48,192,64000,1,2
48,264,64217,1,0
112,304,64435,1,8
184,304,64652,1,8
248,272,64869,2,0,B|248:192,2,70
448,272,65739,6,0,B|472:208|448:120,1,140
400,88,66391,1,0
328,144,66609,2,0,B|264:120|176:120,1,140,0|0
72,56,67478,1,0
32,120,67696,1,0
72,184,67913,1,0
32,248,68130,1,0
80,304,68344,2,0,B|224:304,1,140,0|0
288,304,68997,1,0
328,264,69217,2,0,B|176:264,1,140,0|0
144,208,69869,1,4
216,208,70087,1,4
256,192,70196,12,0,71826
256,256,72043,5,0
280,232,72152,1,0
296,208,72261,1,0
304,184,72370,1,0
296,152,72478,1,0
280,128,72587,1,0
264,112,72696,1,12
80,192,73130,1,12
256,336,73565,5,4
336,336,73783,1,0
368,264,74000,1,0
320,200,74217,1,0
320,200,74326,1,0
408,80,74652,2,0,B|304:80,1,70,0|0
264,80,75087,1,0
216,32,75304,2,0,B|128:32|80:88,1,140
48,136,75956,1,0
32,160,76065,1,0
24,184,76174,1,0
24,256,76391,2,0,B|120:256,1,70,8|8
176,320,76826,5,0
208,320,76935,1,0
240,320,77043,1,0
288,264,77257,2,0,B|368:264,1,70,0|8
424,224,77696,1,0
424,224,77804,1,0
424,224,77913,1,0
480,168,78130,2,0,B|480:104|440:96,1,70,0|8
408,56,78565,1,0
336,56,78783,1,4
256,240,79435,2,0,B|168:240,1,70
120,240,79866,1,8
144,168,80087,2,8,B|74:168,2,70,8|0|8
320,168,80956,6,0,B|472:168,1,140
480,104,81609,1,0
432,56,81826,1,0
360,56,82043,1,0
304,104,82261,2,0,B|232:128|152:112,1,140,8|0
112,72,82913,1,0
48,104,83130,2,0,B|48:192|152:192,1,140,4|0
208,192,83783,5,0
208,224,83891,1,0
208,256,84000,2,0,B|232:288|304:336|352:320,1,140,8|0
392,288,84652,1,0
448,240,84870,1,2
448,168,85084,1,0
448,168,85196,1,2
312,64,85522,1,0
312,64,85739,2,0,B|256:40|168:32,1,140,4|0
48,192,86609,6,0,B|48:312|136:312,1,140
176,312,87261,1,0
208,312,87370,1,0
240,312,87478,1,2
296,264,87696,1,0
368,264,87913,1,0
432,224,88130,1,2
432,224,88239,1,2
376,104,88565,1,4
304,104,88783,1,4
240,144,89000,1,2
184,96,89217,2,4,B|184:24|296:24,1,140,2|8
352,48,89870,2,0,B|352:96,2,35
424,64,90304,1,2
456,128,90522,1,8
456,128,90739,5,8
456,208,90956,1,0
392,240,91174,1,0
360,240,91283,1,8
256,136,91497,1,0
256,136,91609,1,0
192,88,91826,2,8,B|112:88,1,70
56,152,92261,2,0,B|72:208|136:184,1,70
112,264,92696,2,0,B|272:264,1,140,8|0
296,208,93348,1,0
352,256,93565,2,0,B|352:328|240:328,1,140
160,280,94217,5,8
128,280,94326,1,0
96,280,94435,1,8
48,216,94652,1,0
96,160,94870,1,8
168,160,95087,2,0,B|232:160|248:120,1,70
232,64,95522,2,4,B|272:48|304:56,1,70,4|12
368,88,95956,1,8
352,160,96174,2,2,B|352:320,1,140,2|4
352,300,96826,1,0
353,300,97043,1,0
96,192,97696,5,0
96,192,97804,1,0
96,192,97913,2,0,B|248:192,1,140
288,136,98565,1,0
336,192,98783,2,0,B|456:192|456:256,1,140,0|0
408,296,99435,1,0
344,328,99652,1,0
280,304,99870,1,0
280,304,99978,2,0,B|200:312|184:232,1,105
192,192,100522,5,8
328,72,100848,1,8
456,192,101174,1,8
456,192,101283,1,0
456,192,101391,1,8
328,320,101717,1,8
120,272,102043,5,0
80,208,102261,1,0
120,144,102478,1,0
192,144,102696,2,0,B|232:216|232:216|232:224,1,70
192,272,103130,1,4
256,192,103239,12,4,106609
144,232,111826,5,4
144,232,111935,1,0
144,232,112043,1,8
192,304,112261,1,0
216,304,112370,1,0
344,224,112696,2,0,B|400:224,3,35
440,224,113239,1,0
440,224,113348,1,4
440,144,113565,5,0
392,88,113783,1,0
320,88,114000,1,0
256,40,114217,2,0,B|144:40|144:136,1,140
146,107,114870,1,0
146,107,115087,1,4
146,107,115304,5,4
32,240,115630,1,8
184,304,115956,1,8
216,304,116065,1,0
248,304,116174,1,8
320,304,116391,1,4
392,248,116609,2,0,B|336:248,2,35
408,184,117043,5,8
256,56,117261,1,0
104,184,117478,1,0
256,336,117696,1,4
