osu file format v7

[General]
AudioFilename: Game OP audio.mp3
AudioLeadIn: 0
PreviewTime: 73566
Countdown: 1
SampleSet: Soft
StackLeniency: 0.7
Mode: 0
LetterboxInBreaks: 1

[Editor]
Bookmarks: 106609,117914
DistanceSpacing: 0.800000011920929
BeatDivisor: 4
GridSize: 8

[Metadata]
Title:Causal Chain
Artist:YuNa
Creator:Teras
Version:Human
Source:Utatemeguri
Tags:Preview Flat Visual Novel Oyashiro Beatrice Nekoo[]

[Difficulty]
HPDrainRate:0
CircleSize:4
OverallDifficulty:0
SliderMultiplier:1.4
SliderTickRate:1

[Events]
//Background and Video events
0,0,"1536flat302pl.jpg"
Video,0,"PV_one_wmv2(2).avi"
//Break Periods
2,58110,68284
//Storyboard Layer 0 (Background)
//Storyboard Layer 1 (Fail)
//Storyboard Layer 2 (Pass)
//Storyboard Layer 3 (Foreground)
//Storyboard Sound Samples
//Background Colour Transformations
3,100,163,162,255

[TimingPoints]
16171,434.782608695652,4,1,0,60,1,0
71935,-100,4,1,0,40,0,0
73566,-100,4,1,0,60,0,1
103131,-100,4,1,0,60,0,0
117044,-100,4,2,0,72,0,0
117696,-100,4,2,0,72,0,1
117805,-100,4,2,0,72,0,0

[HitObjects]
80,72,30084,2,0,B|240:72,1,140
296,64,30953,1,0
368,64,31388,1,0
440,64,31823,1,0
440,136,32257,2,0,B|344:136,2,70
344,312,33562,6,0,B|192:320|176:288,1,140
144,248,34431,1,0
144,176,34866,1,0
224,176,35301,2,0,B|400:176,1,140,4|0
440,176,36170,2,0,B|440:304|216:304,1,280,0|8
120,240,37475,5,0
120,168,37910,2,0,B|128:88|224:88,1,140
288,88,38779,2,8,B|288:240,1,140,8|0
288,296,39649,2,0,B|384:304|416:216,1,140,4|0
400,168,40518,6,0,B|512:176|512:72,2,140
344,120,41823,2,0,B|176:120,1,140
136,152,42692,1,8
88,208,43127,1,4
136,272,43562,6,0,B|288:272,1,140
336,224,44431,2,0,B|416:224|416:128,1,140
352,88,45301,2,0,B|184:88,1,140
128,168,46170,2,8,B|280:168,1,140
24,328,47475,6,0,B|192:328,1,140
232,328,48344,1,8
304,304,48779,2,0,B|432:304|432:224,1,140
432,184,49649,1,4
432,184,49866,2,4,B|336:184,1,70
328,56,50736,6,0,B|432:56,2,70
272,96,51605,2,0,B|184:96,1,70
144,120,52257,1,4
112,176,52692,1,0
80,232,53127,1,0
56,296,53562,2,0,B|144:296,1,70
224,224,54214,5,8
224,224,54431,1,0
312,296,54866,2,0,B|464:296,1,140
488,224,55736,2,0,B|488:80,1,140
416,80,56605,2,0,B|336:80|336:184,1,140
256,312,57910,5,4
256,192,70084,12,0,71823
256,192,72692,5,4
256,192,73127,1,4
256,192,73562,5,8
256,264,73997,2,8,B|104:264,1,140,0|0
112,192,74866,1,0
112,120,75301,1,0
256,56,75953,2,0,B|320:56,2,35
328,192,77040,5,0
384,232,77475,1,0
384,304,77910,1,0
312,304,78344,1,4
240,328,78779,2,0,B|16:328|16:176,1,280
24,136,80084,1,0
72,80,80518,6,0,B|232:80,1,140
320,192,81388,2,0,B|464:192,2,140
320,264,82692,1,0
264,312,83127,2,0,B|112:312,1,140,4|8
56,224,83997,6,0,B|208:224,1,140,0|8
224,160,84866,1,0
160,160,85301,1,0
96,160,85736,1,4
256,192,86605,5,4
256,192,87040,1,4
368,192,87475,6,0,B|368:120|256:112,1,140
200,112,88344,2,0,B|120:112|104:200,1,140
176,200,89214,1,4
256,328,89866,2,8,B|216:328,2,35
416,280,90736,6,0,B|416:176,1,70
416,144,91388,1,0
416,72,91823,1,8
352,48,92257,2,4,B|208:48,1,140
128,128,93344,2,0,B|64:176,1,70
72,240,93997,1,0
88,304,94431,6,0,B|376:304,1,280,0|0
408,248,95736,1,0
408,176,96171,1,0
368,120,96605,2,0,B|304:72|216:120,1,140
176,224,97910,6,0,B|176:304|296:304,1,140
352,304,98779,1,0
432,304,99214,2,0,B|432:136,1,140
256,192,99866,12,4,101388
256,192,102040,6,0,B|256:272,5,70
256,192,103236,12,0,106605
256,152,108344,2,0,B|256:112,2,35
256,208,108779,2,0,B|256:304|368:304,1,140
424,232,109649,1,0
464,192,109866,1,0
464,136,110084,2,0,B|464:64|352:64,1,140
256,304,111823,6,0,B|256:352,2,35
256,248,112257,2,0,B|256:168|144:168,1,140
72,240,113127,1,0
40,288,113344,1,0
40,344,113562,2,0,B|144:344|144:272,1,140,4|0
256,96,115301,6,0,B|256:224,2,105
312,96,116170,1,0
280,48,116388,1,0
224,48,116605,1,0
192,96,116823,1,0
288,160,117040,6,0,B|232:144|200:176,3,70,0|0|0|4
