osu file format v7

[General]
AudioFilename: Game OP audio.mp3
AudioLeadIn: 0
PreviewTime: 73566
Countdown: 1
SampleSet: Normal
StackLeniency: 0.7
Mode: 0
LetterboxInBreaks: 1

[Editor]
Bookmarks: 90740,106609,117914
DistanceSpacing: 0.5
BeatDivisor: 4
GridSize: 8

[Metadata]
Title:Causal Chain
Artist:YuNa
Creator:Teras
Version:Angel
Source:Utatemeguri
Tags:Preview Flat Visual Novel Oyashiro Beatrice Nekoo[]

[Difficulty]
HPDrainRate:5
CircleSize:4
OverallDifficulty:6
SliderMultiplier:1.4
SliderTickRate:1

[Events]
//Background and Video events
0,0,"1536flat302pl.jpg"
Video,0,"PV_one_wmv2(2).avi"
//Break Periods
//Storyboard Layer 0 (Background)
//Storyboard Layer 1 (Fail)
//Storyboard Layer 2 (Pass)
//Storyboard Layer 3 (Foreground)
//Storyboard Sound Samples
//Background Colour Transformations
3,100,163,162,255

[TimingPoints]
16171,434.782608695652,4,1,0,60,1,0
71935,-100,4,1,0,40,0,0
73566,-100,4,1,0,60,0,1
103131,-100,4,1,0,60,0,0

[HitObjects]
256,192,30084,2,0,B|256:40,1,140
328,56,30953,1,0
384,104,31388,1,0
432,160,31823,1,0
416,224,32257,1,0
384,288,32692,1,0
312,288,33127,1,0
280,224,33562,6,0,B|200:160|144:168,1,140
104,208,34431,1,0
96,280,34866,1,0
152,240,35301,1,0
208,192,35736,1,0
264,144,36170,1,0
320,104,36605,1,0
384,72,37040,6,0,B|384:240,1,140
376,280,37910,1,0
304,280,38344,1,0
232,280,38779,1,0
176,240,39214,1,0
144,176,39649,1,0
120,112,40084,1,0
120,40,40518,6,0,B|288:40,1,140
280,104,41388,1,0
312,168,41823,1,0
296,240,42257,1,0
256,296,42692,1,0
192,264,43127,1,0
144,216,43562,1,0
136,144,43997,6,4,B|136:48,2,70
200,120,44866,1,0
272,112,45301,1,0
336,144,45736,1,0
368,208,46170,1,0
344,272,46605,1,0
288,320,47040,1,0
224,296,47475,6,4,B|176:280|192:240,2,70
256,232,48344,1,0
216,176,48779,1,0
160,136,49214,1,0
104,176,49649,1,0
80,240,50084,1,0
112,304,50518,1,0
184,304,50953,6,4,B|184:208,2,70
184,303,51823,1,0
248,272,52257,1,0
312,240,52692,1,0
328,168,53127,1,0
296,104,53562,1,0
232,88,53997,1,0
168,104,54431,6,4,B|104:120|96:160,2,70
88,216,55301,1,0
56,280,55736,1,0
112,320,56170,1,0
184,328,56605,2,4,B|272:304|256:208,3,140
259,224,58344,5,0
312,184,58779,1,0
320,112,59214,1,0
288,48,59649,2,4,B|248:32|200:32|168:48|152:72,1,140
104,112,60518,1,0
80,176,60953,1,0
136,216,61388,6,4,B|216:264|208:144,1,140
248,88,62257,1,0
312,56,62692,1,0
376,88,63127,2,4,B|392:160|288:184,3,140
240,232,64866,5,0
304,256,65301,1,0
256,304,65736,1,0
320,344,66170,1,0
256,376,66605,2,4,B|168:376|144:296,1,140
128,240,67475,5,0
80,192,67910,1,0
80,120,68344,2,4,B|144:72|248:88,1,140
272,56,69214,1,0
328,104,69649,1,0
392,144,70084,2,4,B|432:224|368:304,1,140
336,328,70953,1,0
280,288,71388,1,0
256,192,71823,12,4,73562
192,136,74431,5,0
232,80,74866,1,0
288,40,75301,2,0,B|384:80|392:144,1,140
376,200,76171,2,0,B|320:272,2,70
376,201,77040,5,0
408,264,77475,1,0
360,312,77910,1,0
296,296,78344,1,0
224,280,78779,2,0,B|136:248|128:160,1,140
144,112,79649,2,0,B|216:112,2,70
144,184,80518,5,0
200,224,80953,1,0
248,176,81388,1,0
312,208,81823,1,0
368,152,82257,2,0,B|400:200|448:152|496:136,2,140
320,208,83562,5,0
248,216,83997,2,0,B|176:248,2,70
192,176,84866,1,0
192,104,85301,1,0
240,56,85736,2,0,B|328:64|376:144,1,140
392,184,86605,5,0
416,248,87040,1,0
384,312,87475,2,0,B|312:360|240:304,1,140
192,272,88344,1,0
136,224,88779,1,0
96,168,89214,2,0,B|88:96|168:48,1,140
232,48,90084,2,0,B|320:56,2,70
272,104,90953,5,0
320,160,91388,1,0
296,224,91823,1,0
240,264,92257,1,0
192,208,92692,2,0,B|128:136|56:200,1,140
48,256,93562,2,0,B|56:336,2,70
47,256,94431,5,0
112,280,94866,1,0
176,304,95301,2,0,B|336:304,1,140
318,304,96171,1,0
384,280,96605,2,0,B|424:216|360:144,1,140
312,104,97475,5,0
248,72,97910,1,0
184,48,98344,1,0
112,64,98779,2,0,B|56:120|48:200,1,140
72,256,99649,2,0,B|152:288,4,70
137,282,100953,1,0
208,296,101388,2,0,B|288:240|288:168,1,140
344,144,102257,5,0
304,88,102692,1,0
256,192,103127,12,0,106605
128,104,107475,5,0
160,104,107692,1,0
192,104,107910,2,0,B|272:104|328:160,1,140
376,200,108779,1,0
360,232,108997,2,0,B|320:304,3,70
256,288,110084,5,0
224,272,110301,1,0
192,256,110518,2,0,B|104:216|120:144,1,140
160,96,111388,1,0
192,80,111605,2,0,B|264:56,3,70
320,88,112692,5,0
344,112,112910,1,0
368,136,113127,2,0,B|408:176|432:264,1,140
368,288,113997,1,0
336,304,114214,2,0,B|256:344,3,70
224,288,115301,5,4
160,256,115736,1,4
112,208,116170,2,4,B|88:128|176:80,1,140
232,88,117040,5,0
232,120,117257,1,0
232,152,117475,2,0,B|232:240,1,70
