osu file format v9

[General]
AudioFilename: Natsukage - ano hikokikumo wo koeta sonosakie.mp3
AudioLeadIn: 2000
PreviewTime: 115569
Countdown: 0
SampleSet: Soft
StackLeniency: 0.7
Mode: 0
LetterboxInBreaks: 0
StoryFireInFront: 0

[Editor]
DistanceSpacing: 0.7
BeatDivisor: 2
GridSize: 8

[Metadata]
Title:Natsukage ~Ano Hikoukigumo wo Koeta, Sono Saki e~
Artist:YuKi
Creator:Vikon
Version:Yume Gatari
Source:AIR
Tags:key kamio misuzu sora SiU_LeAf

[Difficulty]
HPDrainRate:2
CircleSize:3
OverallDifficulty:1
ApproachRate:2
SliderMultiplier:1.2
SliderTickRate:1

[Events]
//Background and Video events
0,0,"AIR034-1.jpg"
//Break Periods
2,27724,38595
2,84565,95042
2,102723,108069
//Storyboard Layer 0 (Background)
//Storyboard Layer 1 (Fail)
//Storyboard Layer 2 (Pass)
//Storyboard Layer 3 (Foreground)
//Storyboard Sound Samples
//Background Colour Transformations
3,100,163,162,255

[TimingPoints]
152,845.070422535211,4,2,1,20,1,0
579,-100,4,2,1,30,0,0
1847,-100,4,2,1,20,0,0
2269,-100,4,2,1,30,0,0
3537,-100,4,2,1,20,0,0
3959,-100,4,2,1,30,0,0
5227,-100,4,2,1,20,0,0
5649,-100,4,2,1,30,0,0
8607,-100,4,2,1,20,0,0
9030,-100,4,2,1,30,0,0
10297,-100,4,2,1,20,0,0
10720,-100,4,2,1,30,0,0
11987,-100,4,2,1,20,0,0
12410,-100,4,2,1,30,0,0
15368,-100,4,2,1,20,0,0
15790,-100,4,2,1,30,0,0
17058,-100,4,2,1,20,0,0
17480,-100,4,2,1,30,0,0
18748,-100,4,2,1,20,0,0
19171,-100,4,2,1,30,0,0
20016,-100,4,2,1,20,0,0
20861,-100,4,2,1,15,0,0
21706,-100,4,2,1,10,0,0
22128,898.203592814371,4,2,1,10,1,0
22577,-100,4,2,1,5,0,0
27524,394.736842105263,4,2,1,20,1,0
39063,-100,4,2,1,40,0,0
43905,-100,4,2,1,45,0,0
47063,-100,4,2,1,50,0,0
50410,-100,4,2,1,55,0,0
51792,-100,4,2,1,60,0,0
52588,-100,4,2,2,40,0,0
52787,-100,4,2,2,40,0,1
52884,-100,4,2,2,40,0,0
53180,-100,4,2,2,30,0,0
54759,-100,4,2,2,35,0,0
56339,-100,4,2,2,40,0,0
65410,-100,4,2,2,45,0,0
77252,-100,4,2,2,50,0,0
78042,-100,4,2,2,55,0,0
80015,-100,4,2,2,60,0,0
80805,-100,4,2,2,65,0,0
81989,-100,4,2,2,70,0,0
83568,-100,4,2,2,75,0,0
84177,-100,4,2,1,50,0,0
84366,-100,4,2,1,50,0,1
84555,-100,4,2,1,50,0,0
96418,-100,4,2,2,35,0,0
97207,-100,4,2,1,50,0,0
98392,-100,4,2,2,35,0,0
99182,-100,4,2,1,50,0,0
99972,-100,4,2,2,35,0,0
100366,-100,4,2,1,50,0,0
101551,-100,4,2,2,35,0,0
102341,-100,4,2,1,50,0,0
109448,-100,4,2,1,15,0,0
112779,-100,4,2,1,40,0,0
113002,-100,4,2,1,35,0,0
115569,-100,4,2,2,65,0,0
115945,-100,4,2,2,65,0,1
116035,-100,4,2,2,65,0,0
126397,-100,4,2,2,50,0,0
126792,-100,4,2,2,65,0,0
132713,-100,4,2,2,50,0,0
133108,-100,4,2,2,65,0,0
141208,-100,4,2,2,65,0,1
141298,-100,4,2,2,65,0,0
153831,-100,4,2,2,70,0,0
160147,-100,4,2,2,75,0,0
162121,-100,4,2,2,80,0,0
162515,-100,4,2,2,85,0,0
162615,-100,4,2,2,90,0,0
163150,-100,4,2,2,0,0,0
166471,-100,4,2,2,5,0,1
166704,-100,4,2,2,5,0,0

[Colours]
Combo1 : 96,175,255
Combo2 : 162,162,255
Combo3 : 23,64,255
Combo4 : 0,255,255

[HitObjects]
408,104,152,2,0,B|424:168|400:248,1,120,8|0
336,320,1842,1,8
288,208,2687,1,2
407,223,3532,6,0,B|383:284|317:336,1,120,8|0
216,304,5222,1,8
288,208,6067,1,8
216,112,6912,1,12
144,208,7757,6,0,B|144:280|216:320,1,120,0|8
320,328,9447,1,2
288,208,10292,5,8
344,104,11137,1,0
408,208,11982,2,0,B|444:260|442:340,2,120,8|8|12
288,208,14518,5,0
168,208,15363,2,0,B|131:155|133:75,1,120,8|2
250,45,17053,5,8
350,108,17898,1,0
287,208,18743,1,8
186,145,19588,1,2
83,82,20433,6,0,B|25:120|32:200,2,120,8|8|8
256,192,23026,12,4,27524
392,288,40155,6,0,B|276:333|136:280,1,240
88,224,41339,1,0
32,144,41734,1,8
224,128,42524,5,0
280,208,42918,1,0
352,272,43313,1,4
156,287,44102,5,0
256,296,44497,1,0
352,272,44892,1,8
424,208,45287,2,0,B|440:144|376:88,3,120,0|0|0|4
200,120,47260,5,0
200,208,47655,1,0
232,288,48050,1,8
200,120,48839,5,0
116,149,49234,1,0
52,206,49629,1,4
240,256,50418,6,0,B|312:368,1,120,0|0
312,240,51208,6,0,B|436:290,1,120,8|0
360,184,51997,6,0,B|490:154,1,120,8|0
368,104,52787,5,2
200,120,53576,1,8
360,184,54366,1,2
192,200,55155,1,8
352,264,55945,5,2
184,280,56734,1,8
184,112,57524,2,0,B|248:88|328:120,2,120,2|2|8
40,200,59102,5,2
184,280,59892,1,8
352,256,60681,2,0,B|416:144|384:24,1,240,2|8
256,128,62260,6,0,B|232:248|72:296,1,240,2|8
107,118,63839,1,2
184,88,64234,1,2
256,128,64629,1,8
256,128,65418,5,2
352,264,66208,1,8
400,104,66997,1,2
320,72,67392,1,2
256,128,67787,1,8
88,112,68576,6,0,B|91:240|203:326,1,240,2|8
352,264,70155,1,2
352,264,70550,1,2
400,192,70945,1,8
400,104,71339,1,2
400,104,71734,1,2
232,136,72524,5,8
104,32,73313,2,0,B|56:72|64:152,2,120,2|2|8
232,136,74892,5,2
312,112,75287,1,2
384,152,75681,1,8
312,304,76471,6,0,B|192:352,1,120,2|2
200,264,77260,6,0,B|74:234,1,120,8|8
104,152,78050,6,0,B|184:56|320:32,2,240,2|8|2
168,208,80023,6,0,B|224:320,1,120,2|8
288,264,80813,6,0,B|398:323,1,120,2|2
472,176,81997,6,0,B|384:88|232:88,1,240,8|2
240,168,83181,1,2
224,248,83576,2,0,B|94:248|6:160,1,240,8|4
360,112,96602,5,2
312,184,96997,2,0,B|224:144|168:224|64:160,2,240,2|4|2
392,192,98971,1,2
360,112,99366,1,2
328,280,100155,6,0,B|336:184|252:151|286:34,2,240,2|4|2
264,336,102129,1,2
248,256,102523,1,4
256,192,109629,12,8,112787
256,64,113576,5,2
184,216,114366,5,8
256,264,114760,5,8
328,216,115155,5,4
400,64,115945,6,0,B|456:176|464:320,1,240,2|8
304,344,117523,1,2
216,344,117918,1,2
136,320,118313,1,8
72,162,119102,5,2
92,243,119497,1,2
136,320,119892,1,8
240,192,120681,2,0,B|328:96,2,120,2|2|8
72,176,122260,5,2
72,176,123050,1,8
208,272,123839,2,0,B|230:336|317:338,2,120,2|2|8
376,280,125418,6,0,B|432:248|448:152,1,120,2|2
357,183,126208,6,0,B|384:124|342:36,1,120,8|8
288,120,126997,6,0,B|271:57|182:17,2,120,2|2|8
264,288,128576,5,2
416,224,129366,1,8
288,120,130155,1,2
208,128,130550,1,2
145,174,130945,1,8
232,312,131734,6,0,B|368:344,1,120,2|2
336,256,132523,5,8
416,224,132918,1,8
352,168,133313,6,0,B|428:51,2,120,2|2|8
216,72,134892,6,0,B|88:88|32:256,2,240,2|8|2
240,152,136866,1,2
272,232,137260,1,8
448,256,138050,5,2
384,104,138839,1,8
272,232,139629,5,2
229,305,140023,1,2
146,288,140418,1,8
141,205,140813,1,2
217,170,141208,6,0,B|328:120|464:120,2,240,2|8|2
144,208,143181,1,2
72,256,143576,1,8
217,171,144366,6,0,B|132:83|19:37,2,240,2|8|2
272,232,146339,1,2
304,312,146734,1,8
424,192,147523,5,2
256,152,148313,1,8
304,312,149102,1,2
376,264,149497,1,2
424,192,149892,1,8
408,112,150287,1,2
376,32,150681,5,2
264,152,151471,1,8
424,192,152260,2,0,B|456:328,2,120,2|2|8
264,232,153839,5,2
112,304,154629,2,0,B|64:68,2,240,8|2|8
184,344,156602,1,2
184,264,156997,5,2
328,344,157787,2,0,B|416:240|384:104,1,240,8|2
304,136,158971,2,0,B|328:184|288:264,1,120,2|8
208,264,159760,1,8
128,248,160155,5,2
224,112,160945,1,8
296,264,161734,1,2
376,248,162129,1,2
432,184,162523,1,8
472,112,162918,1,2
256,192,163313,12,4,166471
