osu file format v7

[General]
AudioFilename: holy_moon.mp3
AudioLeadIn: 1985
PreviewTime: 63303
Countdown: 0
SampleSet: Soft
StackLeniency: 0.4
Mode: 1
LetterboxInBreaks: 1

[Editor]
Bookmarks: 60487,60667,60853,61034,61235,60147,60517,60697,60897,61097,61279,61465,60235,60603,60785,60044,60193,60555,60725,60925,61125,101344,101528,101694,101880,60078,60258,60442,60627,60794,101529,101729,101913,102097
DistanceSpacing: 0.800000011920929
BeatDivisor: 4
GridSize: 8

[Metadata]
Title:Holy Moon
Artist:YuFu
Creator:wmfchris
Version:Taiko
Source:
Tags:climbb65588 saturio aesopl19193

[Difficulty]
HPDrainRate:5
CircleSize:5
OverallDifficulty:5
SliderMultiplier:1.4
SliderTickRate:1

[Events]
//Background and Video events
0,0,"moonbg.JPG"
//Break Periods
//Storyboard Layer 0 (Background)
//Storyboard Layer 1 (Fail)
//Storyboard Layer 2 (Pass)
//Storyboard Layer 3 (Foreground)
//Storyboard Sound Samples
//Background Colour Transformations
3,100,163,162,255

[TimingPoints]
25,370.050573578389,4,2,0,100,1,0
62383,-100,4,2,0,100,0,1
87454,-100,4,2,0,100,0,0

[HitObjects]
40,48,25,1,6
104,40,302,1,0
104,40,580,1,0
144,40,950,1,2
144,40,1135,1,0
144,40,1320,1,0
144,40,1505,1,0
192,40,1782,1,0
192,40,2060,1,0
240,40,2430,1,2
240,40,2615,1,2
240,40,2800,1,2
240,40,2985,1,0
240,40,3077,1,0
240,40,3170,1,0
240,40,3262,1,0
240,40,3355,1,0
240,40,3540,1,0
240,40,3910,1,2
240,40,4095,1,2
240,40,4280,1,0
240,40,4465,1,0
240,40,4743,1,2
240,40,5020,1,2
240,40,5390,1,2
240,40,5575,1,2
240,40,5760,1,2
240,40,5945,1,0
240,40,6223,1,2
240,40,6500,1,2
240,40,6870,1,0
240,40,7055,1,0
240,40,7240,1,0
240,40,7426,1,2
240,40,7703,1,2
240,40,7981,1,2
240,40,8351,1,0
240,40,8536,1,0
240,40,8721,1,0
240,40,8906,1,2
240,40,9183,1,2
240,40,9461,1,2
280,40,9831,1,0
280,40,9923,1,0
280,40,10016,1,0
280,40,10201,1,2
280,40,10386,1,0
280,40,10571,1,0
280,40,10756,1,2
280,40,10848,1,2
280,40,11034,1,0
280,40,11126,1,2
280,40,11496,1,2
280,40,11681,1,0
280,40,11866,1,4
320,40,12051,1,0
320,40,12144,1,0
320,40,12236,1,0
320,40,12421,1,0
320,40,12606,1,2
368,40,12791,1,2
368,40,12884,1,2
368,40,12976,1,2
368,40,13161,1,0
368,40,13346,1,2
368,40,13531,1,0
368,40,13716,1,0
368,40,13901,1,2
368,40,14086,1,0
368,40,14271,1,0
368,40,14456,1,2
448,56,14641,1,2
448,56,14734,1,2
448,56,14827,1,2
464,80,15012,1,0
464,120,15197,1,2
464,160,15382,1,0
464,160,15567,1,2
456,200,15752,1,0
456,240,15937,1,0
456,240,16029,1,0
464,272,16122,1,2
472,304,16307,1,0
480,336,16492,1,0
432,336,16677,1,2
392,344,16862,1,0
392,344,17047,1,0
392,344,17232,1,2
392,344,17417,1,0
392,344,17602,1,0
392,344,17694,1,0
392,344,17787,1,2
392,344,17972,1,0
392,344,18157,1,2
392,344,18342,1,0
392,344,18435,1,0
392,344,18527,1,2
392,344,18712,1,0
392,344,18897,1,0
392,344,19082,1,0
392,344,19267,1,2
392,344,19360,1,0
392,344,19452,1,0
392,344,19637,1,0
392,344,19822,1,0
392,344,20007,1,2
344,344,20192,1,0
344,344,20377,1,0
344,344,20562,1,0
344,344,20747,1,2
344,344,20932,1,0
304,344,21117,1,0
304,344,21302,1,0
304,344,21487,1,2
304,344,21672,1,0
304,344,21857,1,0
304,344,22043,1,0
256,352,22228,1,2
256,352,22320,1,0
256,352,22413,1,0
256,352,22505,1,0
256,352,22598,1,2
256,352,22690,1,0
256,352,22783,1,0
256,352,22875,1,0
256,352,22968,1,0
256,352,23060,1,0
256,352,23153,1,0
256,352,23338,1,0
256,352,23430,1,0
256,352,23523,1,0
256,352,23615,1,0
256,352,23708,1,2
200,344,24263,1,0
200,344,24448,1,2
200,344,24633,1,0
200,344,24818,1,2
200,344,25003,1,0
200,344,25095,1,0
200,344,25188,1,0
200,344,25558,1,2
200,344,25928,1,0
200,344,26021,1,0
200,344,26113,1,0
200,344,26298,1,2
200,344,26668,1,0
200,344,26853,1,0
200,344,27038,1,2
200,344,27223,1,0
152,336,27778,1,0
104,336,28148,1,0
104,336,28333,1,0
104,336,28426,1,0
104,336,28518,1,0
104,336,28703,1,2
104,336,28888,1,0
104,336,29073,1,0
104,336,29258,1,2
104,336,29444,1,0
56,328,29629,1,0
56,328,29814,1,0
56,328,29906,1,0
56,328,29999,1,0
56,328,30184,1,2
32,280,30369,1,0
32,280,30461,1,0
32,280,30554,1,0
32,280,30646,1,0
32,280,30739,1,2
16,224,30924,1,2
24,160,31109,1,2
24,160,31201,1,0
24,160,31294,1,0
16,112,31479,1,0
16,112,31664,1,0
16,112,31849,1,2
16,112,32034,1,0
16,112,32126,1,0
16,112,32219,1,0
16,112,32311,1,0
16,112,32404,1,0
16,112,32496,1,0
16,112,32589,1,2
8,64,32774,1,0
8,64,32959,1,2
0,64,33144,1,0
8,64,33329,1,2
8,64,33514,1,0
8,64,33699,1,2
8,64,33884,1,2
8,64,33977,1,2
8,64,34069,1,2
8,64,34254,1,0
8,64,34439,1,0
0,64,34624,1,2
8,64,34809,1,0
8,64,34994,1,0
8,64,35179,1,2
8,64,35364,1,0
8,64,35549,1,6
8,64,35734,1,0
8,64,35919,1,2
8,64,36012,1,0
0,64,36104,1,0
8,64,36289,1,0
8,64,36474,1,2
8,64,36660,1,0
8,64,36752,1,0
8,64,36845,1,0
8,64,37030,1,0
48,64,37215,1,0
48,64,37400,1,0
48,64,37585,1,2
48,64,37770,1,0
48,64,37955,1,2
48,64,38047,1,0
48,64,38140,1,0
48,64,38232,1,0
48,64,38325,1,2
96,56,38510,1,0
96,56,38695,1,2
96,56,38787,1,2
96,56,38880,1,2
144,48,39065,1,0
144,48,39250,1,0
144,48,39342,1,0
144,48,39435,1,2
184,48,39620,1,0
184,48,39805,1,0
224,48,39990,1,2
224,48,40175,1,0
224,48,40360,1,0
224,48,40545,1,2
224,48,40730,1,0
224,48,40915,1,0
224,48,41008,1,0
224,48,41100,1,2
224,48,41285,1,0
224,48,41470,1,2
224,48,41655,1,0
224,48,41840,1,0
224,48,42025,1,0
224,48,42210,1,2
224,48,42395,1,0
224,48,42580,1,0
224,48,42765,1,0
224,48,42950,1,2
224,48,43043,1,0
224,48,43135,1,0
224,48,43320,1,0
256,48,43505,1,2
256,48,43690,1,0
256,48,43875,1,2
256,48,44061,1,2
256,48,44246,1,0
256,48,44431,1,0
256,48,44616,1,2
256,48,44708,1,2
256,48,44801,1,2
256,48,44986,1,0
256,48,45171,1,2
256,48,45263,1,2
256,48,45356,1,2
256,48,45541,1,0
256,48,45633,1,0
256,48,45726,1,0
256,48,45818,1,0
256,48,45911,1,0
256,48,46188,1,4
256,48,46466,1,4
256,48,46743,1,4
256,48,47021,1,6
256,48,47206,1,4
256,48,47391,1,4
304,48,47576,1,0
304,48,47669,1,0
304,48,47761,1,2
336,48,47946,1,2
336,48,48131,1,0
336,48,48316,1,2
336,48,48501,1,2
336,48,48686,1,2
384,48,48871,1,0
384,48,49056,1,0
384,48,49241,1,2
384,48,49426,1,2
384,48,49611,1,0
384,48,49796,1,0
384,48,49889,1,0
384,48,49981,1,2
384,48,50166,1,0
384,48,50351,1,0
384,48,50536,1,0
384,48,50721,1,0
384,48,50906,1,0
384,48,51091,1,2
384,48,51277,1,0
384,48,51462,1,0
384,48,51647,1,0
384,48,51739,1,0
384,48,51832,1,2
432,48,52017,1,0
432,48,52109,1,0
384,48,52202,1,2
488,72,52387,1,0
488,72,52479,1,0
488,72,52572,1,2
488,72,52664,1,0
488,72,52757,1,0
480,128,52942,1,0
480,128,53034,1,0
480,128,53127,1,2
480,168,53312,1,0
480,208,53497,1,2
480,208,53682,1,2
480,208,53867,1,2
480,208,54052,1,4
480,208,54237,1,2
480,208,54422,1,2
480,208,54607,1,2
480,208,54792,1,4
480,240,54977,1,2
480,240,55070,1,2
480,240,55162,1,2
480,240,55347,1,2
480,240,55440,1,2
480,240,55532,1,2
480,240,55625,1,2
480,240,55717,1,2
472,288,55902,1,0
472,288,56087,1,0
472,288,56180,1,0
472,288,56272,1,2
432,328,56457,1,0
432,328,56642,1,2
432,328,56735,1,0
432,328,56920,1,0
432,328,57012,1,2
432,328,57197,1,0
432,328,57382,1,2
432,328,57567,1,2
432,328,57752,1,2
432,328,57937,1,0
432,328,58030,1,0
432,328,58122,1,0
432,328,58307,1,2
432,328,58400,1,2
432,328,58492,1,2
432,328,58678,1,0
432,328,58863,1,2
432,328,59048,1,2
432,328,59233,1,4
256,192,59603,12,0,62193
48,56,62563,5,2
48,56,62933,1,2
48,56,63118,1,0
48,56,63303,1,0
48,56,63396,1,0
48,56,63488,1,0
48,56,63581,1,0
48,56,63673,1,2
48,56,63766,1,0
48,56,63858,1,0
48,56,63951,1,0
48,56,64043,1,0
96,64,64228,1,0
96,64,64321,1,0
96,64,64413,1,2
96,64,64598,1,0
96,64,64783,1,2
96,64,64876,1,0
96,64,64968,1,0
96,64,65061,1,0
96,64,65153,1,0
144,64,65338,1,0
144,64,65431,1,0
144,64,65523,1,2
144,64,65616,1,0
144,64,65708,1,0
144,64,65801,1,0
144,64,65894,1,2
144,64,65986,1,0
144,64,66079,1,0
144,64,66171,1,0
144,64,66264,1,2
144,64,66356,1,0
144,64,66449,1,0
144,64,66541,1,0
144,64,66634,1,0
192,56,66819,1,2
192,56,67004,1,2
192,56,67189,1,2
240,56,67374,1,2
240,56,67466,1,0
240,56,67559,1,0
240,56,67651,1,0
240,56,67744,1,2
240,56,67836,1,0
240,56,67929,1,0
240,56,68021,1,0
240,56,68114,1,0
240,56,68206,1,0
240,56,68299,1,0
240,56,68391,1,0
240,56,68484,1,0
240,56,68576,1,0
240,56,68669,1,0
240,56,68761,1,0
240,56,68854,1,0
296,56,69039,1,2
296,56,69224,1,0
360,56,69409,1,2
360,56,69501,1,2
360,56,69594,1,2
360,56,69687,1,2
360,56,69779,1,2
424,40,69964,1,2
424,40,70057,1,0
424,40,70149,1,0
456,64,70334,1,0
464,112,70519,1,0
464,112,70612,1,0
464,112,70704,1,2
464,112,70797,1,0
464,112,70889,1,0
464,160,71074,1,0
464,160,71259,1,2
448,184,71444,1,0
440,240,71629,1,0
440,240,71722,1,0
440,240,71814,1,0
440,240,71907,1,0
440,240,71999,1,0
440,240,72184,1,0
464,280,72369,1,2
464,280,72462,1,0
464,280,72554,1,0
464,280,72647,1,0
464,280,72739,1,0
464,280,72832,1,0
464,280,72924,1,0
464,280,73017,1,0
464,280,73109,1,0
464,280,73202,1,0
464,280,73295,1,0
464,280,73387,1,0
464,280,73480,1,0
464,280,73572,1,0
464,280,73665,1,0
464,280,73757,1,0
464,280,73850,1,0
464,280,73942,1,0
464,280,74035,1,0
408,312,74220,1,2
344,320,74405,1,0
344,320,74497,1,0
344,320,74590,1,2
344,320,74682,1,0
344,320,74775,1,0
344,320,74867,1,0
344,320,74960,1,2
344,320,75052,1,0
344,320,75145,1,0
344,320,75237,1,0
344,320,75330,1,2
344,320,75422,1,0
344,320,75515,1,0
288,328,75700,1,0
288,328,75792,1,0
288,328,75885,1,0
288,328,75977,1,0
288,328,76070,1,0
288,328,76162,1,0
288,328,76255,1,2
240,328,76440,1,2
240,328,76625,1,2
240,328,76717,1,2
240,328,76810,1,2
240,328,76903,1,2
240,328,76995,1,0
200,328,77180,1,0
200,328,77365,1,2
200,328,77550,1,0
200,328,77735,1,0
160,328,77828,1,2
160,328,77920,1,0
160,328,78013,1,0
160,328,78105,1,0
160,328,78198,1,0
160,328,78290,1,0
160,328,78383,1,0
160,328,78475,1,0
112,328,78660,1,0
112,328,78753,1,0
112,328,78845,1,2
56,312,79030,1,2
56,312,79123,1,0
56,312,79215,1,0
56,312,79308,1,0
56,312,79400,1,2
56,312,79493,1,0
56,312,79585,1,0
56,312,79678,1,0
56,312,79770,1,2
56,312,79863,1,0
56,312,79955,1,0
56,312,80048,1,0
56,312,80140,1,2
48,256,80325,1,0
56,208,80510,1,0
56,208,80603,1,0
56,208,80696,1,0
56,208,80788,1,0
48,160,80881,1,2
48,160,80973,1,2
48,160,81066,1,2
48,160,81158,1,2
48,160,81251,1,2
40,104,81436,1,4
48,56,81621,1,2
48,56,81713,1,2
48,56,81806,1,2
48,56,81898,1,2
48,56,81991,1,0
48,56,82083,1,0
48,56,82176,1,0
48,56,82268,1,0
48,56,82361,1,2
48,56,82453,1,2
48,56,82546,1,2
48,56,82638,1,2
48,56,82731,1,0
48,56,82823,1,0
48,56,82916,1,0
128,64,83101,1,0
128,64,83193,1,0
128,64,83286,1,0
128,64,83378,1,0
128,64,83471,1,0
128,64,83563,1,0
128,64,83656,1,0
128,64,83748,1,0
128,64,83841,1,0
128,64,83933,1,0
128,64,84026,1,0
128,64,84118,1,0
128,64,84211,1,0
128,64,84304,1,0
128,64,84396,1,2
176,56,84581,1,2
176,56,84766,1,2
176,56,84951,1,0
176,56,85136,1,0
224,56,85321,1,0
224,56,85414,1,0
224,56,85506,1,2
224,56,85599,1,0
224,56,85691,1,0
288,56,85876,1,4
288,56,86154,1,4
288,56,86431,1,6
288,56,86709,1,4
288,56,86986,1,4
288,56,87171,1,4
288,56,87356,1,4
344,56,87541,1,0
344,56,87634,1,0
344,56,87726,1,2
392,56,87912,1,2
392,56,88097,1,0
392,56,88282,1,2
392,56,88467,1,0
392,56,88652,1,0
448,48,88837,1,0
448,48,88929,1,0
448,48,89022,1,2
480,80,89207,1,2
480,80,89299,1,0
480,80,89392,1,0
480,80,89577,1,0
480,80,89762,1,0
480,80,89947,1,2
480,80,90132,1,0
480,80,90317,1,0
480,80,90502,1,0
480,80,90594,1,0
480,80,90687,1,0
464,128,90872,1,2
464,128,91057,1,0
464,128,91149,1,0
464,128,91242,1,0
464,128,91334,1,0
464,128,91427,1,2
464,168,91612,1,2
464,168,91797,1,2
464,168,91982,1,0
464,168,92167,1,2
464,168,92352,1,2
464,168,92537,1,2
464,208,92722,1,0
464,208,92815,1,0
464,208,92907,1,0
464,208,93000,1,0
464,208,93092,1,0
464,208,93185,1,0
464,208,93277,1,2
464,264,93462,1,0
464,264,93647,1,2
464,264,93832,1,0
464,264,94017,1,2
464,264,94202,1,2
464,264,94387,1,0
464,264,94572,1,0
464,264,94757,1,2
464,264,94850,1,2
464,264,94942,1,2
464,264,95127,1,0
464,264,95313,1,2
464,264,95498,1,0
464,320,95683,1,0
464,320,95775,1,0
464,320,95868,1,0
408,320,96053,1,2
408,320,96238,1,2
408,320,96423,1,0
408,320,96608,1,2
408,320,96793,1,2
408,320,96978,1,2
408,320,97163,1,0
408,320,97348,1,0
408,320,97533,1,0
408,320,97718,1,2
408,320,97810,1,0
408,320,97903,1,0
408,320,97995,1,0
408,320,98088,1,2
408,320,98180,1,0
408,320,98273,1,0
408,320,98365,1,0
408,320,98458,1,2
352,320,98643,1,0
352,320,98735,1,0
352,320,98828,1,0
352,320,98921,1,0
352,320,99013,1,2
288,320,99198,1,4
288,320,99383,1,2
288,320,99476,1,2
288,320,99568,1,2
288,320,99753,1,2
288,320,99846,1,2
288,320,99938,1,2
288,320,100031,1,2
288,320,100123,1,2
288,320,100308,1,0
288,320,100493,1,2
256,192,100678,12,2,102899
48,312,103269,5,0
48,312,103361,1,0
48,312,103454,1,2
48,248,103639,1,2
48,248,103731,1,0
48,248,103824,1,0
48,200,104009,1,0
48,200,104101,1,0
48,200,104194,1,0
48,200,104286,1,0
48,200,104379,1,2
48,144,104749,1,0
48,144,104934,1,2
48,144,105119,1,0
48,144,105304,1,0
48,144,105489,1,0
48,144,105581,1,0
48,144,105674,1,0
48,144,105766,1,0
48,144,105859,1,0
48,144,106044,1,0
48,144,106229,1,2
48,144,106414,1,2
48,144,106599,1,0
48,144,106692,1,0
48,144,106784,1,0
56,96,106969,1,2
56,96,107062,1,2
56,96,107154,1,2
56,48,107339,1,0
56,48,107524,1,2
56,48,107709,1,0
56,48,107894,1,0
56,48,108079,1,2
56,48,108172,1,2
56,48,108264,1,2
56,48,108357,1,2
56,48,108449,1,2
104,48,108634,1,0
104,48,108819,1,2
152,48,109004,1,0
152,48,109189,1,0
152,48,109374,1,0
152,48,109559,1,0
152,48,109744,1,0
152,48,109930,1,2
152,48,110115,1,0
152,48,110207,1,0
152,48,110300,1,2
192,48,110485,1,0
192,48,110670,1,2
224,48,110855,1,0
224,48,111040,1,2
224,48,111225,1,2
224,48,111410,1,2
224,48,111595,1,0
224,48,111780,1,2
224,48,111872,1,2
224,48,111965,1,2
224,48,112057,1,2
224,48,112150,1,2
280,48,112335,1,0
280,48,112520,1,2
280,48,112705,1,0
280,48,112890,1,0
280,48,113075,1,0
312,48,113260,1,0
312,48,113352,1,0
312,48,113445,1,2
368,48,113630,1,0
368,48,113723,1,0
368,48,113815,1,0
424,48,114000,1,2
424,48,114185,1,2
424,48,114370,1,0
424,48,114555,1,2
424,48,114740,1,0
424,48,114925,1,0
424,48,115018,1,0
424,48,115110,1,2
424,48,115295,1,2
456,80,115480,1,4
456,128,115665,1,0
456,128,115758,1,0
456,128,115850,1,0
464,176,116035,1,2
464,208,116220,1,0
464,208,116313,1,0
464,208,116405,1,0
464,208,116498,1,0
464,208,116590,1,2
464,208,116683,1,0
464,208,116775,1,0
464,208,116868,1,0
464,208,116960,1,0
336,136,117701,1,4
168,208,118256,1,0
168,208,118348,1,0
168,208,118441,1,0
