osu file format v10

[General]
AudioFilename: Tales.mp3
AudioLeadIn: 0
PreviewTime: -1
Countdown: 1
SampleSet: None
StackLeniency: 0.7
Mode: 0
LetterboxInBreaks: 1

[Editor]
Bookmarks: 8744
DistanceSpacing: 0.2
BeatDivisor: 1
GridSize: 8

[Metadata]
Title:Tales
TitleUnicode:Tales
Artist:Yu-Fei Zhang
ArtistUnicode:Yu-Fei Zhang
Creator:deepsea
Version:3370 Tales
Source:
Tags:
BeatmapID:184700
BeatmapSetID:62147

[Difficulty]
HPDrainRate:1
CircleSize:5
OverallDifficulty:7
ApproachRate:8
SliderMultiplier:1.4
SliderTickRate:1

[Events]
//Background and Video events
//Break Periods
2,28230,44691
2,148230,164959
//Storyboard Layer 0 (Background)
//Storyboard Layer 1 (Fail)
//Storyboard Layer 2 (Pass)
//Storyboard Layer 3 (Foreground)
//Storyboard Sound Samples
//Background Colour Transformations
3,100,0,0,0

[TimingPoints]
8745,535.714285714286,4,3,0,79,1,0
28030,-100,4,3,0,5,0,0
28164,-100,4,3,0,61,0,0
60039,-200,4,3,0,61,0,0
60307,-200,4,1,0,7,0,0
61245,-200,4,1,0,42,0,0
61780,-83.3333333333333,4,3,0,83,0,0
77182,-133.333333333333,4,3,0,83,0,0
79325,-83.3333333333333,4,3,0,83,0,0
93923,-83.3333333333333,4,1,0,83,0,0
97003,-66.6666666666667,4,1,0,83,0,0
131021,-66.6666666666667,4,1,0,100,0,0
148030,-66.6666666666667,4,1,0,5,0,0
165575,-66.6666666666667,4,3,0,85,0,0
182182,-66.6666666666667,4,1,0,85,0,0
199459,-66.6666666666667,4,3,0,100,0,0
214861,-133.333333333333,4,3,0,100,0,0
236423,-133.333333333333,4,1,0,5,0,0

[Colours]
Combo1 : 192,192,192
Combo2 : 255,128,255
Combo3 : 0,255,0
Combo4 : 255,0,128

[HitObjects]
72,176,8744,2,0,B|72:88,1,70
160,56,9280,2,0,B|160:112,1,35,8|0,0:0|0:0,0:0:0
304,144,9816,2,0,B|304:92,2,35
416,112,10352,1,8,0:0:0
424,320,10887,2,0,B|344:320,1,70
256,256,11423,2,8,B|304:256,1,35
88,320,11959,2,0,B|168:320,1,70
256,256,12495,2,0,B|208:256,1,35,8|0,0:0|0:0,0:0:0
152,80,13030,6,0,B|64:80,1,70
160,80,13566,2,0,B|216:80,1,35,8|0,0:0|0:0,0:0:0
336,80,14102,2,0,B|376:80,2,35
320,80,14637,1,8,0:0:0
448,192,15173,2,0,B|448:272,1,70
360,328,15709,2,0,B|360:272,1,35,8|0,0:0|0:0,0:0:0
64,192,16245,2,0,B|64:272,1,70
152,328,16781,2,0,B|152:272,1,35,8|0,0:0|0:0,0:0:0
376,104,17316,5,0,0:0:0
376,120,17584,1,0,0:0:0
136,104,17852,1,8,0:0:0
136,120,17986,1,0,0:0:0
256,192,18387,1,0,0:0:0
256,176,18521,1,0,0:0:0
256,160,18655,1,0,0:0:0
256,144,18923,1,8,0:0:0
72,272,19459,5,0,0:0:0
88,304,19727,1,0,0:0:0
192,304,19995,1,8,0:0:0
208,272,20128,1,0,0:0:0
304,272,20530,1,0,0:0:0
320,304,20798,1,0,0:0:0
424,304,21066,1,8,0:0:0
440,272,21199,1,0,0:0:0
368,72,21602,5,0,0:0:0
288,24,21870,1,0,0:0:0
280,56,22137,1,8,0:0:0
384,48,22271,1,0,0:0:0
152,96,22673,1,0,0:0:0
72,120,22807,1,0,0:0:0
152,96,22941,1,0,0:0:0
72,120,23209,1,8,0:0:0
24,296,23745,6,0,B|112:296,1,70
120,296,24146,2,0,B|200:296,1,70,2|0,0:0|0:0,0:0:0
216,296,24548,2,0,B|288:296,1,70
312,296,24950,2,0,B|384:296,1,70,2|0,0:0|0:0,0:0:0
416,296,25352,2,0,B|496:296,1,70
256,192,25887,12,0,28030,0:0:0
80,136,45441,5,0,0:0:0
152,176,45709,2,0,B|152:96,1,70,8|0,0:0|0:0,0:0:0
216,64,46245,2,0,B|216:144,1,70
288,176,46780,2,0,B|288:104,1,70,8|0,0:0|0:0,0:0:0
432,248,47584,5,0,0:0:0
360,208,47852,2,0,B|360:288,1,70,8|0,0:0|0:0,0:0:0
296,320,48388,2,0,B|296:240,1,70
224,208,48923,2,0,B|224:280,1,70,8|0,0:0|0:0,0:0:0
160,64,49995,5,8,0:0:0
160,64,50262,1,0,0:0:0
352,64,51066,1,8,0:0:0
352,64,51333,1,0,0:0:0
456,256,51870,1,0,0:0:0
392,256,52137,1,8,0:0:0
328,256,52405,1,0,0:0:0
264,256,52673,1,0,0:0:0
200,256,52941,1,0,0:0:0
136,256,53209,1,8,0:0:0
72,256,53477,1,0,0:0:0
128,48,54280,6,0,B|224:48,1,70,8|0,0:0|0:0,0:0:0
256,152,54816,2,0,B|176:152,1,70
256,312,55620,1,2,0:0:0
384,48,56423,2,0,B|288:48,1,70,8|0,0:0|0:0,0:0:0
256,152,56959,2,0,B|336:152,1,70
384,264,57495,2,0,B|296:264,1,70,8|0,0:0|0:0,0:0:0
256,344,58298,1,2,0:0:0
96,192,58834,1,2,0:0:0
256,40,59370,1,2,0:0:0
416,192,59906,1,2,0:0:0
376,272,60173,2,0,B|96:272,1,280
96,72,62852,5,8,0:0:0
216,72,63387,1,8,0:0:0
352,72,63923,1,8,0:0:0
432,304,64459,2,0,B|432:216,1,83.9999974365235
352,192,64995,2,0,B|352:288,1,83.9999974365235
272,312,65530,2,0,B|272:216,2,83.9999974365235
80,80,66602,6,0,B|80:168,1,83.9999974365235
160,192,67138,2,0,B|160:96,1,83.9999974365235,8|0,0:0|0:0,0:0:0
240,72,67673,2,0,B|240:168,2,83.9999974365235,8|0|8,0:0|0:0|0:0,0:0:0
464,72,68745,1,0,0:0:0
464,72,69012,1,0,0:0:0
416,312,69548,1,2,0:0:0
96,312,70084,1,0,0:0:0
48,72,70620,1,2,0:0:0
120,72,70887,1,0,0:0:0
192,72,71155,1,0,0:0:0
368,128,71423,6,0,B|280:128,1,83.9999974365235,8|0,0:0|0:0,0:0:0
448,224,71959,2,0,B|480:248|480:312|456:344,2,125.999996154785,2|0|2,0:0|0:0|0:0,0:0:0
352,272,73030,1,0,0:0:0
256,320,73298,1,0,0:0:0
160,272,73566,2,0,B|160:168,1,83.9999974365235,8|0,0:0|0:0,0:0:0
56,184,74102,2,0,B|24:160|24:96|48:64,2,125.999996154785,2|2|2,0:0|0:0|0:0,0:0:0
32,288,75173,5,0,0:0:0
32,288,75441,1,2,0:0:0
128,80,75977,1,0,0:0:0
384,80,76512,1,2,0:0:0
480,288,77048,1,0,0:0:0
480,288,77316,2,0,B|424:304|368:296|344:240|328:184|400:136|440:128|480:168,1,315.000012016297
64,144,79727,5,0,0:0:0
128,176,79995,2,0,B|128:80,1,83.9999974365235,8|0,0:0|0:0,0:0:0
192,208,80530,2,0,B|192:120,1,83.9999974365235
256,240,81066,2,0,B|256:152,1,83.9999974365235,8|0,0:0|0:0,0:0:0
448,144,81870,5,0,0:0:0
384,176,82138,2,0,B|384:80,1,83.9999974365235,8|0,0:0|0:0,0:0:0
320,208,82673,2,0,B|320:120,1,83.9999974365235
256,240,83209,2,0,B|256:152,1,83.9999974365235,8|0,0:0|0:0,0:0:0
112,64,84280,6,0,B|80:152,1,83.9999974365235,8|0,0:0|0:0,0:0:0
216,152,85352,2,0,B|192:248,1,83.9999974365235,8|0,0:0|0:0,0:0:0
296,152,86423,2,0,B|320:248,1,83.9999974365235,8|0,0:0|0:0,0:0:0
400,64,87495,2,0,B|432:152,1,83.9999974365235,8|0,0:0|0:0,0:0:0
432,320,88566,6,0,B|432:224,1,83.9999974365235,8|0,0:0|0:0,0:0:0
312,192,89102,2,0,B|312:288,1,83.9999974365235
184,320,89637,2,0,B|184:224,1,83.9999974365235,8|0,0:0|0:0,0:0:0
64,56,90173,1,0,0:0:0
184,56,90709,1,8,0:0:0
184,56,90977,1,0,0:0:0
304,56,91512,1,0,0:0:0
304,56,91780,1,8,0:0:0
48,336,92316,5,0,0:0:0
64,224,92584,1,0,0:0:0
152,224,92852,1,8,0:0:0
176,336,93120,1,0,0:0:0
272,336,93387,1,0,0:0:0
272,336,93655,1,0,0:0:0
384,232,94191,1,0,0:0:0
384,232,94459,1,0,0:0:0
256,40,94727,5,0,0:0:0
256,72,94861,1,0,0:0:0
256,344,95262,1,0,0:0:0
256,312,95396,1,0,0:0:0
408,192,95798,1,0,0:0:0
376,192,95932,1,0,0:0:0
104,192,96333,1,0,0:0:0
136,192,96467,1,0,0:0:0
176,192,96602,6,0,B|176:88,1,83.9999974365235
256,160,97137,2,0,B|256:280,1,105.000004005432,8|0,0:0|0:0,0:0:0
376,312,97673,2,0,B|416:208|368:104,1,210.000008010865,0|8,0:0|0:0,0:0:0
369,107,98477,1,0,0:0:0
272,72,98745,1,0,0:0:0
232,168,99012,1,0,0:0:0
352,224,99280,2,0,B|352:336|208:344,1,210.000008010865,8|0,0:0|0:0,0:0:0
209,343,100084,1,0,0:0:0
112,312,100352,1,8,0:0:0
112,312,100486,1,0,0:0:0
48,192,100887,6,0,B|80:80,1,105.000004005432
192,32,101423,2,0,B|216:168,1,105.000004005432,8|0,0:0|0:0,0:0:0
408,64,101959,2,0,B|408:144|384:216|296:216,1,210.000008010865,0|8,0:0|0:0,0:0:0
300,215,102762,1,0,0:0:0
224,96,103030,2,0,B|136:32,1,105.000004005432
136,144,103566,2,0,B|16:112,1,105.000004005432,8|0,0:0|0:0,0:0:0
136,240,104102,2,0,B|16:272,1,105.000004005432
208,320,104637,1,8,0:0:0
208,320,104771,1,0,0:0:0
368,64,105173,5,0,0:0:0
384,64,105441,1,0,0:0:0
320,192,105709,1,8,0:0:0
344,192,105977,1,0,0:0:0
264,320,106245,1,0,0:0:0
296,320,106780,2,0,B|408:320,1,105.000004005432,8|0,0:0|0:0,0:0:0
448,192,107316,1,0,0:0:0
352,192,107584,1,0,0:0:0
256,192,107852,1,8,0:0:0
160,192,108120,1,0,0:0:0
56,192,108387,2,0,B|176:192,1,105.000004005432
256,192,108923,1,8,0:0:0
256,192,109057,1,0,0:0:0
400,328,109459,5,0,0:0:0
432,232,109727,1,0,0:0:0
344,32,109995,1,8,0:0:0
312,112,110262,1,0,0:0:0
192,192,110530,1,0,0:0:0
208,192,111066,2,0,B|320:192,1,105.000004005432,8|0,0:0|0:0,0:0:0
288,288,111602,2,0,B|176:288,1,105.000004005432
288,96,112137,2,0,B|176:96,1,105.000004005432,8|0,0:0|0:0,0:0:0
96,192,112673,1,2,0:0:0
88,224,112807,1,0,0:0:0
176,256,113075,1,2,0:0:0
160,296,113209,1,0,0:0:0
256,192,113477,1,2,0:0:0
256,160,113611,1,0,0:0:0
256,128,113745,6,0,B|128:32,2,157.500006008148,2|0|2,0:0|0:0|0:0,0:0:0
256,256,114816,2,0,B|384:352,2,157.500006008148,2|0|2,0:0|0:0|0:0,0:0:0
64,344,115887,2,0,B|64:232,1,105.000004005432,2|0,0:0|0:0,0:0:0
64,208,116289,2,0,B|64:88,1,105.000004005432
64,64,116691,1,2,0:0:0
448,40,116959,2,0,B|448:152,1,105.000004005432,2|0,0:0|0:0,0:0:0
448,176,117361,2,0,B|448:296,1,105.000004005432
448,320,117763,1,2,0:0:0
80,320,118298,5,0,0:0:0
120,304,118566,1,2,0:0:0
160,288,118834,1,0,0:0:0
200,272,119102,1,2,0:0:0
232,256,119370,1,0,0:0:0
264,240,119637,1,2,0:0:0
296,224,119905,1,2,0:0:0
360,96,120441,1,0,0:0:0
232,96,120977,1,2,0:0:0
232,96,121245,1,0,0:0:0
232,168,121512,1,2,0:0:0
360,168,122048,1,0,0:0:0
424,304,122316,5,2,0:0:0
424,304,122450,1,0,0:0:0
256,304,122718,1,0,0:0:0
256,304,122852,1,0,0:0:0
88,304,123120,1,2,0:0:0
56,304,123387,2,0,B|56:184,1,105.000004005432,2|0,0:0|0:0,0:0:0
88,200,123789,2,0,B|88:88,1,105.000004005432
112,80,124191,1,2,0:0:0
312,48,124459,5,2,0:0:0
344,56,124593,1,0,0:0:0
344,96,124861,1,0,0:0:0
312,112,124995,1,0,0:0:0
312,152,125262,1,2,0:0:0
344,168,125530,2,0,B|344:280,1,105.000004005432,2|0,0:0|0:0,0:0:0
312,304,125932,1,0,0:0:0
280,336,126066,2,0,B|168:336,1,105.000004005432,0|2,0:0|0:0,0:0:0
64,80,126870,5,2,0:0:0
128,112,127137,2,0,B|128:224,1,105.000004005432
192,256,127673,2,0,B|192:144,1,105.000004005432
256,112,128209,2,0,B|256:240,1,105.000004005432,0|0,0:0|0:0,0:0:0
360,312,129012,1,2,0:0:0
392,288,129280,1,0,0:0:0
424,264,129548,1,2,0:0:0
360,72,130084,1,2,0:0:0
392,96,130352,1,0,0:0:0
424,120,130620,1,2,0:0:0
104,336,131155,5,0,0:0:0
184,304,131691,1,0,0:0:0
272,280,132227,1,0,0:0:0
368,256,132762,1,0,0:0:0
368,160,133030,2,0,B|368:48,1,105.000004005432
272,96,133566,2,0,B|272:32,1,52.5000020027161
168,160,134102,2,0,B|168:40,1,105.000004005432
48,96,134637,2,0,B|48:32,1,52.5000020027161
40,320,135441,5,0,0:0:0
120,320,135977,1,0,0:0:0
200,320,136512,1,0,0:0:0
272,320,137048,1,0,0:0:0
352,192,137316,1,0,0:0:0
360,160,137584,1,0,0:0:0
256,160,137852,1,0,0:0:0
264,120,137986,1,0,0:0:0
160,136,138387,1,0,0:0:0
168,96,138655,1,0,0:0:0
64,104,138923,1,0,0:0:0
72,64,139057,1,0,0:0:0
120,336,139727,5,0,0:0:0
120,336,139861,1,0,0:0:0
208,272,140262,1,0,0:0:0
208,272,140396,1,0,0:0:0
304,272,140798,1,0,0:0:0
304,272,140932,1,0,0:0:0
392,336,141334,1,0,0:0:0
392,336,141468,1,0,0:0:0
120,48,141602,5,0,0:0:0
104,72,141870,1,0,0:0:0
208,112,142137,1,0,0:0:0
192,144,142271,1,0,0:0:0
304,112,142673,1,0,0:0:0
320,144,142941,1,0,0:0:0
392,48,143209,1,0,0:0:0
408,72,143343,1,0,0:0:0
72,328,144012,5,0,0:0:0
152,288,144146,1,0,0:0:0
440,328,144548,5,0,0:0:0
304,288,144682,1,0,0:0:0
440,56,145084,5,0,0:0:0
360,96,145218,1,0,0:0:0
72,56,145620,5,0,0:0:0
208,96,145754,1,0,0:0:0
256,192,145887,12,0,148030,0:0:0
80,104,165709,6,0,B|80:224,1,105.000004005432,8|0,0:0|0:0,0:0:0
152,152,166245,2,0,B|152:264,1,105.000004005432
224,208,166780,2,0,B|224:320,1,105.000004005432,8|0,0:0|0:0,0:0:0
432,104,167852,6,0,B|432:224,1,105.000004005432,8|0,0:0|0:0,0:0:0
360,152,168388,2,0,B|360:264,1,105.000004005432
288,208,168923,2,0,B|288:320,1,105.000004005432,8|0,0:0|0:0,0:0:0
152,64,169995,5,8,0:0:0
48,112,170262,1,0,0:0:0
168,96,170530,1,0,0:0:0
96,176,170798,1,0,0:0:0
200,112,171066,1,8,0:0:0
176,232,171334,1,0,0:0:0
432,304,172003,5,0,0:0:0
432,296,172137,1,8,0:0:0
328,264,172539,1,0,0:0:0
328,256,172673,1,0,0:0:0
224,304,173075,1,0,0:0:0
224,296,173209,1,8,0:0:0
112,264,173611,1,0,0:0:0
112,256,173745,1,0,0:0:0
88,48,174012,5,0,0:0:0
136,96,174280,1,8,0:0:0
176,48,174548,1,0,0:0:0
224,96,174816,1,0,0:0:0
272,48,175084,1,0,0:0:0
320,96,175352,1,8,0:0:0
360,48,175620,1,0,0:0:0
424,336,176155,5,0,0:0:0
376,288,176423,1,8,0:0:0
336,336,176691,1,0,0:0:0
288,288,176959,1,0,0:0:0
240,336,177227,1,0,0:0:0
192,288,177495,1,8,0:0:0
152,336,177763,1,0,0:0:0
256,32,178298,5,0,0:0:0
256,64,178834,1,2,0:0:0
256,96,179370,1,0,0:0:0
256,128,179905,1,2,0:0:0
88,264,180173,5,4,0:0:0
96,272,180307,1,0,0:0:0
104,280,180441,1,0,0:0:0
208,336,180709,1,4,0:0:0
216,328,180843,1,0,0:0:0
224,320,180977,1,0,0:0:0
296,248,181245,1,4,0:0:0
304,256,181378,1,0,0:0:0
312,264,181512,1,0,0:0:0
320,264,181646,1,0,0:0:0
328,272,181780,1,0,0:0:0
336,280,181914,1,0,0:0:0
344,288,182048,1,0,0:0:0
40,40,182316,6,0,B|168:40,1,105.000004005432
472,88,182852,2,0,B|344:88,1,105.000004005432,8|0,0:0|0:0,0:0:0
40,152,183387,1,0,0:0:0
72,152,183923,2,0,B|72:272,1,105.000004005432,8|0,0:0|0:0,0:0:0
256,312,184459,2,0,B|256:168,1,105.000004005432
440,152,184995,1,8,0:0:0
472,152,185530,1,0,0:0:0
472,152,186066,1,8,0:0:0
416,312,186602,5,0,0:0:0
384,312,186870,1,0,0:0:0
352,312,187137,1,8,0:0:0
320,312,187405,1,0,0:0:0
280,312,187673,1,0,0:0:0
248,312,188209,2,0,B|136:312,1,105.000004005432,8|0,0:0|0:0,0:0:0
208,64,188745,1,0,0:0:0
128,240,189012,1,0,0:0:0
304,320,189280,1,8,0:0:0
384,144,189816,1,0,0:0:0
208,64,190352,1,8,0:0:0
40,344,190887,5,0,0:0:0
168,296,191155,1,0,0:0:0
472,240,191423,1,8,0:0:0
344,192,191691,2,0,B|224:192,1,105.000004005432
216,192,192495,2,0,B|104:192,1,105.000004005432,8|0,0:0|0:0,0:0:0
64,48,193030,1,0,0:0:0
152,48,193298,1,0,0:0:0
152,48,193566,1,8,0:0:0
152,272,193834,1,0,0:0:0
232,272,194102,1,0,0:0:0
304,272,194637,1,8,0:0:0
352,64,195173,6,0,B|464:64,1,105.000004005432
400,160,195709,2,0,B|272:160,1,105.000004005432,8|0,0:0|0:0,0:0:0
352,272,196245,1,0,0:0:0
352,304,196780,1,8,0:0:0
352,344,197048,1,0,0:0:0
152,344,197316,1,0,0:0:0
152,304,197584,1,0,0:0:0
152,264,197852,1,8,0:0:0
152,224,198120,1,0,0:0:0
152,184,198387,1,0,0:0:0
256,192,198923,1,8,0:0:0
456,40,199459,6,0,B|328:40,1,105.000004005432,2|0,0:0|0:0,0:0:0
304,96,199861,2,0,B|272:144|312:208,1,105.000004005432
360,232,200262,1,0,0:0:0
56,40,200530,2,0,B|184:40,1,105.000004005432,2|0,0:0|0:0,0:0:0
208,96,200932,2,0,B|240:144|200:208,1,105.000004005432
152,232,201333,1,0,0:0:0
256,336,201602,1,2,0:0:0
256,328,201736,1,0,0:0:0
256,248,202003,1,0,0:0:0
256,240,202137,1,0,0:0:0
256,144,202405,1,0,0:0:0
256,56,202673,1,2,0:0:0
256,48,202807,1,0,0:0:0
256,144,203075,1,0,0:0:0
256,136,203209,1,0,0:0:0
256,248,203477,1,0,0:0:0
32,192,204012,5,0,0:0:0
40,200,204280,1,8,0:0:0
136,200,204548,1,0,0:0:0
144,192,204816,1,2,0:0:0
232,200,205084,1,0,0:0:0
240,208,205352,1,8,0:0:0
336,200,205620,1,0,0:0:0
344,192,205887,2,0,B|504:192,2,157.500006008148,2|0|0,0:0|0:0|0:0,0:0:0
168,192,206959,2,0,B|8:192,2,157.500006008148,2|0|0,0:0|0:0|0:0,0:0:0
48,336,208030,5,4,0:0:0
112,296,208164,1,0,0:0:0
120,296,208432,1,0,0:0:0
184,256,208566,1,0,0:0:0
192,256,208834,1,2,0:0:0
200,256,209102,2,0,B|176:192|208:152,1,105.000004005432,2|0,0:0|0:0,0:0:0
288,160,209503,2,0,B|312:104|280:48,1,105.000004005432
208,56,209905,1,2,0:0:0
112,160,210173,1,2,0:0:0
112,168,210575,1,0,0:0:0
112,176,210977,1,2,0:0:0
112,272,211245,1,2,0:0:0
112,280,211378,1,0,0:0:0
112,288,211512,1,0,0:0:0
112,296,211646,1,0,0:0:0
112,304,211780,1,0,0:0:0
112,312,211914,1,0,0:0:0
112,320,212048,1,2,0:0:0
211,328,212584,5,0,0:0:0
219,331,212852,1,8,0:0:0
392,236,213120,1,0,0:0:0
395,228,213388,1,2,0:0:0
300,55,213655,1,0,0:0:0
292,52,213923,1,8,0:0:0
119,147,214191,1,2,0:0:0
116,155,214459,1,0,0:0:0
256,328,214727,1,0,0:0:0
256,320,214861,1,0,0:0:0
256,320,214995,2,0,B|256:144,2,157.500006008148
368,296,217003,6,0,B|368:200,1,78.7500030040742
368,144,217807,2,0,B|368:48,1,78.7500030040742
144,16,218745,5,0,0:0:0
144,88,219146,2,0,B|144:184,1,78.7500030040742
144,240,219950,2,0,B|144:336,1,78.7500030040742
440,320,220887,5,0,0:0:0
328,320,221289,1,0,0:0:0
320,320,221691,1,0,0:0:0
240,320,222093,1,0,0:0:0
96,320,222495,1,8,0:0:0
96,56,223030,5,0,0:0:0
200,56,223432,1,0,0:0:0
304,56,223834,1,0,0:0:0
208,56,224236,1,0,0:0:0
312,56,224637,1,8,0:0:0
64,200,225173,5,0,0:0:0
72,200,225307,1,0,0:0:0
184,200,225575,1,0,0:0:0
192,200,225709,1,0,0:0:0
320,200,225977,1,0,0:0:0
328,200,226111,1,0,0:0:0
440,200,226378,1,0,0:0:0
448,200,226512,1,0,0:0:0
320,200,226780,1,8,0:0:0
256,352,227316,5,0,0:0:0
256,344,227450,1,0,0:0:0
256,264,227718,1,0,0:0:0
256,256,227852,1,0,0:0:0
256,32,228120,1,0,0:0:0
256,40,228254,1,0,0:0:0
256,120,228522,1,0,0:0:0
256,128,228656,1,0,0:0:0
256,136,228923,1,8,0:0:0
80,328,229459,5,0,0:0:0
80,320,229593,1,0,0:0:0
184,256,229861,1,0,0:0:0
184,248,229995,1,0,0:0:0
184,240,230262,1,0,0:0:0
184,232,230396,1,0,0:0:0
304,176,230664,1,0,0:0:0
304,168,230798,1,0,0:0:0
304,160,231066,1,8,0:0:0
464,312,231602,5,0,0:0:0
384,312,231736,1,0,0:0:0
376,312,232003,1,0,0:0:0
296,312,232137,1,0,0:0:0
288,312,232405,1,0,0:0:0
200,312,232539,1,0,0:0:0
192,312,232807,1,0,0:0:0
112,312,232941,1,0,0:0:0
104,312,233209,1,8,0:0:0
256,192,233745,12,0,236423,0:0:0
