osu file format v10

[General]
AudioFilename: Song of Cao Ni Ma.mp3
AudioLeadIn: 0
PreviewTime: 10971
Countdown: 0
SampleSet: Soft
StackLeniency: 0.7
Mode: 0
LetterboxInBreaks: 0

[Editor]
DistanceSpacing: 1.2
BeatDivisor: 4
GridSize: 4

[Metadata]
Title:Song of Cao Ni Ma
TitleUnicode:Song of Cao Ni Ma
Artist:Yu Lin Xian
ArtistUnicode:Yu Lin Xian
Creator:popner
Version:Normal
Source:Vocaloid
Tags:luo tian yi luotianyi tianyi chi huo chihuo caonima Vocaloid China Lan Jing Ling Zhi Ge The Smurfs
BeatmapID:171080
BeatmapSetID:55951

[Difficulty]
HPDrainRate:3
CircleSize:3
OverallDifficulty:4
ApproachRate:5
SliderMultiplier:1.3
SliderTickRate:1

[Events]
//Background and Video events
0,0,"BG.jpg"
//Break Periods
//Storyboard Layer 0 (Background)
//Storyboard Layer 1 (Fail)
//Storyboard Layer 2 (Pass)
//Storyboard Layer 3 (Foreground)
//Storyboard Sound Samples
//Background Colour Transformations
3,100,163,162,255

[TimingPoints]
133,471.220224772047,4,2,1,80,1,0
26050,-100,4,2,1,70,0,0
34060,-100,4,2,1,80,0,0
40657,-100,4,2,1,40,0,0
41600,-100,4,2,1,80,0,0
66103,-100,4,2,1,70,0,0
73643,-100,4,2,1,80,0,0

[Colours]
Combo1 : 98,114,255
Combo2 : 209,102,255
Combo3 : 4,230,213
SliderBorder : 255,255,255

[HitObjects]
256,192,2017,2,0,B|216:200|180:180,2,65,2|0|10,0:0|0:0|0:0,0:0:0
332,176,2724,1,0,0:0:0
400,216,2960,2,0,B|440:272|420:340,1,130,2|10,0:0|0:0,0:0:0
348,364,3667,2,0,B|284:352,1,65,0|2,0:0|0:0,0:0:0
228,296,4138,5,0,0:0:0
152,276,4373,1,10,0:0:0
76,292,4609,1,0,0:0:0
20,348,4845,2,0,B|4:284|16:216,1,130,2|10,0:0|0:0,0:0:0
44,144,5552,1,0,0:0:0
108,96,5787,5,2,0:0:0
260,124,6258,1,2,0:0:0
116,188,6730,1,2,0:0:0
196,56,7201,1,2,0:0:0
216,212,7672,1,0,0:0:0
256,192,7908,12,2,9557,0:0:0
160,192,11206,6,0,B|196:192|224:176,1,65,0|2,0:0|0:0,0:0:0
284,128,11677,1,0,0:0:0
300,204,11913,2,0,B|300:236|316:268,1,65,10|0,0:0|0:0,0:0:0
392,280,12384,2,0,B|392:248|376:216,2,65,2|0|10,0:0|0:0|0:0,0:0:0
344,340,13091,1,0,0:0:0
264,340,13327,6,0,B|232:328|199:331,1,65,2|0,0:0|0:0,0:0:0
140,280,13798,2,0,B|108:284|75:276,1,65,10|0,0:0|0:0,0:0:0
24,220,14269,2,0,B|60:160|40:96,1,130,2|10,0:0|0:0,0:0:0
172,36,15212,6,0,B|196:64|228:68,1,65,2|0,0:0|0:0,0:0:0
292,112,15683,2,0,B|268:140|236:144,1,65,10|0,0:0|0:0,0:0:0
160,164,16154,2,0,B|172:208|224:236|268:216,2,130,2|10|2,0:0|0:0|0:0,0:0:0
144,88,17332,5,0,0:0:0
88,140,17568,2,0,B|64:160|28:160,1,65,10|0,0:0|0:0,0:0:0
24,240,18039,2,0,B|92:240|148:196,1,130,2|10,0:0|0:0,0:0:0
244,300,18981,6,0,B|280:308|308:297,1,65,2|0,0:0|0:0,0:0:0
376,260,19453,2,0,B|388:232|378:195,1,65,10|0,0:0|0:0,0:0:0
336,132,19924,2,0,B|304:124|272:136,1,65,2|0,0:0|0:0,0:0:0
196,124,20395,2,0,B|184:96|193:59,1,65,10|0,0:0|0:0,0:0:0
264,32,20866,6,0,B|332:20|400:44,1,130,2|10,0:0|0:0,0:0:0
468,180,21809,2,0,B|456:248|392:280,1,130,2|10,0:0|0:0,0:0:0
240,248,22751,6,0,B|176:232|112:248,1,130,2|10,0:0|0:0,0:0:0
64,184,23458,1,0,0:0:0
108,120,23694,2,0,B|172:136|236:120,1,130,2|10,0:0|0:0,0:0:0
372,192,24636,6,0,B|440:192,2,65,2|2|2,0:0|0:0|0:0,0:0:0
212,192,25578,1,2,0:0:0
96,292,26050,1,2,0:0:0
240,352,26521,6,0,B|304:334|340:274,1,130,2|0,0:0|0:0,0:0:0
332,196,27228,1,0,0:0:0
256,172,27463,2,0,B|191:189|155:249,1,130,10|0,0:0|0:0,0:0:0
132,324,28170,1,0,0:0:0
80,268,28406,6,0,B|40:212|52:140,2,130,2|0|10,0:0|0:0|0:0,0:0:0
204,172,29819,1,2,0:0:0
332,80,30291,6,0,B|372:136|360:208,1,130,2|0,0:0|0:0,0:0:0
296,248,30997,1,0,0:0:0
220,236,31233,2,0,B|180:180|192:108,1,130,10|0,0:0|0:0,0:0:0
216,40,31940,1,0,0:0:0
140,56,32175,6,0,B|72:64|12:32,2,130,2|0|10,0:0|0:0|0:0,0:0:0
288,12,33589,1,2,0:0:0
416,100,34060,6,0,B|428:132|428:168,1,65,2|0,0:0|0:0,0:0:0
372,216,34532,2,0,B|371:247|383:279,1,65,10|0,0:0|0:0,0:0:0
436,336,35003,2,0,B|401:332|373:348,1,65,2|0,0:0|0:0,0:0:0
296,348,35474,2,0,B|268:364|233:360,1,65,10|0,0:0|0:0,0:0:0
252,284,35945,6,0,B|252:220|220:156,1,130,2|10,0:0|0:0,0:0:0
244,84,36652,2,0,B|180:64,1,65,0|2,0:0|0:0,0:0:0
124,12,37123,2,0,B|64:32,1,65,0|10,0:0|0:0,0:0:0
84,176,37830,6,0,B|112:236|112:304,1,130,2|10,0:0|0:0,0:0:0
184,336,38537,1,0,0:0:0
244,288,38773,2,0,B|280:288|308:276,1,65,2|0,0:0|0:0,0:0:0
324,200,39244,2,0,B|288:200|260:212,1,65,2|0,0:0|0:0,0:0:0
216,148,39715,2,0,B|272:117|352:134|404:101,1,195,2|2,0:0|0:0,0:0:0
460,48,40657,1,6,0:0:0
440,260,41600,5,2,0:0:0
368,292,41835,2,0,B|312:324|240:300,1,130
268,228,42542,2,0,B|198:204|142:236,1,130,2|10,0:0|0:0,0:0:0
60,104,43485,5,2,0:0:0
132,72,43720,2,0,B|188:40|260:64,1,130
232,136,44427,2,0,B|301:159|357:127,1,130,2|10,0:0|0:0,0:0:0
460,244,45370,5,2,0:0:0
340,344,45841,1,2,0:0:0
236,228,46312,1,2,0:0:0
357,127,46783,1,2,0:0:0
256,192,47255,12,2,49139,0:0:0
364,204,51024,6,0,B|380:268,1,65,2|0,0:0|0:0,0:0:0
300,272,51496,2,0,B|268:328,1,65,10|0,0:0|0:0,0:0:0
200,288,51967,2,0,B|139:308|71:304,1,130,2|10,0:0|0:0,0:0:0
0,288,52674,1,0,0:0:0
52,228,52909,6,0,B|60:192|128:172|136:132,1,130,2|10,0:0|0:0,0:0:0
172,64,53616,1,0,0:0:0
212,132,53852,2,0,B|220:171|288:191|296:227,1,130,2|10,0:0|0:0,0:0:0
452,212,54795,6,0,B|484:232|492:264,2,65,2|0|10,0:0|0:0|0:0,0:0:0
416,280,55501,1,0,0:0:0
348,320,55737,2,0,B|288:348|220:340,1,130,2|10,0:0|0:0,0:0:0
88,260,56679,6,0,B|56:244|20:252,2,65,2|0|10,0:0|0:0|0:0,0:0:0
160,228,57386,1,0,0:0:0
212,168,57621,2,0,B|240:112|228:40,1,130,2|10,0:0|0:0,0:0:0
76,32,58564,6,0,B|20:72,1,65,2|0,0:0|0:0,0:0:0
56,140,59035,2,0,B|24:196,1,65,10|0,0:0|0:0,0:0:0
80,252,59506,2,0,B|76:320,1,65,2|0,0:0|0:0,0:0:0
156,316,59977,2,0,B|196:372,1,65,10|0,0:0|0:0,0:0:0
268,340,60449,6,0,B|332:364,2,65,2|0|10,0:0|0:0|0:0,0:0:0
312,276,61156,1,0,0:0:0
236,268,61392,2,0,B|180:308|112:300,2,130,2|10|2,0:0|0:0|0:0,0:0:0
288,212,62569,5,0,0:0:0
340,156,62805,2,0,B|372:140|404:140,1,65,10|0,0:0|0:0,0:0:0
480,148,63276,2,0,B|504:216|476:276,1,130,2|10,0:0|0:0,0:0:0
338,347,64218,6,0,B|212:392|86:329,1,260,2|2,0:0|0:0,0:0:0
144,180,65632,1,2,0:0:0
268,272,66104,6,0,B|300:216|302:148,1,130,2|0,0:0|0:0,0:0:0
301,69,66811,1,0,0:0:0
222,70,67046,2,0,B|158:70|98:102,1,130,10|0,0:0|0:0,0:0:0
31,144,67753,1,0,0:0:0
72,210,67988,6,0,B|103:265|161:301,3,130,2|0|10|0,0:0|0:0|0:0|0:0,0:0:0
320,292,69873,6,0,B|288:236|230:200,1,130,2|0,0:0|0:0,0:0:0
176,144,70580,1,0,0:0:0
252,124,70816,2,0,B|315:124|375:92,1,130,10|0,0:0|0:0,0:0:0
452,68,71522,1,0,0:0:0
436,144,71758,6,0,B|404:199|401:267,3,130,2|0|10|0,0:0|0:0|0:0|0:0,0:0:0
260,336,73643,6,0,B|228:344|196:340,1,65,2|0,0:0|0:0,0:0:0
196,260,74114,2,0,B|164:250|138:231,1,65,10|0,0:0|0:0,0:0:0
164,156,74585,2,0,B|141:132|128:102,2,65,2|0|10,0:0|0:0|0:0,0:0:0
240,172,75293,1,0,0:0:0
316,196,75528,6,0,B|338:219|351:249,2,65,2|0|10,0:0|0:0|0:0,0:0:0
296,120,76235,1,0,0:0:0
220,100,76471,2,0,B|156:84|112:32,1,130,2|10,0:0|0:0,0:0:0
40,148,77413,6,0,B|104:164|148:216,1,130,2|10,0:0|0:0,0:0:0
184,284,78119,1,0,0:0:0
244,332,78355,2,0,B|276:352|308:352,2,65,2|0|10,0:0|0:0|0:0,0:0:0
256,256,79062,1,0,0:0:0
308,196,79297,2,0,B|372:112|284:4|188:56,1,260,2|2,0:0|0:0,0:0:0
124,196,80711,6,0,B|188:184|236:134,1,130,2|2,0:0|0:0,0:0:0
