osu file format v10

[General]
AudioFilename: Song of Cao Ni Ma.mp3
AudioLeadIn: 0
PreviewTime: 10971
Countdown: 0
SampleSet: Soft
StackLeniency: 0.7
Mode: 0
LetterboxInBreaks: 0

[Editor]
DistanceSpacing: 1.2
BeatDivisor: 4
GridSize: 4

[Metadata]
Title:Song of Cao Ni Ma
TitleUnicode:Song of Cao Ni Ma
Artist:Yu Lin Xian
ArtistUnicode:Yu Lin Xian
Creator:popner
Version:Hard
Source:Vocaloid
Tags:luo tian yi luotianyi tianyi chi huo chihuo caonima Vocaloid China Lan Jing Ling Zhi Ge The Smurfs
BeatmapID:170544
BeatmapSetID:55951

[Difficulty]
HPDrainRate:5
CircleSize:4
OverallDifficulty:6
ApproachRate:7
SliderMultiplier:1.6
SliderTickRate:1

[Events]
//Background and Video events
0,0,"BG.jpg"
//Break Periods
//Storyboard Layer 0 (Background)
//Storyboard Layer 1 (Fail)
//Storyboard Layer 2 (Pass)
//Storyboard Layer 3 (Foreground)
//Storyboard Sound Samples
//Background Colour Transformations
3,100,163,162,255

[TimingPoints]
133,471.220224772047,4,2,1,80,1,0
25932,-100,4,2,1,40,0,0
26050,-100,4,2,1,70,0,0
26403,-100,4,2,1,35,0,0
26521,-100,4,2,1,70,0,0
30173,-100,4,2,1,35,0,0
30291,-100,4,2,1,70,0,0
34060,-100,4,2,1,80,0,0
40657,-100,4,2,1,40,0,0
41364,-100,4,2,1,80,0,0
65632,-100,4,2,1,70,0,0
65986,-100,4,2,1,35,0,0
66103,-100,4,2,1,70,0,0
73643,-100,4,2,1,80,0,0
79297,-133.333333333333,4,2,1,80,0,0
80711,-100,4,2,1,80,0,0

[Colours]
Combo1 : 98,114,255
Combo2 : 209,102,255
Combo3 : 4,230,213
SliderBorder : 255,255,255

[HitObjects]
256,192,2017,2,0,B|264:232|244:268,2,80,2|0|10,0:0|0:0|0:0,0:0:0
220,104,2724,1,0,0:0:0
140,48,2960,2,0,B|96:120|136:200,1,160,2|10,0:0|0:0,0:0:0
88,324,3667,6,0,B|48:340,2,40,0|0|2,0:0|0:0|0:0,0:0:0
184,320,4138,1,0,0:0:0
280,316,4373,2,0,B|316:328|360:328,1,80,10|0,0:0|0:0,0:0:0
412,248,4845,2,0,B|332:244|252:224,1,160,2|10,0:0|0:0,0:0:0
168,128,5552,6,0,B|152:92,2,40,0|0|2,0:0|0:0|0:0,0:0:0
468,196,6258,1,2,0:0:0
240,96,6730,1,2,0:0:0
396,228,7201,1,2,0:0:0
256,192,7672,12,2,9557,0:0:0
288,136,11206,6,0,B|248:128,2,40,0|0|2,0:0|0:0|0:0,0:0:0
372,180,11677,1,0,0:0:0
408,268,11913,2,0,B|432:344,1,80,10|0,0:0|0:0,0:0:0
336,328,12384,2,0,B|296:340|256:336,2,80,2|0|10,0:0|0:0|0:0,0:0:0
408,268,13091,1,0,0:0:0
340,200,13327,6,0,B|300:188|260:192,1,80,2|0,0:0|0:0,0:0:0
236,200,13680,1,0,0:0:0
212,208,13798,2,0,B|172:212|132:200,1,80,10|0,0:0|0:0,0:0:0
124,84,14269,2,0,B|138:143|214:152|248:99,1,160,2|10,0:0|0:0,0:0:0
332,52,14976,6,0,B|296:28,2,40,0|0|2,0:0|0:0|0:0,0:0:0
428,64,15447,1,0,0:0:0
372,140,15683,2,0,B|336:168|299:171,1,80,10|0,0:0|0:0,0:0:0
204,156,16154,2,0,B|167:159|131:187,2,80,2|0|10,0:0|0:0|0:0,0:0:0
244,244,16861,6,0,B|280:280,2,40,0|0|2,0:0|0:0|0:0,0:0:0
204,156,17332,1,0,0:0:0
148,76,17568,2,0,B|128:40|84:28,2,80,10|0|2,0:0|0:0|0:0,0:0:0
152,172,18274,2,0,B|172:236|116:264|136:328,1,160
224,292,18981,6,0,B|264:300|304:284,1,80,2|0,0:0|0:0,0:0:0
408,216,19453,2,0,B|368:224|328:208,1,80,10|0,0:0|0:0,0:0:0
224,140,19924,2,0,B|264:124|304:132,1,80,2|0,0:0|0:0,0:0:0
408,64,20395,2,0,B|368:48|328:56,1,80,10|0,0:0|0:0,0:0:0
232,44,20866,5,2,0:0:0
140,72,21102,1,0,0:0:0
76,144,21337,2,0,B|56:180|60:220,1,80,10|0,0:0|0:0,0:0:0
140,276,21809,2,0,B|160:240|156:200,2,80,2|0|10,0:0|0:0|0:0,0:0:0
56,324,22515,5,0,0:0:0
56,324,22633,1,0,0:0:0
56,324,22751,2,0,B|132:296|216:304,1,160,2|10,0:0|0:0,0:0:0
284,240,23458,1,0,0:0:0
304,332,23694,2,0,B|385:339|461:311,1,160,2|10,0:0|0:0,0:0:0
488,220,24400,1,0,0:0:0
484,124,24636,6,0,B|404:36|260:76,1,240,2|0,0:0|0:0,0:0:0
228,164,25578,1,2,0:0:0
52,168,26050,2,0,B|96:208|112:272,1,120,2|0,0:0|0:0,0:0:0
116,296,26521,6,0,B|164:224|248:208,1,160,2|0,0:0|0:0,0:0:0
340,204,27228,1,0,0:0:0
428,240,27463,2,0,B|380:312|296:328,1,160,10|0,0:0|0:0,0:0:0
156,200,28406,6,0,B|84:160|-4:160,2,160,2|0|10,0:0|0:0|0:0,0:0:0
296,332,29819,2,0,B|312:272|368:240,1,120,2|0,0:0|0:0,0:0:0
384,224,30291,6,0,B|456:180|476:96,1,160,2|0,0:0|0:0,0:0:0
396,44,30997,1,0,0:0:0
300,40,31233,2,0,B|228:84|208:168,1,160,10|0,0:0|0:0,0:0:0
308,328,32175,6,0,B|377:298|464:296,2,160,2|0|10,0:0|0:0|0:0,0:0:0
320,232,33354,2,0,B|356:220|400:216,1,80,0|2,0:0|0:0,0:0:0
460,144,33825,5,0,0:0:0
460,144,33943,1,0,0:0:0
460,144,34060,2,0,B|420:148|380:132,2,80,2|0|10,0:0|0:0|0:0,0:0:0
436,52,34767,1,0,0:0:0
340,40,35003,2,0,B|300:56|288:96,2,80,2|0|10,0:0|0:0|0:0,0:0:0
381,132,35710,1,0,0:0:0
308,192,35945,6,0,B|268:208|228:192,1,80,2|0,0:0|0:0,0:0:0
208,184,36299,1,0,0:0:0
184,192,36416,2,0,B|144:208|104:192,1,80,10|0,0:0|0:0,0:0:0
68,280,36888,2,0,B|148:312|228:280,1,160,2|10,0:0|0:0,0:0:0
320,276,37595,5,0,0:0:0
320,276,37712,1,0,0:0:0
320,276,37830,2,0,B|360:292|388:324,1,80,2|0,0:0|0:0,0:0:0
480,316,38301,2,0,B|468:276|484:232,1,80,10|0,0:0|0:0,0:0:0
432,156,38773,1,2,0:0:0
352,104,39008,2,0,B|320:124|276:128,1,80,0|10,0:0|0:0,0:0:0
196,72,39479,2,0,B|228:52|272:48,1,80,0|2,0:0|0:0,0:0:0
256,192,39833,12,6,40657,0:0:0
256,192,41364,6,0,B|296:192,2,40,0|0|2,0:0|0:0|0:0,0:0:0
160,192,41835,2,0,B|112:168|48:216|0:192,1,160,0|0,0:0|0:0,0:0:0
28,100,42542,2,0,B|73:122|137:74|185:98,1,160,2|10,0:0|0:0,0:0:0
272,56,43249,6,0,B|272:16,2,40,0|0|2,0:0|0:0|0:0,0:0:0
272,152,43720,2,0,B|294:197|246:261|270:309,1,160
360,340,44427,2,0,B|336:292|384:228|361:182,1,160,2|10,0:0|0:0,0:0:0
332,92,45135,6,0,B|360:64,2,40,0|0|2,0:0|0:0|0:0,0:0:0
236,76,45606,2,0,B|220:40,2,40,0|0|2,0:0|0:0|0:0,0:0:0
192,160,46077,2,0,B|152:164,2,40,0|0|2,0:0|0:0|0:0,0:0:0
260,228,46548,2,0,B|252:272,2,40,0|0|2,0:0|0:0|0:0,0:0:0
344,184,47019,2,0,B|380:204,2,40,0|0|2,0:0|0:0|0:0,0:0:0
256,192,47372,12,2,49139,0:0:0
256,192,50789,6,0,B|256:148,2,40,0|0|2,0:0|0:0|0:0,0:0:0
272,288,51260,1,0,0:0:0
180,256,51496,2,0,B|144:244|100:248,1,80,10|0,0:0|0:0,0:0:0
152,168,51967,2,0,B|216:128|304:120,1,160,2|10,0:0|0:0,0:0:0
396,148,52674,1,0,0:0:0
444,64,52909,5,2,0:0:0
348,36,53145,1,0,0:0:0
348,36,53263,1,0,0:0:0
348,36,53380,2,0,B|268:28,1,80,10|0,0:0|0:0,0:0:0
180,68,53852,2,0,B|136:132|44:144,1,160,2|10,0:0|0:0,0:0:0
44,48,54559,5,0,0:0:0
68,52,54677,1,0,0:0:0
92,60,54795,2,0,B|128:84|136:124,1,80,2|0,0:0|0:0,0:0:0
172,212,55265,2,0,B|180:252|216:276,1,80,10|0,0:0|0:0,0:0:0
308,308,55737,2,0,B|376:276|468:288,1,160,2|10,0:0|0:0,0:0:0
400,216,56444,5,0,0:0:0
388,196,56562,1,0,0:0:0
376,176,56679,2,0,B|360:136|368:92,2,80,2|0|10,0:0|0:0|0:0,0:0:0
460,128,57386,1,0,0:0:0
440,32,57621,2,0,B|356:16|284:48,1,160,2|10,0:0|0:0,0:0:0
204,104,58329,5,0,0:0:0
204,104,58447,1,0,0:0:0
204,104,58564,2,0,B|124:104,1,80,2|0,0:0|0:0,0:0:0
176,184,59035,2,0,B|256:184,1,80,10|0,0:0|0:0,0:0:0
204,264,59506,2,0,B|124:264,1,80,2|0,0:0|0:0,0:0:0
176,344,59977,2,0,B|256:344,1,80,10|0,0:0|0:0,0:0:0
336,292,60449,5,2,0:0:0
452,268,60684,1,0,0:0:0
372,356,60920,1,10,0:0:0
384,236,61156,1,0,0:0:0
444,340,61392,2,0,B|496:312|512:244,1,120,2|0,0:0|0:0,0:0:0
512,220,61863,1,10,0:0:0
480,128,62098,6,0,B|504:92,2,40,0|0|2,0:0|0:0|0:0,0:0:0
384,144,62569,1,0,0:0:0
288,128,62805,2,0,B|248:116|216:88,1,80,10|0,0:0|0:0,0:0:0
124,104,63276,2,0,B|108:140|100:180,1,80,2|0,0:0|0:0,0:0:0
36,108,63747,2,0,B|8:184|4:264,1,160,10|2,0:0|0:0,0:0:0
256,192,64336,12,2,65161,0:0:0
269,256,65632,6,0,B|333:256|381:220,1,120,2|0,0:0|0:0,0:0:0
384,172,66104,2,0,B|296:168|236:220,1,160,2|0,0:0|0:0,0:0:0
140,208,66811,1,0,0:0:0
76,136,67046,2,0,B|164:140|224:88,1,160,10|0,0:0|0:0,0:0:0
416,112,67988,6,0,B|360:136|360:216|416:240,2,160,2|0|10,0:0|0:0|0:0,0:0:0
492,288,69402,1,0,0:0:0
308,348,69873,6,0,B|228:324|148:348,1,160,2|0,0:0|0:0,0:0:0
96,268,70580,1,0,0:0:0
124,176,70816,2,0,B|204:200|284:176,1,160,10|0,0:0|0:0,0:0:0
128,64,71758,6,0,B|104:8|24:8|0:64,2,160,2|0|10,0:0|0:0|0:0,0:0:0
88,252,73172,1,0,0:0:0
180,284,73408,5,0,0:0:0
180,284,73526,1,0,0:0:0
180,284,73643,2,0,B|220:272|260:276,1,80,2|0,0:0|0:0,0:0:0
344,236,74114,2,0,B|384:244|424:228,1,80,10|0,0:0|0:0,0:0:0
460,140,74585,2,0,B|484:104|484:64,2,80,2|0|10,0:0|0:0|0:0,0:0:0
364,120,75293,1,0,0:0:0
272,96,75528,6,0,B|248:176,1,80,2|0,0:0|0:0,0:0:0
256,196,75882,1,0,0:0:0
262,219,75999,2,0,B|238:299,1,80,10|0,0:0|0:0,0:0:0
156,248,76471,2,0,B|88:204|0:232,1,160,2|10,0:0|0:0,0:0:0
68,300,77178,5,0,0:0:0
84,280,77295,1,0,0:0:0
92,256,77413,2,0,B|100:216|80:180,1,80,2|0,0:0|0:0,0:0:0
24,100,77884,2,0,B|54:126|95:127,1,80,10|0,0:0|0:0,0:0:0
192,120,78355,2,0,B|153:133|132:168,2,80,2|0|10,0:0|0:0|0:0,0:0:0
288,132,79063,1,0,0:0:0
372,172,79297,6,0,B|348:248|232:252|204:336,1,240.000009155274,2|2,0:0|0:0,0:0:0
76,192,80711,2,0,B|96:152|140:152|164:112,1,120,2|0,0:0|0:0,0:0:0
172,88,81182,1,2,0:0:0
