osu file format v10

[General]
AudioFilename: Song of Cao Ni Ma.mp3
AudioLeadIn: 0
PreviewTime: 10971
Countdown: 0
SampleSet: Soft
StackLeniency: 0.7
Mode: 0
LetterboxInBreaks: 0

[Editor]
DistanceSpacing: 1.2
BeatDivisor: 4
GridSize: 4

[Metadata]
Title:Song of Cao Ni Ma
TitleUnicode:Song of Cao Ni Ma
Artist:Yu Lin Xian
ArtistUnicode:Yu Lin Xian
Creator:popner
Version:Easy
Source:Vocaloid
Tags:luo tian yi luotianyi tianyi chi huo chihuo caonima Vocaloid China Lan Jing Ling Zhi Ge The Smurfs
BeatmapID:171079
BeatmapSetID:55951

[Difficulty]
HPDrainRate:1
CircleSize:3
OverallDifficulty:2
ApproachRate:3
SliderMultiplier:1.2
SliderTickRate:1

[Events]
//Background and Video events
0,0,"BG.jpg"
//Break Periods
//Storyboard Layer 0 (Background)
//Storyboard Layer 1 (Fail)
//Storyboard Layer 2 (Pass)
//Storyboard Layer 3 (Foreground)
//Storyboard Sound Samples
//Background Colour Transformations
3,100,163,162,255

[TimingPoints]
133,471.220224772047,4,2,1,80,1,0
26050,-100,4,2,1,70,0,0
34060,-100,4,2,1,80,0,0
40657,-100,4,2,1,40,0,0
41600,-100,4,2,1,80,0,0
65632,-100,4,2,1,70,0,0
73643,-100,4,2,1,80,0,0
79297,-133.333333333333,4,2,1,80,0,0
80711,-100,4,2,1,80,0,0

[Colours]
Combo1 : 98,114,255
Combo2 : 209,102,255
Combo3 : 4,230,213
SliderBorder : 255,255,255

[HitObjects]
184,72,2017,6,0,B|164:128|184:192,1,120,2|10,0:0|0:0,0:0:0
328,184,2960,2,0,B|368:144|440:140,1,120,2|10,0:0|0:0,0:0:0
496,272,3902,6,0,B|456:312|384:316,1,120,2|10,0:0|0:0,0:0:0
392,172,4845,2,0,B|412:116|392:52,1,120,2|10,0:0|0:0,0:0:0
248,52,5787,6,0,B|220:68|160:44|129:59,1,120,2|2,0:0|0:0,0:0:0
208,180,6730,2,0,B|238:164|298:188|326:172,1,120,2|2,0:0|0:0,0:0:0
276,308,7672,2,0,B|208:341|100:281|40:321,2,240,2|2|2,0:0|0:0|0:0,0:0:0
180,72,11442,6,0,B|240:56|300:80,1,120,2|10,0:0|0:0,0:0:0
412,168,12384,1,2,0:0:0
364,304,12855,1,10,0:0:0
220,328,13327,2,0,B|160:344|100:320,1,120,2|10,0:0|0:0,0:0:0
84,180,14269,2,0,B|100:107|168:79|236:115|244:187,1,240,2|2,0:0|0:0,0:0:0
204,328,15683,5,10,0:0:0
164,188,16154,2,0,B|180:115|248:87|316:123|324:195,1,240,2|2,0:0|0:0,0:0:0
284,336,17568,5,10,0:0:0
244,196,18039,2,0,B|260:123|328:95|396:131|404:203,1,240,2|2,0:0|0:0,0:0:0
364,340,19453,5,10,0:0:0
324,204,19924,2,0,B|304:144|340:88,1,120,2|10,0:0|0:0,0:0:0
464,164,20866,2,0,B|484:224|448:280,2,120,2|10|2,0:0|0:0|0:0,0:0:0
200,52,22751,5,2,0:0:0
56,44,23222,1,10,0:0:0
48,188,23694,1,2,0:0:0
192,196,24165,1,10,0:0:0
284,88,24636,6,0,B|348:140|348:248|284:304,1,240,2|2,0:0|0:0,0:0:0
192,196,26050,1,2,0:0:0
97,90,26521,6,0,B|36:144|36:252|100:304,2,240,2|10|2,0:0|0:0|0:0,0:0:0
380,32,29348,5,10,0:0:0
436,164,29819,1,0,0:0:0
424,308,30291,6,0,B|372:372|264:372|210:310,2,240,2|10|2,0:0|0:0|0:0,0:0:0
220,104,33118,5,10,0:0:0
84,156,33589,1,2,0:0:0
80,300,34060,6,0,B|132:336|196:332,2,120,2|10|2,0:0|0:0|0:0,0:0:0
172,188,35474,1,10,0:0:0
312,148,35945,2,0,B|373:144|425:180,1,120,2|10,0:0|0:0,0:0:0
448,324,36888,2,0,B|320:332|224:252,1,240,2|2,0:0|0:0,0:0:0
180,116,38301,5,10,0:0:0
44,68,38773,2,0,B|14:126|50:182|50:182|-1:226|18:290,2,240,2|2|6,0:0|0:0|0:0,0:0:0
312,172,41600,6,0,B|373:191|429:171,1,120,2|10,0:0|0:0,0:0:0
484,304,42542,2,0,B|368:340|248:296,1,240,2|2,0:0|0:0,0:0:0
132,208,43956,1,10,0:0:0
108,68,44427,2,0,B|224:32|344:76,1,240,2|2,0:0|0:0,0:0:0
432,192,45841,5,2,0:0:0
316,280,46312,1,2,0:0:0
232,164,46783,1,2,0:0:0
256,192,47255,12,2,49139,0:0:0
56,272,51025,5,2,0:0:0
56,128,51496,1,10,0:0:0
184,68,51967,2,0,B|196:128|184:188,1,120,2|10,0:0|0:0,0:0:0
284,292,52909,2,0,B|272:232|284:172,1,120,2|10,0:0|0:0,0:0:0
416,116,53852,2,0,B|388:236|416:356,1,240,2|2,0:0|0:0,0:0:0
272,380,55266,5,10,0:0:0
320,244,55736,2,0,B|200:216|80:244,1,240,2|2,0:0|0:0,0:0:0
0,124,57151,5,10,0:0:0
144,112,57621,2,0,B|264:140|384:112,1,240,2|2,0:0|0:0,0:0:0
496,24,59035,5,10,0:0:0
456,164,59506,2,0,B|440:220|447:282,1,120,2|10,0:0|0:0,0:0:0
308,324,60449,2,0,B|324:268|316:205,2,120,2|10|2,0:0|0:0|0:0,0:0:0
168,348,61862,1,10,0:0:0
64,248,62334,6,0,B|112:212|184:204,1,120,2|10,0:0|0:0,0:0:0
308,152,63276,2,0,B|260:116|188:108,1,120,2|10,0:0|0:0,0:0:0
96,212,64218,2,0,B|144:256|204:260|204:260|256:304|316:304,1,240,2|2,0:0|0:0,0:0:0
432,224,65633,1,10,0:0:0
384,88,66104,6,0,B|330:27|222:27|170:91,2,240,2|10|2,0:0|0:0|0:0,0:0:0
204,312,68931,5,2,0:0:0
84,232,69402,1,0,0:0:0
64,88,69874,6,0,B|116:24|224:24|278:86,2,240,2|10|2,0:0|0:0|0:0,0:0:0
280,280,72701,5,2,0:0:0
408,216,73172,1,2,0:0:0
432,76,73643,6,0,B|380:40|316:44,2,120,2|10|2,0:0|0:0|0:0,0:0:0
484,212,75057,1,10,0:0:0
372,304,75528,2,0,B|310:307|258:271,1,120,2|10,0:0|0:0,0:0:0
184,148,76470,2,0,B|172:276|56:340,1,240,2|2,0:0|0:0,0:0:0
0,208,77884,5,10,0:0:0
36,68,78355,2,0,B|104:96|204:24|272:49,2,240,2|2|2,0:0|0:0|0:0,0:0:0
100,196,80711,6,0,B|132:212|184:176|217:186,1,120,2|2,0:0|0:0,0:0:0
