osu file format v13

[General]
AudioFilename: Yowamushi Pedal -pesnya Love Hime (www.imp3.cc).mp3
AudioLeadIn: 0
PreviewTime: -1
Countdown: 1
SampleSet: None
StackLeniency: 0.7
Mode: 0
LetterboxInBreaks: 1
WidescreenStoryboard: 1

[Editor]
DistanceSpacing: 1.6
BeatDivisor: 4
GridSize: 4
TimelineZoom: 1

[Metadata]
Title:Love Hime (Yowamushi Pedal)
TitleUnicode:Love Hime (Yowamushi Pedal)
Artist:
ArtistUnicode:
Creator:Grexi
Version:Normal
Source:
Tags:Yowamushi Pedal
BeatmapID:595041
BeatmapSetID:260445

[Difficulty]
HPDrainRate:5
CircleSize:2
OverallDifficulty:5
ApproachRate:3
SliderMultiplier:0.8
SliderTickRate:1

[Events]
//Background and Video events
0,0,"Onoda.jpg",0,0
//Break Periods
//Storyboard Layer 0 (Background)
//Storyboard Layer 1 (Fail)
//Storyboard Layer 2 (Pass)
//Storyboard Layer 3 (Foreground)
//Storyboard Sound Samples

[TimingPoints]
340.769225798339,337.078651685393,4,2,0,100,1,0
53573,-100,4,2,0,100,0,1

[Colours]
Combo1 : 40,79,79
Combo2 : 192,192,192
Combo3 : 64,128,128
Combo4 : 128,128,128

[HitObjects]
176,88,677,6,0,P|156:128|160:180,3,80,0|0|0|0,0:0|0:0|0:0|0:0,0:0:0:0:
72,192,2026,2,0,P|164:272|212:272,1,160,0|0,0:0|0:0,0:0:0:0:
336,304,3374,2,0,P|356:272|348:228,3,80,0|0|0|0,0:0|0:0|0:0|0:0,0:0:0:0:
424,176,4722,2,0,P|360:88|300:88,1,160,0|0,0:0|0:0,0:0:0:0:
136,72,6071,6,0,P|108:124|120:152,2,80,0|10|0,0:0|0:0|0:0,0:0:0:0:
208,152,7082,2,0,P|232:196|216:228,1,80,10|0,0:0|0:0,0:0:0:0:
128,228,7756,2,0,P|152:308|232:316,1,160,10|10,0:0|0:0,0:0:0:0:
340,200,8767,6,0,P|332:244|312:272,2,80,0|10|0,0:0|0:0|0:0,0:0:0:0:
256,160,9778,2,0,P|252:120|288:108,1,80,10|0,0:0|0:0,0:0:0:0:
376,84,10453,2,0,P|452:112|464:188,1,160,10|10,0:0|0:0,0:0:0:0:
372,288,11464,1,10,0:0:0:0:
372,192,11801,6,0,P|380:136|308:64,1,160,0|10,0:0|0:0,0:0:0:0:
200,72,12812,1,0,0:0:0:0:
144,152,13149,2,0,P|144:212|156:240,2,80,10|0|10,0:0|0:0|0:0,0:0:0:0:
200,72,14160,1,0,0:0:0:0:
292,112,14498,6,0,L|380:96,2,80,10|0|10,0:0|0:0|0:0,0:0:0:0:
336,200,15509,2,0,P|448:272|320:328,1,320,0|10,0:0|0:0,0:0:0:0:
240,272,17194,1,10,0:0:0:0:
148,304,17531,2,0,P|104:308|84:276,1,80,0|10,0:0|0:0,0:0:0:0:
96,176,18205,6,0,P|112:92|176:72,1,160,0|0,0:0|0:0,0:0:0:0:
316,168,19385,2,0,L|268:260,2,100,10|0|10,0:0|0:0|0:0,0:0:0:0:
440,168,20734,2,0,L|496:268,2,100,10|0|10,0:0|0:0|0:0,0:0:0:0:
196,100,22250,1,0,0:0:0:0:
108,160,22587,6,0,P|76:216|108:304,1,160,10|0,0:0|0:0,0:0:0:0:
212,308,23599,1,10,0:0:0:0:
284,224,23936,2,0,P|328:168|332:152,2,80,0|10|0,0:0|0:0|0:0,0:0:0:0:
176,192,24947,1,10,0:0:0:0:
60,172,25284,6,0,P|104:88|168:64,2,160,0|10|0,0:0|0:0|0:0,0:0:0:0:
104,264,26969,1,10,0:0:0:0:
200,304,27307,2,0,P|272:288|288:280,1,80,0|10,0:0|0:0,0:0:0:0:
380,312,27981,2,0,P|420:276|428:240,1,80,0|10,0:0|0:0,0:0:0:0:
336,208,28655,5,0,0:0:0:0:
228,224,28992,2,0,P|172:136|272:76,1,240,10|0,0:0|0:0,0:0:0:0:
376,68,30340,2,0,P|456:116|468:180,1,160,10|0,0:0|0:0,0:0:0:0:
404,260,31352,1,10,0:0:0:0:
316,312,31689,1,10,0:0:0:0:
108,136,32700,1,10,0:0:0:0:
184,72,33037,5,0,0:0:0:0:
288,76,33374,2,0,P|344:96|356:120,1,80
420,176,34048,2,0,P|428:216|424:268,1,80,0|0,0:0|0:0,0:0:0:0:
320,244,34722,1,0,0:0:0:0:
240,188,35059,2,0,P|152:204|108:264,2,160,0|0|0,0:0|0:0|0:0,0:0:0:0:
296,272,36745,5,0,0:0:0:0:
404,216,37082,1,0,0:0:0:0:
444,108,37419,1,0,0:0:0:0:
364,40,37756,2,0,P|316:28|280:40,1,80
120,100,38767,2,0,P|84:136|76:176,2,80,0|0|0,0:0|0:0|0:0,0:0:0:0:
204,152,39778,5,0,0:0:0:0:
288,100,40116,2,0,B|344:168|332:248|332:252,1,160,0|0,0:0|0:0,0:0:0:0:
240,296,41127,2,0,P|288:336|312:336,2,80,0|0|0,0:0|0:0|0:0,0:0:0:0:
88,200,42307,1,0,0:0:0:0:
176,64,42812,2,0,P|224:44|328:60,1,160
404,132,43823,5,0,0:0:0:0:
448,228,44160,2,0,L|448:320,1,80,0|0,0:0|0:0,0:0:0:0:
356,312,44835,2,0,L|356:216,1,80,0|0,0:0|0:0,0:0:0:0:
252,268,45509,1,0,0:0:0:0:
60,84,46183,6,0,L|60:172,1,80
152,168,46857,2,0,L|152:72,1,80
256,128,47531,1,0,0:0:0:0:
344,72,47868,2,0,P|388:132|332:200,2,160,0|0|0,0:0|0:0|0:0,0:0:0:0:
148,124,50565,6,0,P|132:176|144:208,1,80
236,248,51239,1,0,0:0:0:0:
332,184,51576,1,0,0:0:0:0:
256,92,53599,5,0,0:0:0:0:
360,144,53936,2,0,P|392:188|392:224,2,80,10|0|10,0:0|0:0|0:0,0:0:0:0:
256,200,54947,1,0,0:0:0:0:
144,164,55284,2,0,P|168:272|220:300,2,160,10|0|10,0:0|0:0|0:0,0:0:0:0:
224,88,56969,5,0,0:0:0:0:
320,144,57307,2,0,P|360:204|360:220,2,80,10|0|10,0:0|0:0|0:0,0:0:0:0:
224,196,58318,1,0,0:0:0:0:
284,284,58655,2,0,P|220:336|140:344,1,160,10|0,0:0|0:0,0:0:0:0:
64,272,59666,5,10,0:0:0:0:
80,172,60003,2,0,P|96:116|116:96,2,80,0|10|0,0:0|0:0|0:0,0:0:0:0:
192,180,61014,2,0,P|280:180|312:252,1,160,10|0,0:0|0:0,0:0:0:0:
260,336,62026,1,10,0:0:0:0:
380,324,62363,2,0,P|440:276|444:260,1,80,0|10,0:0|0:0,0:0:0:0:
408,112,63543,6,0,P|344:80|336:84,2,80,0|10|0,0:0|0:0|0:0,0:0:0:0:
160,100,64722,2,0,P|136:176|140:184,2,80,0|10|0,0:0|0:0|0:0,0:0:0:0:
244,176,65734,1,10,0:0:0:0:
192,276,66071,2,0,P|316:276|348:260,2,160,0|10|0,0:0|0:0|0:0,0:0:0:0:
112,208,67756,5,10,0:0:0:0:
156,108,68093,2,0,P|200:72|232:76,2,80,0|10|0,0:0|0:0|0:0,0:0:0:0:
248,172,69104,1,10,0:0:0:0:
332,88,69441,2,0,P|384:164|384:244,1,160,0|10,0:0|0:0,0:0:0:0:
304,300,70453,6,0,B|264:328|240:332|232:332,2,80,0|10|0,0:0|0:0|0:0,0:0:0:0:
232,216,71464,2,0,P|156:172|164:108,1,160,10|0,0:0|0:0,0:0:0:0:
252,60,72475,2,0,P|292:96|300:128,1,80,10|0,0:0|0:0,0:0:0:0:
112,152,73486,2,0,L|112:236,1,80,10|0,0:0|0:0,0:0:0:0:
220,152,74160,2,0,L|220:244,2,80,10|0|10,0:0|0:0|0:0,0:0:0:0:
304,80,75172,5,0,0:0:0:0:
396,128,75509,2,0,P|432:224|408:276,1,160,10|10,0:0|0:0,0:0:0:0:
312,288,76520,2,0,L|224:288,1,80,10|0,0:0|0:0,0:0:0:0:
232,196,77194,2,0,L|152:196|156:196,2,80,10|0|10,0:0|0:0|0:0,0:0:0:0:
392,84,78374,6,0,L|432:92,1,40,10|10,0:0|0:0,0:0:0:0:
