osu file format v9

[General]
AudioFilename: Dear You - YTChorus.mp3
AudioLeadIn: 0
PreviewTime: 34421
Countdown: 0
SampleSet: Soft
StackLeniency: 0.3
Mode: 0
LetterboxInBreaks: 1

[Editor]
Bookmarks: 35722,64421,155033,180215,199860
DistanceSpacing: 1
BeatDivisor: 4
GridSize: 4

[Metadata]
Title:Dear You
Artist:Youtube Chorus
Creator:raxar
Version:Hard
Source:
Tags:Chorus YTChorus

[Difficulty]
HPDrainRate:6
CircleSize:4
OverallDifficulty:5
ApproachRate:6
SliderMultiplier:1.8
SliderTickRate:2

[Events]
//Background and Video events
0,0,"bg.jpg"
//Break Periods
2,27630,33277
2,126941,132243
//Storyboard Layer 0 (Background)
//Storyboard Layer 1 (Fail)
//Storyboard Layer 2 (Pass)
//Storyboard Layer 3 (Foreground)
//Storyboard Sound Samples
//Background Colour Transformations
3,100,0,0,0

[TimingPoints]
1224.06896551724,689.655172413793,4,2,0,25,1,0
12258,-100,4,2,0,45,0,1
12430,-100,4,2,0,45,0,0
89515,-100,4,2,0,45,0,1
111051,-100,4,2,0,45,0,0
155722,-100,4,2,0,45,0,1
166412,-100,4,2,0,45,0,0

[Colours]
Combo1 : 203,194,37
Combo2 : 202,78,74
Combo3 : 150,150,190
Combo4 : 100,100,100

[HitObjects]
256,192,1224,1,2
436,192,1913,1,0
436,284,2258,1,0
344,284,2603,1,2
164,280,3293,5,0
164,192,3637,1,0
76,192,3982,1,2
164,36,4672,5,0
164,128,5017,1,0
256,128,5362,1,2
344,128,5706,1,0
344,36,6051,1,4
432,192,6741,6,0,B|432:284,1,90,0|2
340,284,7430,2,0,B|340:192,1,90,0|2
248,192,8120,1,2
248,284,8465,1,2
156,284,8810,1,4
156,192,9155,6,0,B|68:192,1,90,0|2
68,104,9844,2,0,B|156:104,1,90,0|2
248,104,10534,1,2
296,180,10879,1,2
204,180,11224,1,0
248,260,11568,1,4
76,192,12258,6,0,B|121:112,2,90,0|0|8
148,248,13293,1,0
236,248,13637,6,0,B|281:328,2,90,0|0|8
328,248,14672,1,2
420,248,15017,2,0,B|420:189|372:172,1,90,0|2
288,172,15706,2,0,B|287:112|332:96,1,90,0|2
416,96,16396,5,4
416,188,16741,1,2
348,248,17086,1,8
348,68,17775,5,0
256,68,18120,2,0,B|200:68,2,45,2|8|2
256,160,18810,1,0
164,160,19155,1,2
164,248,19499,1,8
164,340,19844,1,2
72,340,20189,1,8
72,248,20534,5,2
72,160,20879,1,2
164,160,21224,1,10
164,72,21568,1,8
164,160,21913,2,0,B|252:160,2,90,2|0|2
256,192,23293,12,2,27430
160,264,34327,5,2
160,264,34672,1,8
352,264,35017,1,2
352,264,35362,1,8
352,120,35706,1,2
352,120,36051,1,8
160,120,36396,1,2
256,196,36741,1,0
352,264,37086,1,4
356,84,37775,5,2
300,152,38120,2,0,B|244:220,1,90,2|2
160,184,38810,2,0,B|76:148,1,90,2|8
84,240,39499,2,0,B|168:276,1,90,2|8
208,292,40017,1,2
252,308,40189,1,2
344,308,40534,1,4
480,192,41224,5,2
420,128,41568,1,8
328,128,41913,1,8
264,192,42258,1,2
200,128,42603,1,8
108,128,42948,1,8
48,192,43293,2,0,B|100:272|100:272|184:272,1,180,0|4
396,272,45362,5,0
396,228,45534,1,2
352,228,45706,1,2
300,156,46051,1,0
300,112,46224,1,10
256,112,46396,1,2
256,20,46741,2,0,B|348:20|348:20,2,90,10|0|2
160,20,47775,1,8
160,112,48120,5,4
204,192,48465,1,8
296,192,48810,2,0,B|388:192,2,90,2|8|2
204,192,49844,1,8
256,116,50189,1,4
112,192,50879,5,0
184,248,51224,1,8
256,300,51568,1,2
292,272,51741,1,0
328,244,51913,1,8
392,176,52258,2,0,B|392:112|392:112|392:80|368:80|368:80|284:80,1,180,2|8
252,80,53120,1,2
208,80,53293,1,2
120,84,53637,6,0,B|120:148|120:148|120:180|144:180|144:180|220:180,1,180,2|8
260,180,54499,1,2
304,180,54672,1,2
396,180,55017,1,4
128,180,56051,22,0,B|92:208,1,45,8|2
92,252,56396,1,2
184,252,56741,2,0,B|220:224,1,45,8|2
248,260,57086,1,2
336,260,57430,2,0,B|408:312,1,90,8|8
424,224,58120,2,0,B|352:172,1,90,8|8
352,80,58810,1,2
308,80,58982,1,2
264,80,59155,1,2
256,168,59499,5,8
200,240,59844,1,2
108,240,60189,1,2
64,240,60362,1,0
20,240,60534,1,8
64,160,60879,1,2
64,68,61224,1,4
152,68,61568,6,0,B|267:67|267:67|268:136,1,180,0|8
268,224,62603,2,0,B|383:225|383:225|384:156,1,180,2|8
384,68,63637,1,0
292,68,63982,1,2
200,68,64327,2,0,B|80:64|80:168,1,180,2|2
80,256,65362,1,0
144,316,65706,1,8
208,256,66051,1,4
412,256,67430,5,0
348,192,67775,1,8
284,256,68120,1,2
220,192,68465,1,0
128,192,68810,1,4
76,120,69155,1,0
128,48,69499,1,8
220,48,69844,1,0
276,120,70189,5,4
332,48,70534,1,0
388,120,70879,1,2
480,120,71224,1,2
434,196,71568,1,4
72,192,72948,6,0,B|120:192|120:192|120:140|152:124|152:124|208:124,1,180,2|8
296,124,73982,2,0,B|344:124|344:124|344:176|376:192|376:192|432:192,1,180,2|8
432,284,75017,1,0
340,284,75362,1,2
386,360,75706,1,2
295,358,76051,1,2
244,284,76396,1,8
152,284,76741,1,8
198,208,77086,1,4
468,208,78120,6,0,B|468:120,1,90,2|8
376,120,78810,2,0,B|312:184,1,90,2|8
312,272,79499,1,0
268,272,79672,1,2
268,316,79844,1,2
176,316,80189,1,4
88,148,80879,5,0
180,148,81224,1,2
180,236,81568,1,8
272,236,81913,2,0,B|328:236|328:180,1,90,8|2
256,124,82603,1,0
180,76,82948,2,0,B|124:76|124:132,1,90,2|8
128,220,83637,6,0,B|176:220|176:220,2,45,2|0|2
220,220,84327,1,8
220,40,85017,1,0
264,40,85189,1,0
308,40,85362,1,2
340,124,85706,1,0
340,216,86051,1,8
336,308,86396,2,0,B|256:264,1,90,2|2
168,264,87086,6,0,B|76:264,1,90,2|2
76,84,88120,1,2
120,84,88293,1,0
164,84,88465,1,8
212,160,88810,1,4
392,160,89499,5,0
300,160,89844,1,8
346,237,90189,1,2
346,284,90362,1,0
346,328,90534,1,2
436,328,90879,2,0,B|436:240,1,90,2|4
436,148,91568,5,2
344,148,91913,2,0,B|300:148|268:104|268:104,1,90,2|8
224,104,92430,1,0
180,104,92603,1,2
88,104,92948,1,8
88,284,93637,1,2
180,284,93982,1,8
224,204,94327,1,4
288,36,95017,6,0,B|356:36|392:36|392:36|440:100,1,180,2|2
364,136,96051,1,8
284,176,96396,2,0,B|204:176|184:176|184:176|132:236,1,180,2|2
132,328,97430,1,8
224,328,97775,2,0,B|260:300|312:300,1,90,2|8
400,300,98465,1,2
400,256,98637,1,0
400,212,98810,1,2
400,120,99155,2,0,B|444:120|444:120|444:64|444:64|356:64,1,180,8|4
256,216,100534,5,8
168,60,101224,1,2
344,60,101913,1,2
344,240,102603,1,8
164,240,103293,2,0,B|96:240|96:240|96:192|96:192|32:192|32:192,1,180,2|2
32,100,104327,1,8
124,100,104672,1,0
216,100,105017,1,10
256,180,105362,1,4
256,360,106051,6,0,B|348:360,1,90,2|8
400,288,106741,2,0,B|400:200,1,90,2|8
348,124,107430,2,0,B|256:124,1,90,2|8
168,124,108120,1,0
168,216,108465,1,8
168,308,108810,6,0,B|76:280,1,90,2|8
76,192,109499,2,0,B|76:100,1,90,2|8
120,100,110017,1,0
164,100,110189,1,2
164,192,110534,1,8
164,284,110879,1,4
344,284,111568,6,0,B|372:328|400:252|444:304,1,90,0|2
424,200,112258,1,2
244,192,112948,2,0,B|272:236|300:160|344:212,1,90,0|2
324,108,113637,1,2
144,108,114327,5,2
144,200,114672,1,8
236,200,115017,1,2
416,200,115706,1,2
326,304,116396,1,8
255,90,117086,5,2
164,88,117430,2,0,B|164:136|100:136,1,90,2|8
100,228,118120,1,2
192,228,118465,2,0,B|192:180|256:180,1,90,2|8
256,88,119155,1,4
436,88,119844,5,0
436,180,120189,2,0,B|348:180,1,90,2|8
348,360,121224,1,2
348,272,121568,1,0
256,272,121913,1,2
256,180,122258,2,0,B|168:180,1,90,2|8
168,88,122948,1,4
436,88,123982,6,0,B|436:180,1,90,0|8
372,240,124672,1,2
280,240,125017,2,0,B|204:292,1,90,0|8
132,340,125706,1,2
132,248,126051,2,0,B|136:152,1,90,0|8
220,192,126741,1,4
256,196,133293,5,2
324,136,133637,1,0
256,76,133982,1,2
188,136,134327,1,4
256,196,134672,1,0
324,136,135017,1,8
368,216,135362,6,0,B|336:216|292:280|292:280|220:280|220:280|176:216|144:216,1,270,2|8
152,128,136741,1,2
60,128,137086,1,0
60,216,137430,1,2
148,220,137775,2,0,B|204:220|204:220|204:252|204:288|204:288|264:288,1,180,2|4
352,288,138810,6,0,B|352:232|352:232|320:232|284:232|284:232|284:176,1,180,0|2
284,84,139844,2,0,B|220:84|220:84|220:136|220:136|156:136,1,180,0|8
84,192,140879,5,2
176,192,141224,2,0,B|243:259,1,90,4|8
328,260,141913,1,2
388,192,142258,2,0,B|452:128,1,90,0|2
384,68,142948,1,8
292,68,143293,1,2
248,68,143465,1,2
204,68,143637,1,0
248,148,143982,1,4
120,272,144672,5,2
212,272,145017,1,8
256,352,145362,1,0
300,272,145706,1,8
392,272,146051,1,2
436,352,146396,1,4
344,352,146741,2,0,B|344:260,1,90,0|2
344,172,147430,5,0
436,172,147775,1,2
390,96,148120,1,0
300,96,148465,1,2
256,172,148810,1,4
80,60,149844,6,0,B|29:111,2,45,2|0|8
152,116,150534,1,2
276,248,151224,2,0,B|328:196,2,45,2|0|8
212,184,151913,1,2
340,312,152603,6,0,B|391:362,2,45,2|2|8
404,248,153293,1,2
404,160,153637,2,0,B|372:120|324:120,1,90,2|8
236,120,154327,1,0
144,120,154672,1,8
144,212,155017,1,4
324,212,155706,6,0,B|340:260|340:260|380:260,1,90,2|2
380,352,156396,1,8
336,352,156568,1,0
292,352,156741,2,0,B|256:316|212:316,1,90,2|2
212,228,157430,1,8
212,136,157775,1,8
304,136,158120,5,2
272,104,158293,1,2
292,64,158465,1,2
336,68,158637,1,8
352,112,158810,1,4
352,204,159155,5,8
352,248,159327,1,8
308,248,159499,2,0,B|256:248|212:248,1,90,2|2
128,248,160189,1,8
128,156,160534,1,4
308,156,161224,6,0,B|308:208,2,45,2|8|2
352,156,161741,1,2
396,156,161913,1,8
352,236,162258,1,2
292,304,162603,2,0,B|292:356|292:356|256:356,1,90,2|8
164,356,163293,5,2
164,268,163637,1,2
72,268,163982,1,8
72,176,164327,2,0,B|72:104,2,45,2|8|0
116,176,164844,1,2
116,176,165017,1,2
208,176,165362,2,0,B|208:116|208:116|264:140|264:140|264:76,1,180,8|4
308,256,166741,5,2
244,192,167086,1,8
308,128,167430,1,2
244,192,167775,1,0
244,284,168120,1,2
244,192,168465,2,0,B|300:168|301:120|301:120,1,90,0|2
244,192,169155,2,0,B|188:216|186:265|186:265,2,90,2|8|2
344,164,170189,5,2
344,72,170534,1,2
252,72,170879,1,2
208,72,171051,1,0
164,72,171224,1,8
164,160,171568,1,4
340,228,172258,6,8,B|340:184,1,45
296,184,172603,1,2
204,184,172948,2,0,B|204:228,1,45,8|8
160,228,173293,1,2
160,140,173637,1,8
160,320,174327,1,2
252,320,174672,2,0,B|316:296|316:296|324:344|324:344|384:320,1,180,2|2
384,232,175706,1,8
256,104,176396,1,4
256,240,176741,6,0,B|256:332,1,90,2|8
256,152,177775,1,2
256,108,177948,1,2
256,64,178120,2,0,B|212:64|184:112,2,90,2|2|8
256,64,179155,2,0,B|292:60|328:112,2,90,2|2|8
256,244,180534,6,0,B|316:200|364:264|432:232,1,180,2|2
432,188,181396,1,0
432,144,181568,1,2
340,144,181913,2,0,B|280:100|232:164|164:132,1,180,2|8
164,180,182775,1,0
164,180,182948,1,2
256,248,183293,5,2
256,292,183465,1,2
256,336,183637,2,0,B|212:336|184:288,2,90,8|2|0
256,336,184672,2,0,B|296:332|324:284,2,90,8|2|0
256,244,185706,1,8
256,152,186051,5,2
256,244,186396,2,0,B|256:152,1,90,8|2
256,64,187086,1,2
344,64,187430,1,2
344,152,187775,2,0,B|344:244,1,90,2|4
188,152,188810,5,0
188,244,189155,1,2
188,332,189499,2,0,B|232:332|280:332,2,90,2|8|2
144,332,190362,1,0
144,288,190534,1,2
100,288,190706,1,2
100,244,190879,1,8
144,152,191568,5,0
208,92,191913,1,2
300,92,192258,1,2
368,152,192603,1,8
300,212,192948,1,2
208,212,193293,1,8
144,152,193637,1,4
144,332,194327,5,0
236,332,194672,2,0,B|324:332,1,90,2|8
324,240,195362,1,2
236,240,195706,2,0,B|236:152,1,90,2|2
236,104,196224,1,0
236,60,196396,1,8
328,60,196741,2,0,B|328:104,2,45,0|2|0
256,192,197430,12,4,199844
