osu file format v9

[General]
AudioFilename: keep existing.mp3
AudioLeadIn: 1000
PreviewTime: 52492
Countdown: 0
SampleSet: Normal
StackLeniency: 0.4
Mode: 0
LetterboxInBreaks: 0

[Editor]
DistanceSpacing: 1
BeatDivisor: 4
GridSize: 8

[Metadata]
Title:keep existing (Short Ver.)
Artist:Yousei Teikoku
Creator:osuplayer111
Version:Insane
Source:fortissimo EXA//Akkord:Bsusvier
Tags:Visual Novel Louis Cyphre Lucifer kanpakyin Vicho-kun

[Difficulty]
HPDrainRate:7
CircleSize:5
OverallDifficulty:8
ApproachRate:9
SliderMultiplier:1.8
SliderTickRate:1

[Events]
//Background and Video events
0,0,"moe.jpg"
Video,0,"fortissimo EXA.flv"
//Break Periods
//Storyboard Layer 0 (Background)
//Storyboard Layer 1 (Fail)
//Storyboard Layer 2 (Pass)
//Storyboard Layer 3 (Foreground)
//Storyboard Sound Samples
//Background Colour Transformations
3,100,0,213,213

[TimingPoints]
1385,428.571428571429,4,1,1,100,1,0
52813,-100,4,1,1,100,0,1
73385,-100,4,1,1,100,0,0

[Colours]
Combo1 : 238,139,40
Combo2 : 198,0,0
Combo3 : 71,186,224
Combo4 : 229,229,229

[HitObjects]
200,144,1384,2,0,B|128:120|104:48,2,135,4|0|0
256,72,2242,2,0,B|360:72,1,90,0|0
488,144,2670,2,0,B|392:144,1,90
320,192,3099,2,0,B|328:272|392:304,2,135,4|0|0
256,256,3956,1,0
96,336,4385,5,0
40,264,4599,1,0
96,192,4813,2,0,B|104:168|104:168|88:168|88:168|104:152|104:152|88:152|88:152|104:136|104:136|88:136|88:136|96:128|96:128|96:112|96:112,1,135,4|0
208,48,5456,1,0
256,128,5670,2,0,B|264:192|312:200|360:192|368:128,1,180
328,304,6527,6,0,B|376:352|472:352,2,135,4|0|0
256,248,7384,1,0
104,352,7813,1,8
40,288,8027,5,8
24,272,8134,1,0
8,256,8242,1,4
40,168,8456,1,0
120,136,8670,1,8
80,56,8884,1,8
104,48,8992,1,0
128,40,9099,1,0
224,32,9313,6,0,B|312:96,1,90,0|8
368,136,9742,1,0
384,224,9956,2,0,B|472:224|472:136,2,135,4|0|8
440,296,10813,1,0
256,352,11242,1,8
72,296,11670,1,4
80,88,12099,5,8
152,144,12313,1,8
152,144,12420,1,0
152,144,12527,1,0
192,64,12742,1,0
192,64,12849,1,0
192,64,12956,1,8
272,112,13170,1,8
400,256,13384,5,4
224,352,13706,1,0
56,224,14027,1,0
192,64,14349,1,0
392,72,14670,2,0,B|368:96,8,22.5,0|0|0|0|0|0|0|0|4
168,168,15313,6,0,B|88:120,1,90,8|0
176,256,15742,2,0,B|112:320,1,90,8|0
256,296,16170,2,0,B|256:400,1,90,8|0
336,256,16599,2,0,B|400:320,1,90,8|0
344,168,17027,2,0,B|424:120,1,90,8|0
344,72,17456,1,8
200,24,17670,1,0
256,128,17884,1,8
304,0,18099,1,0
168,104,18313,5,8
168,104,18420,1,0
168,104,18527,2,0,B|64:104,1,90,0|8
24,192,18956,2,0,B|120:192,1,90,0|8
208,192,19385,1,0
160,272,19599,1,8
212,348,19813,1,0
300,348,20027,5,8
352,272,20242,1,0
304,192,20456,1,8
256,272,20670,1,0
400,347,20885,1,8
456,232,21099,2,0,B|392:152,1,90,0|8
336,96,21527,1,0
256,48,21742,1,8
208,192,21956,5,8
200,168,22063,1,0
184,144,22170,1,0
160,128,22277,1,0
136,120,22385,1,8
112,128,22492,1,0
88,144,22599,1,0
72,168,22706,1,0
56,192,22813,6,0,B|16:192,8,22.5,0|0|0|0|0|0|0|0|8
72,216,23349,1,0
88,240,23456,1,0
112,256,23563,1,0
136,264,23670,1,4
211,312,23885,6,0,B|307:312,1,90,8|0
392,312,24313,1,8
416,296,24420,2,0,B|472:256|472:256|472:176,1,135,0|8
408,128,24956,2,0,B|376:168|312:152,1,90,0|8
256,72,25385,2,0,B|288:32|352:48,1,90,0|8
256,72,25813,1,0
216,152,26027,1,8
216,152,26135,2,0,B|160:104|80:136,1,135,0|8
56,288,26670,5,0
128,344,26885,1,8
152,344,26992,1,0
176,344,27099,2,0,B|224:344|256:304,1,90,4|8
312,240,27527,1,0
352,320,27742,1,8
368,304,27849,1,0
384,288,27956,1,0
400,272,28063,1,0
416,256,28170,1,8
448,96,28385,6,0,B|360:96,1,90,0|8
288,40,28813,2,0,B|256:56|248:96|256:136|288:152,2,135,4|0|0
200,8,29670,1,0
200,8,29777,1,0
200,8,29885,2,0,B|152:96,1,90,8|0
72,120,30313,1,8
72,120,30420,1,0
72,120,30527,2,0,B|120:208,1,90,4|8
184,344,30956,6,0,B|280:344,1,90,0|8
274,344,31277,2,0,B|232:280|272:216,1,135,0|8
456,216,31813,2,0,B|360:216,1,90,0|8
272,216,32242,1,0
320,136,32456,1,8
368,56,32670,1,0
280,56,32885,1,8
280,56,32992,2,0,B|208:56|168:120,1,135,0|8
112,240,33527,6,0,B|24:240,1,90,0|8
22,240,33849,1,0
22,240,33956,1,4
64,328,34170,2,0,B|160:328,1,90,8|0
216,264,34599,1,8
232,288,34706,1,0
256,304,34813,1,0
280,288,34920,1,0
296,264,35027,1,8
256,96,35242,6,0,B|352:96,1,90,0|8
424,48,35670,2,0,B|472:96|472:96|424:144,2,135,4|0|8
347,9,36527,1,0
320,16,36635,1,0
296,8,36742,1,8
208,8,36956,1,0
192,24,37063,1,0
176,40,37170,1,8
160,56,37277,1,0
144,72,37385,1,4
40,192,37599,6,0,B|136:192,1,90,8|0
96,304,38027,2,0,B|184:280,1,90,8|0
256,336,38456,1,8
416,304,38670,2,0,B|328:280,1,90,0|8
472,192,39099,2,0,B|376:192,1,90,4|8
130,192,39742,1,8
256,192,39956,1,0
382,192,40170,1,8
256,48,40599,5,8
256,136,40813,1,4
256,160,40920,1,0
256,184,41027,1,8
192,248,41242,2,0,B|208:288|208:288|184:344,1,90,0|8
320,248,41670,2,0,B|304:288|304:288|328:344,1,90,0|8
400,288,42099,1,0
322,331,42313,1,8
320,248,42527,1,4
190,331,42742,6,8,B|96:328|40:240,1,180
40,152,43385,1,0
56,128,43492,1,8
152,80,43706,1,0
136,104,43813,1,8
168,208,44027,1,8
184,184,44135,1,0
200,160,44242,1,4
256,80,44456,6,0,B|352:80,1,90,8|0
472,160,44885,2,0,B|360:160,1,90,8|0
296,160,45313,1,8
344,240,45527,2,0,B|440:240,2,90,0|8|4
392,320,46170,2,8,B|200:320,2,180
432,240,47242,1,0
512,192,47456,1,8
432,144,47670,5,4
342,112,47885,1,8
342,112,47992,1,0
342,112,48099,2,0,B|296:136|256:128|216:136|168:112,2,180,0|4|0
301,32,49170,1,8
301,32,49277,1,0
301,32,49385,2,0,B|205:32,1,90,4|8
80,144,49813,5,0
0,192,50027,1,8
16,208,50135,1,0
40,216,50242,1,0
56,232,50349,1,0
80,240,50456,1,8
128,320,50670,1,0
152,312,50777,1,0
176,304,50885,1,8
304,336,51099,5,4
392,152,51420,1,0
256,8,51742,1,0
120,152,52063,1,0
208,336,52385,1,0
224,312,52492,1,0
256,304,52599,1,0
288,312,52706,1,0
304,336,52813,2,0,B|376:336|416:272,1,135,4|0
415,272,53242,1,0
328,86,53456,6,0,B|256:30,1,90,8|0
186,86,53885,2,0,B|258:30,1,90,8|0
256,122,54313,1,8
192,192,54527,2,0,B|328:192,2,135,4|0|8
136,264,55385,1,0
192,336,55599,1,8
224,352,55706,1,0
256,360,55813,1,0
288,352,55920,1,0
320,336,56027,1,8
376,264,56242,6,0,B|440:264|440:264|504:320,2,135,4|0|8
320,192,57099,2,0,B|320:96|408:40,1,180
256,120,57742,1,8
192,192,57956,2,0,B|192:120|136:72,2,135,4|0|8
256,264,58813,1,0
192,328,59027,1,8
192,328,59135,1,0
192,328,59242,1,0
192,328,59349,1,0
192,328,59456,6,0,B|96:288,1,90,8|4
8,192,59992,1,0
108,90,60313,2,0,B|192:56,1,90,8|0
256,120,60742,1,8
403,90,60956,2,0,B|320:56,1,90,0|8
320,184,61385,2,0,B|288:200|256:208|224:200|192:184,2,135,4|0|8
400,224,62242,1,0
368,304,62456,5,8
368,304,62563,1,0
368,304,62670,2,0,B|336:344|288:344,1,90,0|8
256,344,62992,1,0
221,343,63099,2,0,B|176:344|144:304,1,90,4|8
144,304,63420,1,0
168,168,63742,1,8
168,168,63956,2,0,B|216:152|256:144|296:152|344:168,1,180
408,104,64599,1,8
192,48,64813,6,0,B|224:64|256:72|288:64|320:48,2,135,4|0|8
104,48,65670,2,0,B|104:120|104:120|80:152|80:152|80:224,1,180
128,296,66313,1,8
144,312,66420,1,0
160,328,66527,1,4
248,328,66742,1,8
272,328,66849,1,0
296,328,66956,1,0
360,264,67170,1,8
456,112,67385,6,0,B|360:112,1,90,0|8
312,184,67813,1,0
256,112,68027,1,8
168,112,68242,2,0,B|167:190|239:214,2,135,4|0|8
208,32,69099,1,0
80,320,69527,1,0
152,376,69742,1,8
152,376,69849,1,0
152,376,69956,6,0,B|224:312,1,90,4|8
288,256,70385,1,0
344,320,70599,1,8
360,296,70706,1,0
384,296,70813,1,0
392,272,70920,1,0
424,272,71027,1,8
464,192,71242,1,0
384,80,71456,5,8
384,80,71563,1,0
384,80,71670,1,4
192,24,71992,1,0
72,192,72313,1,0
192,360,72635,1,0
384,304,72956,2,0,B|416:304,8,22.5,0|0|0|0|0|0|0|0|4
299,271,73599,6,0,B|211:271,1,90,8|0
120,272,74027,1,8
72,192,74242,1,0
120,112,74456,1,8
209,113,74670,6,0,B|299:113,1,90,0|8
392,112,75099,1,0
440,192,75313,1,8
392,272,75527,1,0
347,191,75742,2,0,B|256:191,1,90,8|0
72,264,76170,6,0,B|32:344,1,90,8|0
120,360,76599,1,8
120,360,76706,1,0
120,360,76813,2,0,B|176:360|200:328,1,90,0|8
256,256,77242,1,0
392,360,77456,2,0,B|336:360|312:328,1,90,8|0
480,344,77885,2,0,B|440:264,1,90,8|0
488,120,78313,5,8
448,40,78527,2,0,B|392:128|288:96,1,180
256,176,79170,1,8
184,120,79385,2,0,B|112:64,1,90,0|8
24,104,79813,5,0
24,104,80027,2,8,B|48:124|48:124|49:135|49:135|59:123|59:123|60:134|60:134|164:222,1,180,8|8
144,205,80670,1,0
176,282,80885,2,0,B|176:338|224:362,1,90,8|0
336,282,81313,2,0,B|336:338|288:362,1,90,8|0
256,274,81742,1,8
367,205,81956,2,0,B|367:133|367:133|343:101|343:101|343:21,1,180
256,32,82599,6,0,B|256:120,1,90,8|0
256,192,83027,1,8
256,264,83242,1,0
256,336,83456,1,8
280,344,83563,1,0
304,336,83670,2,0,B|352:336|368:280,1,90,0|8
392,168,84099,2,0,B|344:168|328:224,1,90,0|8
120,168,84527,2,0,B|168:168|184:224,1,90,0|8
208,336,84956,2,0,B|160:336|144:280,1,90,0|8
232,344,85385,1,0
208,32,85813,6,0,B|200:72|200:72|152:96,1,90,0|8
304,32,86242,2,0,B|312:72|312:72|360:96,1,90,0|8
256,128,86670,1,0
216,208,86885,2,8,B|232:220|280:224|292:252|280:282|232:282|220:252|232:224|280:220|296:208,1,180
400,256,87527,2,0,B|472:320,1,90,0|8
384,352,87956,2,0,B|336:352|304:312,1,90,0|8
128,352,88385,2,0,B|176:352|208:312,1,90,0|8
44,315,88813,6,0,B|112:256,1,90,8|0
112,256,89135,1,8
176,200,89349,1,0
200,208,89456,1,0
224,208,89563,1,0
248,200,89670,1,8
320,144,89885,1,0
320,144,89992,2,0,B|256:64,1,90,8|0
240,72,90313,2,0,B|208:72,4,22.5,8|0|0|0|4
256,192,90635,12,4,93956
