osu file format v9

[General]
AudioFilename: mirainikkied2.mp3
AudioLeadIn: 1000
PreviewTime: 45143
Countdown: 0
SampleSet: Soft
StackLeniency: 0.3
Mode: 0
LetterboxInBreaks: 0

[Editor]
DistanceSpacing: 1
BeatDivisor: 4
GridSize: 8

[Metadata]
Title:filament (TV Size)
Artist:Yousei Teikoku
Creator:osuplayer111
Version:Normal
Source:Mirai Nikki
Tags:climbb65588 climbb Samah lolcubes Ending

[Difficulty]
HPDrainRate:4
CircleSize:4
OverallDifficulty:4
ApproachRate:5
SliderMultiplier:1.6
SliderTickRate:1

[Events]
//Background and Video events
Video,0,"MNED2.avi"
0,0,"Moe BG.jpg"
//Break Periods
//Storyboard Layer 0 (Background)
//Storyboard Layer 1 (Fail)
//Storyboard Layer 2 (Pass)
//Storyboard Layer 3 (Foreground)
//Storyboard Sound Samples
//Background Colour Transformations
3,100,255,0,0

[TimingPoints]
1113,705.882352941176,3,2,1,80,1,0
1818,-100,3,2,1,5,0,0
2171,-100,3,2,1,80,0,0
3936,-100,3,2,1,5,0,0
4289,-100,3,2,1,80,0,0
5347,-100,3,2,1,50,0,0
5702,705.882352941176,4,2,1,80,1,0
56525,-100,4,2,1,80,0,1
61819,-100,4,2,1,50,0,1
62172,-100,4,2,1,80,0,1
87584,-100,4,2,1,5,0,0

[Colours]
Combo1 : 16,16,140
Combo2 : 213,0,213
Combo3 : 106,0,213
Combo4 : 208,4,4

[HitObjects]
48,64,1113,2,0,B|144:64|144:64|200:104|280:104,1,239.999985694885,2|2
464,320,3230,2,0,B|368:320|368:320|312:280|232:280,1,239.999985694885,2|2
392,104,5348,1,2
456,152,5701,6,0,B|456:240|384:288,1,159.999990463257,4|8
256,192,7113,2,0,B|256:112,2,79.9999952316285,0|0|8
127,287,8525,2,0,B|56:240|56:152,1,159.999990463257,0|8
208,192,9937,1,0
256,256,10290,1,0
304,192,10643,1,8
336,32,11349,6,0,B|416:32|416:32|472:88,2,159.999990463257,4|8|0
256,32,13113,1,0
176,32,13466,2,0,B|96:32|96:32|40:88,2,159.999990463257,8|0|8
160,192,15584,6,0,B|208:256,1,79.9999952316285
256,192,16290,1,8
304,256,16643,2,0,B|352:192,1,79.9999952316285,0|4
320,32,17701,2,0,B|256:80|256:80|192:32,1,159.999990463257,8|0
160,192,19113,1,0
208,256,19466,1,0
256,320,19819,6,0,B|344:320|392:248,1,159.999990463257,4|8
464,104,21231,2,0,B|376:104|328:176,1,159.999990463257,0|0
256,144,22290,1,0
184,176,22643,5,4
184,256,22996,1,0
256,296,23349,2,0,B|320:296|320:296|344:320|344:320|408:320,2,159.999990463257,8|0|0
96,296,25466,5,4
40,240,25819,1,0
96,184,26172,2,0,B|176:184|176:184|232:128,1,159.999990463257,8|0
392,128,27584,2,0,B|432:128|464:160,1,79.9999952316285,0|0
400,208,28290,6,0,B|400:296|328:344,1,159.999990463257,4|8
192,256,29701,1,0
256,304,30054,1,0
328,343,30407,1,8
408,344,30760,1,0
480,304,31113,6,0,B|416:248|416:160,1,159.999990463257,0|8
320,32,32525,1,0
256,80,32878,1,0
192,32,33231,2,0,B|112:32|48:96,1,159.999990463257,8|4
48,256,34643,6,0,B|48:296|88:328,1,79.9999952316285,8|0
136,264,35349,1,0
182,324,35701,2,0,B|217:295|217:255,1,79.9999952316285,0|8
256,104,36760,6,0,B|336:104|400:40,1,159.999990463257,0|8
480,40,37819,1,0
480,120,38172,2,0,B|480:160|448:192,1,79.9999952316285
392,248,38878,2,0,B|312:248|256:320,1,159.999990463257,8|0
96,320,40290,6,0,B|72:288|72:288|72:248,1,79.9999952316285,8|0
128,192,40996,1,0
72,136,41349,2,0,B|72:96|72:96|96:64,1,79.9999952316285,0|8
176,64,42054,1,0
256,88,42407,6,0,B|256:168,2,79.9999952316285,0|0|8
336,64,43466,1,0
416,64,43819,2,0,B|440:96|440:96|440:136,1,79.9999952316285
384,192,44525,6,0,B|384:280|320:336,1,159.999990463257,8|4
256,192,45937,2,0,B|256:112,2,79.9999952316285,8|0|2
189,334,47349,2,0,B|128:280|128:192,1,159.999990463257,8|2
152,120,48407,1,0
192,56,48760,2,0,B|216:100|256:108|296:100|320:56,1,159.999990463257,8|2
408,192,50172,6,0,B|456:264,2,79.9999952316285,8|0|4
256,248,51584,1,8
104,192,52290,2,0,B|56:264,2,79.9999952316285,2|0|8
176,336,53701,5,2
256,192,54407,1,8
336,336,55113,1,4
200,256,55819,6,4,B|256:312|256:312|312:256,1,159.999990463257
312,96,57231,2,0,B|360:32,2,79.9999952316285,8|0|0
256,152,58290,1,0
200,96,58643,2,0,B|152:32,2,79.9999952316285,8|0|0
136,240,60054,6,0,B|176:240|208:272,1,79.9999952316285,8|0
256,336,60760,1,0
304,271,61113,2,0,B|336:240|376:240,1,79.9999952316285,0|8
440,192,61819,1,2
376,144,62172,6,0,B|296:144|240:72,1,159.999990463257,4|8
160,72,63231,1,0
104,128,63584,1,0
104,208,63937,1,0
160,264,64290,6,0,B|240:264|240:264|304:312,1,159.999990463257,8|0
464,312,65701,1,8
408,256,66054,1,0
464,200,66407,2,0,B|416:136|416:136|416:56,1,159.999990463257,0|8
256,56,67819,6,0,B|256:136,2,79.9999952316285,4|0|8
192,200,69231,1,0
256,248,69584,1,0
320,200,69937,2,0,B|400:200|456:272,2,159.999990463257,8|4|8
200,304,72054,6,0,B|120:304,1,79.9999952316285
40,304,72760,2,0,B|40:224|104:160,1,159.999990463257,8|4
232,64,74172,2,0,B|232:144|168:208,1,159.999990463257,8|0
200,280,75231,1,0
256,224,75584,1,8
312,280,75937,1,0
392,280,76290,6,0,B|432:280|432:280|464:256,1,79.9999952316285,4|0
416,192,76996,1,8
464,128,77349,2,0,B|432:104|432:104|392:104,1,79.9999952316285
312,104,78054,1,0
256,48,78407,2,0,B|208:48,1,39.9999976158142,0|8
96,48,79113,6,0,B|96:88|128:120,1,79.9999952316285,4|0
168,192,79819,1,8
127,264,80172,2,0,B|96:296|96:336,2,79.9999952316285
176,328,81231,2,0,B|216:344,1,39.9999976158142,0|8
304,264,81937,6,0,B|368:312,1,79.9999952316285,4|0
424,248,82643,1,8
360,200,82996,1,0
432,168,83349,2,0,B|464:136|464:96,1,79.9999952316285
384,104,84054,2,0,B|336:80,1,39.9999976158142,0|8
256,160,84760,5,4
216,232,85113,2,0,B|176:304,1,79.9999952316285,0|8
256,320,85819,1,0
334,301,86172,2,0,B|296:232,1,79.9999952316285
256,160,86878,2,0,B|256:112,1,39.9999976158142,0|8
