osu file format v13

[General]
AudioFilename: Yousei Teikoku - Zetsubou plantation.mp3
AudioLeadIn: 0
PreviewTime: 58946
Countdown: 0
SampleSet: None
StackLeniency: 0.7
Mode: 0
LetterboxInBreaks: 1
WidescreenStoryboard: 0

[Editor]
Bookmarks: 2663,4750,6837,8924,11011,13098,15185,21446,23533,25620,26663,27707,28750,29794,30837,31881,32924,33968,35011,36055,37098,40229,42446,44533,46490,48576,50663,53794,54837,60837,62142,63055,64490,66316,67359,68663,69968,70490,73098,74663,76750,77794,81707,86142,87185,88229,89272,90316,91359,92403,93446,96707,98663,100750,102837,103881,104924,107011,108055,109098,111185,113011,117185,118490,120316,121098,123707,126837,129446,131011,133098,138055,140403,142490,144576,151881,155011,156316,159446,160229,164924,167794,170924,172750,173794,175098,175359,177707,177968,181098,183707,186576,188403,191794,192576,197794,198837,200924,202490,203272,205098,207185,208229,209272,210837,211359,212924,213185
DistanceSpacing: 1
BeatDivisor: 4
GridSize: 4
TimelineZoom: 1

[Metadata]
Title:Zetsubou Plantation
TitleUnicode:絶望plantation
Artist:Yousei Teikoku
ArtistUnicode:Yousei Teikoku
Creator:EneDZakura
Version:Yukiteru Amano [Hard]
Source:Mirai Nikki
Tags:Yuno Gasai Yukiteru Amano Minene Uryuu Murumuru
BeatmapID:287945
BeatmapSetID:110543

[Difficulty]
HPDrainRate:7
CircleSize:4
OverallDifficulty:6
ApproachRate:8
SliderMultiplier:1.2
SliderTickRate:2

[Events]
//Background and Video events
0,0,"BG4.jpg",0,0
//Break Periods
2,81646,85392
2,137994,141740
//Storyboard Layer 0 (Background)
//Storyboard Layer 1 (Fail)
//Storyboard Layer 2 (Pass)
//Storyboard Layer 3 (Foreground)
//Storyboard Sound Samples
//Background Colour Transformations
3,100,0,0,0

[TimingPoints]
577,260.869565217391,4,2,0,80,1,0
17272,-100,4,2,0,35,0,0
20403,-100,4,2,0,80,0,0
38142,-100,4,2,0,80,0,0
59012,-100,4,2,0,90,0,1
64490,-100,4,2,0,35,0,1
64750,-100,4,2,0,90,0,1
69576,-100,4,2,0,35,0,1
69968,-100,4,2,0,90,0,1
76490,-100,4,2,0,80,0,0
94490,-100,4,2,0,80,0,0
115360,-100,4,2,0,90,0,1
132838,-100,4,2,0,80,0,0
150837,-100,4,2,0,80,0,0
169620,-100,4,2,0,90,0,1
187099,-100,4,2,0,80,0,0
196750,-100,4,2,0,80,0,0
213446,-200,4,2,0,10,0,0
214359,-100,4,3,0,100,0,0
214490,-100,4,3,0,100,0,0
214590,-100,4,3,0,100,0,0

[Colours]
Combo1 : 128,0,255
Combo2 : 0,128,255
Combo3 : 0,128,0
Combo4 : 255,0,0

[HitObjects]
96,40,577,6,0,P|120:112|176:152,1,120
44,196,1098,2,0,P|64:260|116:300,1,120
224,292,1620,2,0,B|268:232|332:320|336:244|376:264|372:240|352:168|440:220|440:184,1,240
236,52,2663,2,0,P|184:36|160:36,1,60
128,68,2924,2,0,L|128:208,2,120
232,132,3707,2,0,P|172:164|164:180,1,60
128,188,3968,2,0,L|128:324,2,120
200,92,4750,6,0,P|248:56|332:60,1,120
396,132,5272,2,0,P|420:200|388:260,1,120
292,236,5794,2,0,B|272:172|200:176|184:216|172:240|152:244|112:228|80:184,1,240
292,68,6837,2,0,L|372:48,1,60
412,52,7098,2,0,P|420:132|408:180,2,120
292,68,7881,2,0,L|208:80,1,60
176,100,8142,2,0,P|176:172|224:228,2,120
288,140,8924,6,0,L|432:140,1,120
348,36,9446,2,0,L|216:36,1,120
108,40,9968,2,0,B|28:48|20:92|92:132|108:164|88:188|44:208|56:240,1,240
284,288,11011,1,0,0:0:0:0:
328,244,11142,1,0,0:0:0:0:
372,204,11272,2,0,P|380:132|336:92,2,120
284,288,12055,1,0,0:0:0:0:
240,248,12185,1,0,0:0:0:0:
196,204,12316,2,0,P|136:164|84:176,2,120
312,168,13098,6,0,P|308:128|232:64,1,120
192,172,13620,2,0,P|204:232|264:280,1,120
364,252,14142,2,0,P|444:208|388:76,1,240
168,68,15185,2,0,L|104:120,1,60
104,164,15446,2,0,L|188:256,1,120
284,320,15968,1,0,0:0:0:0:
392,268,16229,2,0,L|444:200,1,60
440,160,16490,2,0,L|332:84,1,120
236,32,17011,1,0,0:0:0:0:
256,192,17272,12,0,20403,0:0:0:0:
328,248,20663,5,0,0:0:0:0:
212,272,20924,1,0,0:0:0:0:
100,232,21185,1,0,0:0:0:0:
96,112,21446,6,0,P|160:64|216:64,1,120
224,180,21968,2,0,P|272:188|340:136,1,120
444,112,22490,2,0,P|492:156|484:224,1,120
444,244,22881,1,0,0:0:0:0:
392,272,23011,2,0,P|288:280|252:264,1,120
188,192,23533,6,0,L|128:60,1,120
252,44,24055,2,0,L|308:164,1,120
356,260,24576,2,0,L|376:304,6,30
328,208,25098,1,4,0:0:0:0:
328,208,25359,1,4,0:0:0:0:
264,108,25620,6,0,B|200:120|200:120|148:180,1,120
152,280,26142,2,0,B|192:324|192:324|276:336,1,120
356,268,26663,2,0,B|392:224|392:224|400:152,1,120
372,104,27055,1,0,0:0:0:0:
316,80,27185,2,0,L|168:64,1,120
88,120,27707,6,0,P|96:192|136:248,1,120
176,252,28098,2,0,L|252:224,1,60
280,268,28359,2,0,L|344:240,1,60
444,192,28750,1,4,0:0:0:0:
444,192,29012,1,4,0:0:0:0:
388,88,29272,2,0,P|360:60|268:88,1,120
204,156,29794,5,0,0:0:0:0:
100,212,30055,2,0,L|56:288,1,60
188,288,30446,2,0,L|152:364,1,60
220,236,30837,1,0,0:0:0:0:
340,216,31098,2,0,L|368:152,1,60
472,212,31490,2,0,L|496:144,1,60
396,80,31881,6,0,L|260:80,1,120
248,132,32272,2,0,L|120:132,1,120
116,192,32663,1,0,0:0:0:0:
148,308,32924,2,0,L|288:308,1,120
272,248,33316,2,0,L|400:248,1,120
400,188,33707,1,0,0:0:0:0:
396,68,33968,6,0,P|340:48|260:64,1,120
220,64,34359,2,0,P|168:64|112:116,1,120
104,164,34750,1,0,0:0:0:0:
164,268,35011,2,0,P|208:308|276:320,1,120
328,316,35403,2,0,P|392:292|428:240,1,120
428,192,35794,1,0,0:0:0:0:
340,112,36055,5,0,0:0:0:0:
228,68,36316,2,0,L|168:44,1,60
128,156,36707,2,0,L|204:192,1,60
212,300,37098,6,0,P|304:336|380:304,1,180
392,188,37750,2,0,L|392:116,1,60
284,76,38142,5,0,0:0:0:0:
284,76,38272,2,0,L|168:128,1,120
68,180,38794,2,0,L|8:216,2,60
164,252,39316,2,0,P|196:292|276:316,1,120
276,260,39707,2,0,P|308:272|396:248,1,120
404,196,40098,2,0,P|444:196|472:176,1,60
460,128,40359,6,0,P|432:76|300:72,1,180
264,84,40881,2,0,L|268:268,1,180
376,200,41533,2,0,L|376:136,2,60
432,220,41924,2,0,L|512:220,2,60
348,136,42446,1,0,0:0:0:0:
348,136,42576,6,0,P|288:124|216:148,1,120
176,164,42968,2,0,L|176:232,1,60
192,284,43229,2,0,L|328:340,1,120
352,220,43750,2,0,L|352:152,1,60
404,132,44011,2,0,L|404:68,1,60
228,40,44533,5,0,0:0:0:0:
228,40,44663,2,0,L|228:124,1,60
112,128,45055,1,0,0:0:0:0:
112,128,45185,2,0,L|112:212,1,60
232,188,45576,1,0,0:0:0:0:
232,188,45707,2,0,L|232:268,1,60
228,308,45968,2,0,P|188:320|92:312,1,120
76,200,46490,6,0,B|128:112|164:140|180:160|212:144|240:100,1,180
320,52,47142,1,0,0:0:0:0:
320,52,47272,1,0,0:0:0:0:
404,144,47533,2,0,B|428:180|408:224|348:224|400:264|360:316,1,180
244,312,48185,1,0,0:0:0:0:
244,312,48316,1,0,0:0:0:0:
132,268,48576,6,0,P|80:208|100:168,1,120
152,168,48968,2,0,L|344:168,1,180
448,132,49620,2,0,L|448:64,2,60
448,192,50011,2,0,P|444:256|332:300,1,180
232,292,50663,6,0,B|164:292|164:292|136:272|192:224|108:184,1,180
80,92,51316,1,0,0:0:0:0:
80,92,51446,1,0,0:0:0:0:
200,80,51707,2,0,B|248:84|280:128|280:128|372:128,1,180
484,136,52359,1,0,0:0:0:0:
484,136,52490,1,0,0:0:0:0:
472,256,52750,2,0,P|444:296|360:308,1,120
324,288,53142,2,0,L|136:288,1,180
144,164,53794,5,4,0:0:0:0:
344,224,54055,1,4,0:0:0:0:
144,228,54316,1,4,0:0:0:0:
344,160,54576,1,4,0:0:0:0:
364,308,54837,6,0,B|392:328|456:320|456:320|456:216,1,180
448,56,55620,2,0,B|402:35|365:85|322:40,1,120
212,64,56142,2,0,L|104:140,1,120
16,204,56663,1,0,0:0:0:0:
100,292,56924,1,0,0:0:0:0:
212,332,57185,1,0,0:0:0:0:
332,340,57446,2,0,L|400:340,2,60
256,192,57837,12,0,58750,0:0:0:0:
120,288,59011,6,0,B|164:332|164:332|232:332,1,120
280,316,59403,2,0,L|280:232,1,60
336,232,59663,2,0,L|336:160,1,60
392,144,59924,2,0,L|392:76,1,60
352,40,60185,2,0,P|288:24|220:52,1,120
196,80,60576,2,0,L|196:164,1,60
196,200,60837,6,0,P|212:268|276:300,1,120
364,248,61359,1,0,0:0:0:0:
412,212,61490,1,0,0:0:0:0:
460,176,61620,2,0,P|488:136|432:84,1,120
332,64,62142,6,0,P|268:52|156:96,1,180
160,152,62663,2,0,L|160:296,1,120
256,192,63185,12,0,64229,0:0:0:0:
96,80,64750,6,0,P|92:144|144:196,1,120
232,128,65272,2,0,P|248:192|304:224,1,120
352,216,65663,1,0,0:0:0:0:
412,216,65794,2,0,P|456:184|452:112,1,120
356,60,66316,2,0,L|228:60,1,120
224,120,66707,2,0,L|28:120,1,180
84,232,67359,6,0,L|48:300,2,60
140,124,67881,2,0,L|176:56,2,60
212,220,68403,1,0,0:0:0:0:
264,248,68533,1,0,0:0:0:0:
320,272,68663,2,0,P|388:264|428:204,1,120
464,184,69055,2,0,L|508:144,2,60
412,152,69446,2,0,B|376:116|352:64|336:148|324:152|312:128|312:192|280:92|252:112|260:8|216:128|200:104,1,240
52,276,70490,6,0,P|120:292|164:240,1,120
172,204,70881,2,0,P|220:164|328:208,1,180
388,300,71533,2,0,B|440:280|440:280|444:196,1,120
436,156,71924,1,0,0:0:0:0:
400,108,72055,2,0,B|360:68|360:68|288:64,1,120
176,72,72576,2,0,L|96:72,2,60
276,140,73098,6,0,P|312:192|272:224,1,120
264,104,73620,2,0,P|372:112|384:232,1,240
280,276,74403,1,0,0:0:0:0:
152,272,74663,2,0,P|88:240|84:188,1,120
112,80,75185,2,0,P|156:44|224:48,1,120
336,64,75707,2,0,L|336:308,1,240
216,296,76490,5,0,0:0:0:0:
216,296,76620,1,0,0:0:0:0:
216,296,76750,2,0,P|160:272|152:200,1,120
144,160,77142,1,0,0:0:0:0:
188,120,77272,2,0,P|244:76|312:68,1,120
256,192,77794,12,0,81446,0:0:0:0:
112,88,86142,5,4,0:0:0:0:
232,80,86403,2,0,L|316:64,1,60
216,164,86794,2,0,L|260:236,1,60
348,148,87186,1,0,0:0:0:0:
392,260,87446,2,0,L|428:328,1,60
312,264,87837,2,0,L|276:324,1,60
164,292,88229,5,0,0:0:0:0:
208,180,88490,2,0,L|252:128,1,60
136,176,88881,2,0,L|80:124,1,60
164,40,89273,1,0,0:0:0:0:
340,68,89533,1,0,0:0:0:0:
340,68,89663,2,0,P|420:108|444:152,1,120
440,192,90055,1,0,0:0:0:0:
320,192,90316,5,0,0:0:0:0:
220,124,90576,2,0,L|168:88,1,60
56,124,90968,2,0,L|128:172,1,60
212,216,91360,1,0,0:0:0:0:
312,280,91620,2,0,L|384:324,1,60
456,232,92011,2,0,L|400:200,1,60
304,136,92403,5,4,0:0:0:0:
200,76,92663,2,0,P|164:64|128:72,1,60
128,188,93055,2,0,P|184:192|204:180,1,60
304,136,93446,2,0,P|344:124|432:100,1,120
480,92,93837,2,0,P|504:148|440:264,1,180
340,252,94490,5,0,0:0:0:0:
340,252,94620,2,0,L|152:252,1,180
100,240,95142,2,0,P|68:208|68:168,2,60
96,300,95533,2,0,P|116:336|208:332,1,120
212,292,95924,1,0,0:0:0:0:
220,232,96055,2,0,P|236:160|316:200,1,180
372,280,96707,6,0,L|316:316,2,60
428,256,97098,2,0,P|468:200|464:140,1,120
428,104,97490,2,0,L|240:72,1,180
192,68,98011,2,0,L|104:56,1,60
80,92,98272,1,0,0:0:0:0:
76,152,98403,1,0,0:0:0:0:
88,212,98533,1,0,0:0:0:0:
108,268,98663,6,0,P|156:284|232:264,1,120
272,232,99055,2,0,L|272:88,1,120
328,88,99446,2,0,L|400:60,1,60
444,68,99707,2,0,P|488:96|496:168,2,120
384,72,100359,2,0,P|320:100|312:148,1,120
356,184,100750,6,0,L|424:216,2,60
296,180,101142,2,0,L|236:204,1,60
196,244,101403,2,0,P|136:264|72:224,1,120
68,184,101794,2,0,L|68:112,1,60
88,68,102055,2,0,L|152:52,1,60
208,60,102316,2,0,L|324:140,1,120
356,236,102837,6,0,B|296:236|296:236|264:280|264:280|184:280,1,180
92,220,103490,2,0,L|92:144,1,60
180,80,103881,2,0,B|248:80|248:80|296:116|296:116|372:116,1,180
440,192,104533,2,0,L|440:256,1,60
324,288,104924,6,0,L|196:288,1,120
144,292,105316,2,0,B|64:284|76:248|76:140,1,180
104,36,105968,2,0,L|176:52,1,60
220,60,106229,1,0,0:0:0:0:
268,96,106359,2,0,L|388:232,1,180
292,304,107011,6,0,P|192:336|116:280,1,180
112,184,107663,2,0,L|112:96,1,60
212,56,108055,2,0,P|260:40|392:60,1,180
412,176,108707,2,0,L|412:256,1,60
300,280,109098,2,0,P|248:304|120:264,1,180
60,180,109750,2,0,L|-4:180,2,60
120,176,110142,5,4,0:0:0:0:
232,216,110403,1,4,0:0:0:0:
352,216,110663,1,4,0:0:0:0:
424,120,110924,1,4,0:0:0:0:
312,84,111185,6,0,B|224:60|224:60|140:88,1,180
104,264,111968,2,0,B|132:312|132:312|212:312,1,120
316,312,112490,2,0,B|380:312|380:312|408:264,1,120
412,144,113011,2,0,P|356:164|280:144,1,120
256,40,113533,2,0,L|116:40,1,120
80,60,113924,2,0,P|68:88|72:132,1,60
108,164,114185,2,0,B|144:160|208:280|256:288,1,180
360,288,114837,5,0,0:0:0:0:
368,272,114968,1,0,0:0:0:0:
376,252,115098,1,0,0:0:0:0:
384,236,115229,1,0,0:0:0:0:
392,220,115359,6,0,B|356:188|328:180|304:228|272:200,1,120
228,100,115881,2,0,B|196:88|168:148|116:152,1,120
100,208,116272,1,0,0:0:0:0:
92,268,116403,2,0,P|96:324|164:336,1,120
272,340,116924,2,0,L|352:340,1,60
392,332,117185,6,0,B|424:308|424:308|400:268|400:268|404:216,1,120
404,116,117707,1,0,0:0:0:0:
404,116,117837,1,0,0:0:0:0:
404,116,117968,2,0,B|352:92|324:140|276:108,1,120
168,108,118490,6,0,P|120:124|84:200,1,120
84,240,118881,2,0,P|88:308|140:332,1,120
188,332,119272,2,0,L|332:332,1,120
428,332,119794,2,0,L|508:332,2,60
360,232,120316,1,0,0:0:0:0:
292,132,120576,1,0,0:0:0:0:
188,68,120837,1,0,0:0:0:0:
72,96,121098,6,0,L|96:180,1,60
108,212,121359,2,0,L|108:344,2,120
184,120,122142,2,0,P|236:100|300:132,1,120
348,232,122664,2,0,L|404:192,1,60
440,156,122925,1,0,0:0:0:0:
468,104,123055,2,0,B|388:48|388:48|296:48,1,180
188,68,123707,6,0,L|120:76,3,60
88,120,124229,2,0,L|80:196,3,60
88,240,124750,2,0,L|116:304,3,60
168,320,125272,2,0,P|224:332|288:316,1,120
292,260,125663,2,0,L|292:80,1,180
172,68,126316,2,0,P|128:76|104:92,1,60
128,140,126576,2,0,P|80:176|76:184,1,60
84,236,126837,6,0,P|88:296|156:316,1,120
196,320,127229,2,0,L|336:320,1,120
376,316,127620,2,0,P|428:280|416:208,1,120
380,116,128142,1,0,0:0:0:0:
276,56,128403,1,0,0:0:0:0:
156,60,128663,1,0,0:0:0:0:
56,128,128924,1,0,0:0:0:0:
60,248,129185,1,0,0:0:0:0:
176,284,129446,6,0,L|300:308,1,120
416,304,129968,2,0,B|468:260|468:260|420:208|420:208|472:160|472:160|472:104,1,240
372,64,130750,2,0,L|292:64,1,60
252,64,131011,6,0,L|128:76,1,120
92,120,131403,2,0,L|216:156,1,120
240,204,131794,2,0,L|108:224,1,120
4,244,132316,1,0,0:0:0:0:
20,124,132576,1,0,0:0:0:0:
128,76,132837,1,0,0:0:0:0:
248,76,133098,6,0,P|288:68|384:88,1,120
364,140,133490,2,0,L|364:216,1,60
356,260,133750,2,0,L|296:308,1,60
256,192,134142,12,0,137794,0:0:0:0:
100,80,142490,6,0,P|56:132|72:200,1,120
180,184,143011,2,0,P|184:144|260:96,1,120
308,200,143533,2,0,P|276:248|312:308,1,120
416,276,144055,2,0,P|436:232|408:156,1,120
332,80,144576,6,0,B|268:84|268:84|256:112|212:128,1,120
108,156,145098,2,0,B|92:220|92:220|116:240|92:276,1,120
212,300,145620,2,0,B|264:292|264:292|276:308|336:276|340:276,1,120
424,208,146142,2,0,B|412:152|412:152|400:152|392:148|388:136|384:132|376:100,1,120
280,40,146663,6,0,L|152:64,1,120
60,124,147185,2,0,L|192:156,1,120
284,204,147707,2,0,L|152:228,1,120
56,272,148229,2,0,L|184:324,1,120
288,312,148750,6,0,P|376:304|392:264,1,120
352,168,149272,2,0,P|296:172|264:224,1,120
340,312,149794,2,0,P|376:320|424:248,1,120
336,184,150316,2,0,P|276:172|228:232,1,120
236,328,150837,6,0,P|288:348|360:328,1,120,4|0,0:0|0:0,0:0:0:0:
376,280,151229,1,0,0:0:0:0:
396,224,151359,2,0,B|400:160|400:160|384:156|344:140|344:116,1,120
240,84,151881,6,0,B|108:84|108:84|104:116|104:152|96:160|72:168|44:168,1,240
64,288,152663,2,0,P|108:312|188:304,1,120
296,312,153185,2,0,P|348:336|420:296,1,120
404,196,153707,1,0,0:0:0:0:
284,192,153968,2,0,B|220:168|156:192|156:192|120:88,1,240
236,60,154750,2,0,L|324:60,1,60
256,192,155012,12,0,156055,0:0:0:0:
40,156,156576,6,0,P|76:100|136:80,1,120
244,76,157098,2,0,L|384:76,1,120
420,100,157490,2,0,P|432:168|340:232,1,180
244,280,158142,2,0,L|220:344,2,60
128,252,158663,2,0,L|88:320,2,60
212,164,159185,5,4,0:0:0:0:
312,100,159446,2,0,P|364:80|392:84,1,60
428,92,159707,2,0,P|448:132|444:160,1,60
436,204,159968,2,0,P|424:260|416:272,1,60
376,300,160229,2,0,P|312:304|240:292,1,120
224,248,160620,2,0,P|196:216|184:136,1,120
216,92,161011,2,0,L|348:92,1,120
416,180,161533,2,0,L|376:228,1,60
276,164,161924,2,0,L|232:212,1,60
140,284,162316,6,0,P|80:280|68:208,1,120
64,172,162707,2,0,P|64:108|116:56,1,120
156,64,163098,2,0,L|296:64,1,120
376,132,163620,2,0,L|420:192,2,60
256,124,164142,2,0,L|180:124,1,60
84,164,164533,2,0,L|128:224,1,60
216,284,164924,6,0,B|304:284|304:284|288:248|292:196|384:180,1,240
488,132,165707,2,0,B|488:100|464:76|464:76|396:76,1,120
288,76,166229,2,0,L|216:52,1,60
184,168,166620,2,0,L|240:192,1,60
352,236,167011,1,0,0:0:0:0:
416,136,167272,1,0,0:0:0:0:
256,192,167533,12,0,169098,0:0:0:0:
64,76,169620,6,0,L|72:160,1,60
88,192,169881,2,0,L|116:256,1,60
148,292,170142,2,0,L|216:332,1,60
260,320,170403,2,0,L|384:320,2,120
240,200,171185,2,0,P|212:160|176:152,2,60
240,260,171576,2,0,P|256:296|384:308,1,180
404,256,172098,1,0,0:0:0:0:
440,208,172229,2,0,L|440:80,1,120
324,64,172750,6,0,P|264:48|136:68,1,180
112,112,173272,2,0,L|112:172|112:244,1,120
228,268,173794,2,0,P|296:284|352:264,1,120
380,224,174185,1,0,0:0:0:0:
412,172,174316,2,0,P|412:84|376:72,1,120
276,68,174837,1,0,0:0:0:0:
156,68,175098,1,0,0:0:0:0:
36,76,175359,6,0,P|20:144|48:208,1,120
120,276,175881,2,0,L|248:240,1,120
292,220,176272,1,0,0:0:0:0:
312,200,176403,1,0,0:0:0:0:
336,180,176533,1,0,0:0:0:0:
360,160,176663,2,0,P|340:120|316:96,1,60
284,68,176924,2,0,P|204:52|96:76,1,180
68,184,177576,2,0,L|68:252,1,60
180,284,177968,6,0,L|260:308,1,60
296,312,178229,2,0,P|340:328|432:304,1,120
420,256,178620,2,0,L|420:176,3,60
416,136,179142,2,0,P|404:88|284:40,1,180
240,60,179663,2,0,L|164:168,1,120
88,244,180185,1,0,0:0:0:0:
88,244,180316,2,0,L|144:292,1,60
188,312,180576,2,0,L|336:316,1,120
424,292,181098,6,0,P|428:244|360:128,1,180
292,228,181750,1,0,0:0:0:0:
292,228,181881,2,0,P|280:164|236:100,1,120
140,76,182403,2,0,L|68:92,2,60
156,196,182924,2,0,L|84:220,2,60
264,140,183446,1,0,0:0:0:0:
380,104,183707,6,0,L|380:232,1,120
300,312,184229,2,0,P|248:328|48:284,1,240
68,176,185011,2,0,L|68:120,3,30
68,176,185272,2,0,P|104:228|224:228,1,180
236,180,185794,2,0,L|376:180,1,120
476,172,186316,1,0,0:0:0:0:
384,84,186576,2,0,L|312:84,1,60
308,204,186968,2,0,L|392:204,1,60
420,312,187359,6,0,P|376:328|288:312,1,120
184,312,187881,2,0,P|132:328|56:300,1,120
256,192,188403,12,0,191533,0:0:0:0:
196,180,191794,5,0,0:0:0:0:
196,180,191924,1,0,0:0:0:0:
196,180,192055,2,0,P|180:260|204:296,1,120
256,192,192577,12,0,196229,0:0:0:0:
160,168,196750,6,0,P|144:112|140:96,2,60
152,232,197142,2,0,P|140:288|136:304,2,60
196,196,197533,2,0,P|272:160|324:136,1,120
420,112,198055,2,0,P|412:84|320:76,1,120
284,104,198446,1,0,0:0:0:0:
240,144,198576,2,0,P|264:224|312:240,1,120
400,288,199098,6,0,L|420:160,1,120
348,72,199620,2,0,L|324:200,2,120
228,68,200403,1,4,0:0:0:0:
108,72,200663,1,4,0:0:0:0:
108,192,200924,6,0,P|112:232|140:260,1,60
184,256,201185,2,0,L|324:256,1,120
360,240,201576,2,0,P|392:216|400:176,1,60
384,140,201837,2,0,L|256:140,1,120
204,144,202229,1,0,0:0:0:0:
144,140,202359,1,0,0:0:0:0:
108,188,202490,6,0,P|92:248|96:260,2,60
144,140,202881,2,0,P|200:100|272:80,1,120
308,96,203272,6,0,P|380:136|400:184,1,120
348,200,203663,2,0,P|348:248|408:316,1,120
444,280,204055,2,0,L|444:216,3,60
444,160,204576,1,4,0:0:0:0:
376,60,204837,1,4,0:0:0:0:
304,156,205098,6,0,L|384:156,2,60
184,156,205620,2,0,L|104:156,2,60
216,272,206142,2,0,L|216:336,2,60
220,212,206533,1,0,0:0:0:0:
264,172,206663,2,0,L|328:120,2,60
148,136,207185,6,0,L|96:88,2,60
232,224,207707,2,0,L|232:300,2,60
336,160,208229,2,0,L|376:128,7,30
336,160,208750,6,4,P|280:120|216:112,1,120
112,136,209272,1,0,0:0:0:0:
136,192,209403,1,0,0:0:0:0:
160,248,209533,1,0,0:0:0:0:
280,260,209794,1,0,0:0:0:0:
328,216,209924,1,0,0:0:0:0:
376,176,210055,1,0,0:0:0:0:
300,84,210316,2,0,L|240:84,2,60
360,80,210707,1,0,0:0:0:0:
420,80,210838,2,0,L|500:80,2,60
304,104,211360,6,0,P|288:184|312:224,1,120
424,208,211881,2,0,P|452:276|428:312,1,120
316,276,212403,2,0,P|324:212|280:156,1,120
180,132,212925,1,4,0:0:0:0:
180,132,213186,1,4,0:0:0:0:
180,192,213446,6,0,B|224:212|252:244|264:268|292:276|340:252,1,180
384,220,214359,2,0,L|428:188,2,30
