osu file format v13

[General]
AudioFilename: Yousei Teikoku - Zetsubou plantation.mp3
AudioLeadIn: 0
PreviewTime: 58946
Countdown: 0
SampleSet: Soft
StackLeniency: 0.7
Mode: 0
LetterboxInBreaks: 1
WidescreenStoryboard: 1

[Editor]
Bookmarks: 2663,4750,6837,8924,11011,13098,15185,21446,23533,25620,26663,27707,28750,29794,30837,31881,32924,33968,35011,36055,37098,40229,42446,44533,46490,48576,50663,53794,54837,60837,62142,63055,64490,66316,67359,68663,69968,70490,73098,74663,76750,77794,81707,86142,87185,88229,89272,90316,91359,92403,93446,96707,98663,100750,102837,103881,104924,107011,108055,109098,111185,113011,117185,118490,120316,121098,123707,126837,129446,131011,133098,134142,138055,140403,142490,144576,151881,155011,156316,159446,160229,164924,167794,170924,172750,173794,175098,175359,177707,177968,181098,183707,186576,191794,197794,198837,200924,202490,203272,205098,207185,208229,209272,210837,211359,212924,213185
DistanceSpacing: 1
BeatDivisor: 2
GridSize: 4
TimelineZoom: 1

[Metadata]
Title:Zetsubou Plantation
TitleUnicode:絶望plantation
Artist:Yousei Teikoku
ArtistUnicode:Yousei Teikoku
Creator:EneDZakura
Version:Tsubaki Kasugano [Normal]
Source:Mirai Nikki
Tags:Yuno Gasai Yukiteru Amano Minene Uryuu Murumuru
BeatmapID:287944
BeatmapSetID:110543

[Difficulty]
HPDrainRate:4
CircleSize:3
OverallDifficulty:3
ApproachRate:4
SliderMultiplier:0.999999999999999
SliderTickRate:2

[Events]
//Background and Video events
0,0,"BG2.jpg",0,0
//Break Periods
2,79038,84822
2,137994,145344
//Storyboard Layer 0 (Background)
//Storyboard Layer 1 (Fail)
//Storyboard Layer 2 (Pass)
//Storyboard Layer 3 (Foreground)
//Storyboard Sound Samples
//Background Colour Transformations
3,100,0,0,0

[TimingPoints]
577,260.869565217391,4,2,0,80,1,0
17272,-100,4,2,0,35,0,0
20403,-100,4,2,0,80,0,0
38142,-100,4,2,0,80,0,0
59012,-100,4,2,0,90,0,1
64490,-100,4,2,0,35,0,1
64750,-100,4,2,0,90,0,1
69576,-100,4,2,0,35,0,1
69968,-100,4,2,0,90,0,1
76490,-100,4,2,0,80,0,0
94490,-100,4,2,0,80,0,0
115360,-100,4,2,0,90,0,1
132838,-100,4,2,0,80,0,0
150837,-100,4,2,0,80,0,0
169620,-100,4,2,0,90,0,1
187099,-100,4,2,0,80,0,0
196750,-100,4,2,0,80,0,0
213446,-200,4,2,0,10,0,0
214359,-100,4,3,0,100,0,0
214490,-100,4,3,0,100,0,0
214590,-100,4,3,0,100,0,0

[Colours]
Combo1 : 128,0,255
Combo2 : 0,128,255
Combo3 : 0,128,0
Combo4 : 255,0,0

[HitObjects]
72,72,577,6,0,L|72:160|72:208,1,99.9999999999999
172,192,1098,2,0,L|172:72,1,99.9999999999999
272,80,1620,2,0,P|352:48|440:120,1,200
432,312,2663,1,4,0:0:0:0:
60,168,3707,1,4,0:0:0:0:
440,72,4750,6,0,L|440:160|440:208,1,99.9999999999999
340,192,5272,2,0,L|340:72,1,99.9999999999999
240,80,5794,2,0,P|160:48|72:120,1,200
80,312,6836,1,4,0:0:0:0:
412,92,7880,1,4,0:0:0:0:
32,220,8924,6,0,L|32:132|32:84,1,99.9999999999999
116,68,9446,2,0,L|116:188,1,99.9999999999999
172,252,9968,2,0,P|245:312|336:282,1,200
440,112,11011,1,4,0:0:0:0:
48,188,12054,1,4,0:0:0:0:
448,200,13098,6,0,L|448:112|448:64,1,99.9999999999999
364,44,13620,2,0,L|364:164,1,99.9999999999999
368,244,14141,2,0,P|294:304|203:274,1,200
68,124,15184,1,4,0:0:0:0:
468,168,16229,1,4,0:0:0:0:
256,192,17272,12,0,20403,0:0:0:0:
72,88,21446,6,0,P|80:160|104:200,1,99.9999999999999,2|0,0:0|0:0,0:0:0:0:
100,284,21968,2,0,P|164:308|204:308,1,99.9999999999999,2|0,0:0|0:0,0:0:0:0:
220,212,22490,2,0,P|228:156|252:108,1,99.9999999999999,2|0,0:0|0:0,0:0:0:0:
344,88,23012,2,0,P|392:136|392:184,1,99.9999999999999,2|0,0:0|0:0,0:0:0:0:
368,264,23533,6,0,P|280:312|264:312,1,99.9999999999999,2|0,0:0|0:0,0:0:0:0:
168,288,24055,2,0,L|96:216,1,99.9999999999999,2|0,0:0|0:0,0:0:0:0:
120,120,24577,2,0,P|192:88|216:104,1,99.9999999999999,2|0,0:0|0:0,0:0:0:0:
288,152,25099,1,4,0:0:0:0:
336,240,25360,1,4,0:0:0:0:
432,216,25620,6,0,P|432:136|416:104,1,99.9999999999999,2|0,0:0|0:0,0:0:0:0:
296,40,26142,2,0,L|184:40,1,99.9999999999999,2|0,0:0|0:0,0:0:0:0:
68,116,26664,2,0,P|36:180|36:220,1,99.9999999999999,2|0,0:0|0:0,0:0:0:0:
156,296,27186,2,0,P|212:304|252:288,1,99.9999999999999,2|0,0:0|0:0,0:0:0:0:
288,192,27707,6,0,P|256:144|256:96,1,99.9999999999999,2|0,0:0|0:0,0:0:0:0:
356,96,28229,2,0,P|420:128|436:160,1,99.9999999999999,2|0,0:0|0:0,0:0:0:0:
428,252,28751,2,0,L|428:308,2,50,2|0|0,0:0|0:0|0:0,0:0:0:0:
336,208,29273,1,4,0:0:0:0:
260,144,29533,1,4,0:0:0:0:
196,68,29794,6,0,P|124:76|64:148,1,150
232,320,30837,2,0,P|316:332|384:280,1,150
424,56,31881,2,0,P|352:40|264:68,1,150
128,260,32924,2,0,P|196:276|296:240,1,150
320,168,33576,2,0,L|320:80,2,50
348,212,33968,6,0,P|432:236|476:176,1,150
264,56,35011,2,0,P|184:40|92:72,1,150
148,304,36055,2,0,P|224:312|304:288,1,150
440,92,37098,2,0,P|392:60|288:112,1,150
248,160,37750,2,0,L|248:224,2,50,0|0|0,0:0|0:0|0:0,0:0:0:0:
220,120,38142,6,0,P|148:84|116:104,1,99.9999999999999
72,164,38663,2,0,L|4:244,2,99.9999999999999,0|0|0,0:0|0:0|0:0,0:0:0:0:
172,148,39446,1,0,0:0:0:0:
172,248,39707,2,0,L|140:296|112:336,2,99.9999999999999
268,272,40490,1,0,0:0:0:0:
364,296,40750,2,0,P|416:252|432:200,1,99.9999999999999
448,124,41272,2,0,P|408:60|372:52,1,99.9999999999999
288,40,41794,2,0,L|224:40,2,50,0|0|0,0:0|0:0|0:0,0:0:0:0:
300,140,42316,5,0,0:0:0:0:
300,140,42576,6,0,P|288:200|240:240,1,99.9999999999999
176,276,43099,2,0,L|56:248,1,99.9999999999999
16,176,43620,1,0,0:0:0:0:
108,136,43881,2,0,P|164:184|172:224,1,99.9999999999999
168,308,44403,1,0,0:0:0:0:
272,312,44664,6,0,P|320:320|376:296,1,99.9999999999999
384,208,45186,1,0,0:0:0:0:
368,112,45446,1,0,0:0:0:0:
288,168,45707,2,0,L|176:200,1,99.9999999999999
95,222,46229,1,0,0:0:0:0:
100,122,46490,5,0,0:0:0:0:
100,122,46881,2,0,P|168:81|264:56,1,150
336,68,47533,1,0,0:0:0:0:
336,68,47924,2,0,P|356:168|336:248,1,150
276,284,48576,1,0,0:0:0:0:
276,284,48968,2,0,P|176:256|112:212,1,150
132,132,49620,2,0,L|232:36,2,99.9999999999999
208,316,50663,6,0,L|392:316,1,150
412,232,51316,2,0,L|412:152,1,50
380,88,51707,2,0,P|328:56|236:96,1,150
184,156,52359,2,0,L|148:232,1,50
192,296,52750,2,0,P|264:320|372:288,1,150
352,208,53403,2,0,L|352:120,1,50
340,60,53794,6,0,B|288:24|144:152|44:112,1,300
68,212,54837,2,0,P|120:252|188:192,1,150
220,68,55620,2,0,L|220:-8,2,50,0|0|0,0:0|0:0|0:0,0:0:0:0:
244,112,56011,2,0,P|324:112|408:172,1,150
396,244,56663,1,0,0:0:0:0:
308,292,56924,1,0,0:0:0:0:
208,292,57185,1,0,0:0:0:0:
256,192,57446,12,0,58490,0:0:0:0:
80,80,59012,6,0,P|128:104|152:144,2,99.9999999999999,4|0|0,0:0|0:0|0:0,0:0:0:0:
56,176,59794,2,0,P|56:240|88:272,1,99.9999999999999
176,260,60316,1,0,0:0:0:0:
272,236,60577,1,0,0:0:0:0:
364,196,60837,2,0,P|408:160|324:68,1,200
240,68,61620,2,0,L|124:68,1,99.9999999999999
40,76,62142,5,0,0:0:0:0:
56,176,62403,1,0,0:0:0:0:
80,272,62664,2,0,P|128:280|188:272,1,99.9999999999999
280,268,63185,2,0,P|388:260|404:240,1,99.9999999999999
428,184,63707,2,0,L|488:184,2,50,0|0|0,0:0|0:0|0:0,0:0:0:0:
364,104,64229,2,0,L|276:104,2,50,0|0|0,0:0|0:0|0:0,0:0:0:0:
464,104,64751,6,0,L|464:216,1,99.9999999999999
444,300,65272,2,0,B|368:268|328:272|312:328|288:336|232:276,1,200
160,268,66055,1,0,0:0:0:0:
80,208,66316,2,0,P|72:128|144:68,1,150
364,64,67360,5,4,0:0:0:0:
336,160,67620,1,0,0:0:0:0:
304,256,67881,2,0,P|364:280|416:236,2,99.9999999999999
248,176,68663,2,0,P|172:148|144:168,1,99.9999999999999
256,192,69185,12,0,69968,0:0:0:0:
96,108,70490,5,0,0:0:0:0:
196,112,70751,2,0,L|238:115|308:120,1,99.9999999999999
396,120,71273,1,0,0:0:0:0:
404,220,71533,2,0,P|368:280|56:252,1,400
52,80,73099,6,0,L|52:168|52:196,1,99.9999999999999
72,280,73620,2,0,P|136:324|272:280,1,200
428,208,74664,6,0,L|340:120,1,99.9999999999999
276,80,75186,1,0,0:0:0:0:
176,76,75446,1,0,0:0:0:0:
116,156,75707,2,0,P|168:228|280:280,1,200
256,192,76751,12,0,78838,0:0:0:0:
84,80,86142,5,4,0:0:0:0:
72,180,86403,2,0,P|121:193|152:196,1,50
108,292,86924,2,0,L|232:320,1,99.9999999999999
304,296,87446,2,0,L|336:240,1,50
400,120,87968,6,0,L|284:56,1,99.9999999999999
212,84,88490,2,0,L|136:116,1,50
100,236,89011,2,0,L|204:300,1,99.9999999999999
284,300,89533,2,0,L|340:224,1,50
140,80,90316,5,4,0:0:0:0:
236,124,90577,1,0,0:0:0:0:
280,144,90707,1,0,0:0:0:0:
364,200,91098,2,0,P|396:280|392:304,1,99.9999999999999
296,292,91620,1,0,0:0:0:0:
248,296,91750,1,0,0:0:0:0:
100,272,92142,6,0,L|64:132,1,99.9999999999999
136,96,92663,1,0,0:0:0:0:
184,80,92794,1,0,0:0:0:0:
332,84,93185,1,0,0:0:0:0:
432,76,93446,2,0,L|436:244,1,150
360,292,94098,2,0,L|320:332,2,50
348,244,94490,6,0,L|248:116,1,150
212,100,95011,2,0,P|104:116|56:204,1,200
128,260,95794,1,0,0:0:0:0:
220,296,96055,1,0,0:0:0:0:
316,276,96316,2,0,L|388:200,1,99.9999999999999
456,132,96837,6,0,P|400:84|336:76,1,99.9999999999999
276,76,97359,2,0,P|172:92|160:104,1,99.9999999999999
124,168,97881,2,0,L|96:236,2,50
172,80,98403,1,0,0:0:0:0:
172,80,98663,6,0,B|256:80|256:80|300:116|300:116|380:116,1,200
432,184,99446,2,0,L|432:284,1,99.9999999999999
332,284,99968,2,0,L|248:284,2,50
340,184,100490,1,0,0:0:0:0:
240,188,100750,6,0,B|140:200|112:168|96:160|80:88,1,200
176,68,101533,2,0,L|380:68,1,200
396,168,102316,2,0,L|396:256,2,50,0|0|4,0:0|0:0|0:0,0:0:0:0:
296,176,102837,5,0,0:0:0:0:
144,176,103229,1,0,0:0:0:0:
368,284,103881,1,0,0:0:0:0:
220,284,104272,1,0,0:0:0:0:
344,68,104924,1,0,0:0:0:0:
192,64,105316,1,0,0:0:0:0:
188,312,105968,2,0,L|68:311,2,99.9999999999999
372,236,107011,6,0,P|436:152|416:112,1,150
140,148,108055,2,0,P|76:232|96:272,1,150
372,148,109098,2,0,P|436:232|416:272,1,150
176,224,110142,2,0,L|92:224,2,50
276,220,110663,2,0,L|344:220,2,50
224,136,111185,6,0,L|224:32,1,99.9999999999999
324,48,111707,2,0,P|396:72|432:192,1,200
384,268,112490,2,0,L|260:288,1,99.9999999999999
184,288,113011,1,0,0:0:0:0:
256,192,113273,12,0,114838,0:0:0:0:
104,128,115360,6,0,L|136:224,2,99.9999999999999,4|0|0,0:0|0:0|0:0,0:0:0:0:
200,96,116142,2,0,P|240:80|304:104,1,99.9999999999999
368,160,116664,1,0,0:0:0:0:
312,240,116925,2,0,P|256:272|200:272,1,99.9999999999999
124,264,117446,2,0,L|68:176,1,99.9999999999999
56,132,117837,1,0,0:0:0:0:
92,96,117968,2,0,P|160:76|216:64,1,99.9999999999999
284,104,118490,6,0,P|340:80|392:64,1,99.9999999999999
432,128,119011,2,0,L|436:264,1,99.9999999999999
256,192,119533,12,0,120576,0:0:0:0:
80,88,121098,6,0,L|104:212,1,99.9999999999999
132,280,121620,2,0,P|224:304|448:280,1,300
440,188,122664,2,0,L|440:132,2,50
340,188,123185,2,0,L|204:188,1,99.9999999999999
140,188,123707,5,4,0:0:0:0:
160,88,123968,2,0,P|240:64|300:64,1,99.9999999999999
356,64,124490,2,0,P|408:116|424:180,1,99.9999999999999
388,236,125012,1,0,0:0:0:0:
300,284,125272,2,0,L|160:300,1,99.9999999999999
100,292,125794,2,0,P|80:208|236:64,1,300
320,56,126837,6,0,L|432:56,1,99.9999999999999
452,152,127359,2,0,L|344:188,1,99.9999999999999
256,192,127881,12,0,128924,0:0:0:0:
472,88,129446,6,0,L|356:88|336:88,1,99.9999999999999
268,80,129968,2,0,P|164:88|72:188,1,200
220,300,131011,6,0,P|180:232|124:192,1,99.9999999999999
256,176,131533,2,0,P|240:116|276:64,1,99.9999999999999
352,60,132055,1,0,0:0:0:0:
376,144,132316,2,0,L|404:232,5,50
376,240,133098,6,0,L|248:264,1,99.9999999999999
188,212,133620,2,0,L|96:136,1,99.9999999999999
256,192,134142,12,0,137794,0:0:0:0:
92,80,146664,6,0,P|68:120|84:184,1,99.9999999999999,2|0,0:0|0:0,0:0:0:0:
176,188,147186,2,0,P|232:172|256:132,1,99.9999999999999,2|0,0:0|0:0,0:0:0:0:
356,140,147707,2,0,P|372:212|356:244,1,99.9999999999999,2|0,0:0|0:0,0:0:0:0:
280,288,148229,2,0,P|232:324|176:312,1,99.9999999999999,2|0,0:0|0:0,0:0:0:0:
100,288,148750,5,0,0:0:0:0:
84,188,149011,1,0,0:0:0:0:
172,140,149272,2,0,L|280:88,1,99.9999999999999
360,120,149794,1,0,0:0:0:0:
412,208,150055,1,0,0:0:0:0:
336,272,150316,2,0,L|216:328,1,99.9999999999999
144,312,150837,6,0,P|36:208|128:72,1,300
192,88,151881,2,0,B|248:68|284:116|312:136|392:96,1,200
480,80,152663,1,0,0:0:0:0:
484,180,152924,2,0,P|408:220|268:180,1,200
124,108,153968,6,0,P|96:184|112:240,1,99.9999999999999
196,184,154490,2,0,P|224:264|220:288,1,99.9999999999999
124,292,155011,2,0,P|72:216|276:56,1,400
380,204,156577,5,0,0:0:0:0:
436,288,156838,1,0,0:0:0:0:
256,192,157099,12,0,159186,0:0:0:0:
72,72,160229,6,0,P|152:156|212:188,1,150
312,104,161011,1,0,0:0:0:0:
412,84,161272,2,0,P|476:148|448:260,1,200
264,304,162316,6,0,P|168:288|64:216,1,200
108,136,163098,2,0,L|200:76,1,99.9999999999999
224,176,163620,2,0,L|316:112,1,99.9999999999999
404,88,164142,1,0,0:0:0:0:
412,188,164403,1,0,0:0:0:0:
372,280,164663,1,0,0:0:0:0:
272,300,164924,6,0,B|224:260|156:280|140:312|104:312|76:256,1,200
60,176,165707,2,0,B|128:112|200:104|224:156|252:172|344:92,1,300
428,132,166750,2,0,P|400:208|280:284,1,200
256,192,167533,12,4,169099,0:0:0:0:
56,212,169620,6,0,P|64:120|88:88,1,99.9999999999999
164,88,170142,2,0,L|276:64,1,99.9999999999999
360,60,170663,2,0,B|424:108|264:156|432:192|328:264,1,200
288,328,171446,2,0,P|196:340|68:160,1,300
108,108,172490,1,0,0:0:0:0:
192,52,172750,6,0,P|256:56|336:112,1,150
356,144,173272,2,0,L|404:276,1,99.9999999999999
256,192,173794,12,0,175098,0:0:0:0:
284,68,175359,6,0,P|340:44|404:56,1,99.9999999999999
436,128,175881,2,0,B|388:172|388:172|264:192|264:192|144:244,1,300
64,240,176924,2,0,L|64:68,1,150
308,56,177968,6,0,L|396:56,2,50
208,76,178490,2,0,P|136:112|128:144,1,99.9999999999999
204,192,179011,2,0,L|292:192,2,50
104,188,179533,1,0,0:0:0:0:
104,188,179794,2,0,P|76:124|216:76,1,250
256,76,180576,2,0,L|368:76,1,99.9999999999999
460,68,181098,6,0,P|476:144|436:236,1,150
348,316,181881,1,0,0:0:0:0:
252,284,182142,2,0,L|128:228,1,99.9999999999999
80,188,182663,2,0,P|96:104|212:60,1,200
244,260,183707,5,0,0:0:0:0:
320,196,183968,1,0,0:0:0:0:
400,136,184229,2,0,B|416:76|384:56|344:48|320:72|312:104|296:128|276:124|228:88|244:100,1,200
108,232,185272,6,0,L|192:144,1,99.9999999999999
276,180,185794,2,0,L|360:100,1,99.9999999999999
444,88,186316,2,0,B|436:184|540:192|480:248|508:288,1,200
304,296,187359,6,0,P|244:288|184:236,1,99.9999999999999
224,168,187881,2,0,P|192:112|144:96,1,99.9999999999999
256,192,188403,12,0,191533,0:0:0:0:
100,60,192577,6,0,P|84:132|108:172,1,99.9999999999999,2|0,0:0|0:0,0:0:0:0:
184,112,193099,2,0,P|192:168|176:208,1,99.9999999999999,2|0,0:0|0:0,0:0:0:0:
92,264,193620,2,0,P|184:288|224:280,1,99.9999999999999
284,260,194142,2,0,P|324:212|316:172,1,99.9999999999999,2|0,0:0|0:0,0:0:0:0:
268,92,194664,6,0,L|148:92,1,99.9999999999999
124,184,195186,2,0,L|236:184,1,99.9999999999999
180,272,195707,2,0,L|284:336,1,99.9999999999999
356,280,196229,1,4,0:0:0:0:
440,224,196490,1,4,0:0:0:0:
384,140,196751,6,0,L|288:52,1,99.9999999999999,2|0,0:0|0:0,0:0:0:0:
300,172,197273,2,0,L|212:88,1,99.9999999999999,2|0,0:0|0:0,0:0:0:0:
140,56,197794,2,0,P|100:100|112:252,1,200
176,296,198576,2,0,L|244:284,1,50
360,236,199098,6,0,L|388:124,1,99.9999999999999
336,52,199620,2,0,L|156:192,1,200
104,244,200403,1,4,0:0:0:0:
104,244,200663,1,4,0:0:0:0:
204,240,200924,6,0,P|284:208|344:208,1,99.9999999999999
368,264,201446,2,0,P|424:232|440:192,1,99.9999999999999
440,100,201968,1,0,0:0:0:0:
340,84,202229,2,0,L|240:84,1,99.9999999999999
140,84,202750,2,0,L|64:84,2,50
224,140,203272,6,0,P|320:144|352:168,2,99.9999999999999
136,188,204055,2,0,P|60:192|24:216,2,99.9999999999999
192,272,204837,1,4,0:0:0:0:
292,284,205098,6,0,L|404:216,1,99.9999999999999
452,164,205620,2,0,L|380:72,1,99.9999999999999
292,68,206142,2,0,L|168:72,1,99.9999999999999
108,128,206663,2,0,L|72:244,1,99.9999999999999
156,288,207185,2,0,L|284:308,1,99.9999999999999
340,252,207707,2,0,L|424:136,1,99.9999999999999
360,80,208229,2,0,L|244:56,1,99.9999999999999
157,90,208750,1,4,0:0:0:0:
80,156,209011,1,4,0:0:0:0:
120,248,209272,6,0,P|208:288|248:280,1,99.9999999999999
252,196,209794,2,0,P|284:136|324:104,1,99.9999999999999
368,192,210316,2,0,P|416:156|444:108,1,99.9999999999999
380,40,210837,2,0,P|300:40|264:56,1,99.9999999999999
288,148,211359,2,0,P|288:216|256:248,1,99.9999999999999
172,260,211881,2,0,P|132:224|108:160,1,99.9999999999999
192,124,212403,2,0,P|248:88|304:80,1,99.9999999999999
376,104,212924,1,4,0:0:0:0:
424,192,213185,1,4,0:0:0:0:
256,192,213446,12,0,214490,0:0:0:0:
