osu file format v9

[General]
AudioFilename: Wei Flugel.mp3
AudioLeadIn: 0
PreviewTime: 203105
Countdown: 0
SampleSet: Soft
StackLeniency: 0.7
Mode: 0
LetterboxInBreaks: 1

[Editor]
Bookmarks: 3272,13939,35272,51272,56605,77939,80605,91272,112605,128605,133939,138931,155272,157939,168605,179272,200605,203272,224605
DistanceSpacing: 1.1
BeatDivisor: 4
GridSize: 4

[Metadata]
Title:Weiss Fluegel
Artist:Yousei Teikoku
Creator:lolcubes
Version:Normal
Source:
Tags:fairy yui itsuki gothic lolita doctrine white wing

[Difficulty]
HPDrainRate:4
CircleSize:4
OverallDifficulty:4
ApproachRate:5
SliderMultiplier:0.9
SliderTickRate:1

[Events]
//Background and Video events
Video,299,"whitewing.avi"
0,0,"BG.jpg"
//Break Periods
2,80797,90064
2,158131,167397
//Storyboard Layer 0 (Background)
//Storyboard Layer 1 (Fail)
//Storyboard Layer 2 (Pass)
//Storyboard Layer 3 (Foreground)
//Storyboard Sound Samples
//Background Colour Transformations
3,100,0,0,0

[TimingPoints]
598,333.333333333333,4,2,0,70,1,0
13931,-133.333333333333,4,2,2,70,0,0
35264,-111.111111111111,4,2,1,70,0,0
56597,-100,4,1,0,70,0,0
56681,-100,4,2,1,70,0,0
61931,-100,4,1,0,70,0,0
62014,-100,4,2,1,70,0,0
67264,-100,4,1,0,70,0,0
67347,-100,4,2,1,70,0,0
69931,-100,4,1,0,70,0,0
70014,-100,4,2,1,70,0,0
72597,-100,4,1,0,70,0,0
72681,-100,4,2,1,70,0,0
79931,-100,4,1,0,70,0,0
91264,-133.333333333333,4,2,2,70,0,0
96597,-133.333333333333,4,2,0,70,0,0
101931,-133.333333333333,4,2,2,70,0,0
107264,-133.333333333333,4,2,0,70,0,0
112597,-111.111111111111,4,2,1,70,0,0
123264,-111.111111111111,4,2,1,70,0,0
133931,-100,4,1,0,70,0,0
134014,-100,4,2,1,70,0,0
139264,-100,4,1,0,70,0,0
139347,-100,4,2,1,70,0,0
144597,-100,4,1,0,70,0,0
144681,-100,4,2,1,70,0,0
147264,-100,4,1,0,70,0,0
147347,-100,4,2,1,70,0,0
149931,-100,4,1,0,70,0,0
150014,-100,4,2,1,70,0,0
157264,-100,4,1,0,70,0,0
168597,-100,4,1,0,70,0,1
168681,-100,4,2,1,70,0,1
179181,-100,4,1,0,70,0,0
179264,-100,4,1,0,70,0,1
179347,-100,4,2,1,70,0,1
184597,-100,4,1,0,70,0,1
184681,-100,4,2,1,70,0,1
189931,-100,4,1,0,70,0,1
190014,-100,4,2,1,70,0,1
195264,-100,4,1,0,70,0,1
195347,-100,4,2,1,70,0,1
197597,-100,4,1,0,70,0,1
197931,-100,4,2,1,70,0,1
200597,-100,4,2,1,70,0,0
202597,-100,4,1,0,70,0,0
203264,-100,4,1,0,70,0,1
203347,-100,4,2,1,70,0,1
208264,-100,4,1,0,70,0,1
208681,-100,4,2,1,70,0,1
213597,-100,4,1,0,70,0,1
213931,-100,4,1,0,70,0,1
214014,-100,4,2,1,70,0,1
224597,-100,4,2,1,5,0,0
225264,705.882352941176,4,1,0,70,1,0
242911,727.272727272727,4,1,0,70,1,0
243638,750,4,1,0,70,1,0
245138,857.142857142857,4,1,0,70,1,0
246007,923.076923076923,4,1,0,70,1,0
246930,923.076923076923,4,1,0,70,1,0

[Colours]
Combo1 : 233,233,233
Combo2 : 212,0,0

[HitObjects]
220,248,13931,21,0
188,160,14264,5,0
280,176,14597,2,0,B|308:224|364:220,1,101.249996982515,0|2
388,80,15597,2,0,B|456:80,2,67.4999979883433
304,40,16597,1,0
208,40,16931,5,0
144,108,17264,2,0,B|88:112|64:160,1,101.249996982515,0|2
208,40,18931,5,0
288,88,19264,2,0,B|320:100|356:88,1,67.4999979883433,2|0
432,144,19931,2,0,B|460:96|440:48,2,101.249996982515,0|2|0
344,180,21264,1,0
420,236,21597,1,0
332,272,21931,1,0
244,308,22264,5,0
252,216,22597,2,0,B|196:208|176:156,1,101.249996982515,0|2
264,124,24597,1,0
252,216,24931,5,0
168,256,25264,2,0,B|116:276|72:248,1,101.249996982515,0|2
128,116,26264,2,0,B|128:48,2,67.4999979883433
44,160,27264,1,0
72,248,27597,5,0
156,204,27931,2,0,B|208:188|220:132,1,101.249996982515,0|2
72,248,29597,5,0
152,296,29931,2,0,B|184:284|220:296,1,67.4999979883433,2|0
312,316,30597,2,0,B|360:336|412:316,2,101.249996982515,0|2|0
220,296,31931,1,0
284,228,32264,1,0
256,192,32597,12,2,33931
184,156,34597,5,2
372,252,35264,6,0,B|416:202|396:140,2,121.499994206429,4|8|0
228,280,36764,2,0,B|216:320,1,40.4999980688096,8|2
124,352,37264,1,8
56,280,37597,1,2
108,200,37931,6,0,B|80:142|108:84,2,121.499994206429,2|2|2
204,216,39264,2,0,B|262:188|320:216,2,121.499994206429,2|2|2
264,292,40597,6,0,B|322:320|380:292,2,121.499994206429,4|8|0
328,160,42097,2,0,B|380:119|364:52,1,121.499994206429,8|8
272,84,42931,5,2
232,172,43264,2,0,B|160:224|188:316,1,161.999992275238,4|2
328,280,44431,1,2
408,224,44764,6,0,B|448:212,1,40.4999980688096,8|0
416,120,45264,1,8
328,160,45597,5,8
232,172,45931,2,0,B|164:180|124:132,2,121.499994206429,4|8|0
268,32,47431,2,0,B|228:40,1,40.4999980688096,8|2
132,36,47931,1,8
44,76,48264,1,2
124,132,48597,6,0,B|88:186|116:248,2,121.499994206429,6|2|2
196,196,49931,2,0,B|260:176|312:216,2,121.499994206429,2|2|2
240,284,51264,5,4
48,316,51931,1,8
124,192,52431,2,0,B|168:192|192:156,1,80.9999961376192,8|0
280,116,53097,1,0
280,116,53264,2,0,B|316:92|356:104,1,80.9999961376192,8|2
336,200,53931,6,0,B|244:228|192:156,1,161.999992275238,4|8
92,48,55097,2,0,B|128:104|108:164,1,121.499994206429,4|8
76,256,55931,1,8
172,240,56264,1,8
140,332,56597,6,0,B|208:372|248:296|316:332,1,180,4|8
460,300,57764,2,0,B|392:264|392:192,1,135,8|2
452,112,58597,1,8
492,204,58931,1,2
392,192,59264,6,0,B|348:216|304:200,1,90,4|0
212,168,59931,2,0,B|200:220,1,45,8|0
120,156,60431,2,0,B|44:144|28:68,1,135,8|0
128,56,61264,1,8
212,112,61597,1,0
200,212,61931,6,0,B|100:232|88:336,1,180,4|8
236,352,63097,2,0,B|288:364|312:320|368:328,1,135,8|2
480,360,63931,5,8
452,248,64264,1,2
480,136,64597,6,0,B|444:168|396:152,1,90,4|2
296,164,65264,2,0,B|308:120,1,45,8|2
232,56,65764,2,0,B|180:108|200:180,1,135,4|8
260,256,66597,1,8
164,272,66931,1,8
128,364,67264,6,0,B|72:336|84:244|32:216,1,180,4|8
148,124,68431,1,4
264,32,68931,2,0,B|308:48|352:32,2,90,2|8|2
248,128,69931,6,0,B|187:206|242:294,1,180,4|8
376,364,71097,1,4
488,268,71597,1,0
496,168,71931,1,8
412,112,72264,1,0
408,212,72597,6,0,B|326:271|240:220,1,180,4|8
128,120,73764,1,4
88,208,74097,1,8
88,208,74264,2,0,B|48:292,2,90,0|8|0
28,128,75264,5,4
152,284,75931,1,2
340,228,76597,1,4
216,72,77264,2,0,B|172:94|164:140,1,90,2|4
256,192,77931,12,4,80597
352,324,91264,21,0
344,228,91597,5,0
268,284,91931,2,0,B|212:284|180:244,1,101.249996982515,0|2
152,104,92931,2,0,B|152:32,2,67.4999979883433
104,188,93931,1,0
180,244,94264,5,0
232,164,94597,2,0,B|276:132|328:152,1,101.249996982515,0|0
420,172,95431,2,0,B|432:128,1,33.7499989941716,2|0
452,48,95931,1,2
360,64,96264,5,0
328,152,96597,2,0,B|352:224|292:272,1,134.999995976687,2|0
160,328,97764,2,0,B|214:319|252:356,1,101.249996982515,2|0
348,352,98597,1,0
440,324,98931,1,0
460,232,99264,1,0
368,260,99597,5,0
388,168,99931,2,0,B|408:116|376:72,1,101.249996982515,0|0
300,132,100764,2,0,B|260:148,1,33.7499989941716,2|0
180,180,101264,1,2
252,356,101931,1,0
164,320,102264,6,0,B|148:352|112:360,1,67.4999979883433
64,228,103097,2,0,B|40:180|64:128,1,101.249996982515,2|0
124,60,103931,1,0
160,148,104264,1,0
252,160,104597,1,0
216,72,104931,5,0
308,84,105264,2,0,B|344:128|400:112,1,101.249996982515
488,84,106097,2,0,B|480:124,1,33.7499989941716,2|0
456,208,106597,1,2
484,300,106931,5,0
392,280,107264,2,0,B|340:336|268:308,1,134.999995976687,2|0
244,168,108431,2,0,B|260:220|316:232,1,101.249996982515,2|0
336,140,109264,1,0
264,76,109597,1,0
256,192,109931,12,2,111264
332,124,111931,5,2
236,292,112597,6,0,B|168:276|160:208,2,121.499994206429,4|8|0
352,200,114097,2,0,B|364:244,1,40.4999980688096,8|2
420,316,114597,1,8
324,328,114931,1,2
360,236,115264,6,0,B|420:208|416:136,2,121.499994206429,2|2|2
316,148,116597,1,2
192,228,117097,1,2
188,84,117597,1,2
104,36,117931,6,0,B|72:100|120:152,1,121.499994206429,4|8
256,108,118931,1,0
292,248,119431,2,0,B|276:288,1,40.4999980688096,8|0
188,324,119931,1,8
192,228,120264,5,2
104,272,120597,2,0,B|28:224|48:132,1,161.999992275238,4|8
136,16,121764,1,0
140,112,122097,6,0,B|210:108|229:44,1,121.499994206429,8|8
300,108,122931,1,8
396,88,123264,6,0,B|424:28|496:32,2,121.499994206429,4|8|0
380,232,124764,2,0,B|340:244,1,40.4999980688096,8|2
244,264,125264,1,8
276,172,125597,1,2
340,244,125931,6,0,B|368:304|436:308,2,121.499994206429,4|2|2
432,208,127264,2,0,B|478:123|404:64,1,161.999992275238,2|8
356,148,128264,1,2
340,244,128597,6,0,B|276:308|192:272,1,161.999992275238,4|8
96,268,129597,1,0
96,268,129764,2,0,B|128:236|128:196,1,80.9999961376192,8|0
196,128,130431,1,0
196,128,130597,2,0,B|152:132|124:100,1,80.9999961376192,8|2
192,32,131264,6,0,B|284:20|324:104,1,161.999992275238,4|8
400,228,132431,2,0,B|469:227|490:162,1,121.499994206429,4|8
468,68,133264,1,8
400,136,133597,1,8
320,192,133931,6,0,B|256:268|304:360,1,180,4|8
444,304,135097,2,0,B|388:256|316:276,1,135,8|2
224,308,135931,1,8
140,256,136264,1,2
228,208,136597,6,0,B|252:164|232:120,1,90,4|2
140,160,137264,2,0,B|96:168,1,45,8|2
36,248,137764,2,0,B|40:324|116:352,1,135,8|0
204,332,138597,1,8
292,284,138931,1,0
380,332,139264,6,0,B|424:272|352:220|392:160,1,180,4|8
448,20,140431,2,0,B|416:88|336:80,1,135,8|2
232,36,141264,5,8
244,152,141597,1,2
136,104,141931,6,0,B|132:152|84:172,1,90,4|2
40,260,142597,2,0,B|56:308,1,45,8|2
140,252,143097,2,0,B|184:308|260:292,1,135,4|8
340,352,143931,1,8
432,312,144264,1,8
352,256,144597,6,0,B|296:169|357:87,1,180,4|8
440,212,145764,1,4
384,352,146264,2,0,B|338:371|296:340,2,90,2|8|2
352,256,147264,6,0,B|260:208|188:284,1,180,4|8
40,292,148431,1,4
76,200,148764,2,0,B|120:184,1,45
212,152,149264,1,8
136,88,149597,1,0
116,184,149931,6,0,B|172:268|276:232,1,180,4|8
416,276,151097,1,4
368,188,151431,1,8
368,188,151597,2,0,B|396:104,2,90,0|8|0
336,280,152597,5,4
144,328,153264,1,2
96,136,153931,1,4
288,88,154597,2,0,B|312:130|288:176,1,90,2|4
256,192,155264,12,4,157931
172,192,168597,22,0,B|129:217|88:192,2,90,4|8|0
256,140,169597,1,8
340,88,169931,2,0,B|383:63|424:88,1,90,2|8
380,176,170597,2,0,B|384:224|348:256,1,90,2|8
252,272,171264,6,0,B|272:344|348:352,1,135,2|2
436,304,172097,1,2
432,204,172431,1,2
348,256,172764,1,2
344,156,173097,1,2
344,156,173264,2,0,B|297:157|268:196,1,90,0|8
256,296,173931,6,0,B|207:294|184:252,1,90,4|8
104,192,174597,2,0,B|152:191|180:152,1,90,2|8
264,96,175264,2,0,B|180:32|96:96,1,180,2|2
16,148,176264,1,2
104,192,176597,5,2
212,356,177264,1,2
384,260,177931,1,2
276,96,178598,1,2
252,192,178931,1,8
348,168,179264,5,4
384,260,179597,2,0,B|332:344|232:336,1,180,8|8
231,336,180431,2,0,B|200:268|124:264,1,135,2|8
48,324,181264,1,2
136,364,181597,1,8
128,264,181931,5,4
120,164,182264,1,8
112,64,182597,2,0,B|72:48,2,45,2|0|8
200,108,183264,6,0,B|245:123|287:98,1,90,2|8
385,112,183931,2,0,B|395:62|360:30,1,90,2|8
287,98,184597,5,4
321,191,184931,2,0,B|256:266|306:357,1,180,8|8
306,357,185764,2,0,B|360:304|432:340,1,135,2|8
468,228,186597,5,2
416,124,186931,1,8
320,192,187264,6,0,B|280:164|236:172,1,90,4|8
140,148,187931,2,0,B|128:104,2,45,2|0|8
168,244,188597,1,2
216,328,188931,1,8
312,312,189264,1,2
324,216,189597,1,8
236,172,189931,5,4
320,116,190264,2,0,B|388:192|484:152,1,180,8|8
482,152,191097,2,0,B|436:96|472:24,1,135,2|8
372,28,191931,1,2
272,28,192264,1,8
212,108,192597,5,4
268,188,192931,2,0,B|164:220|116:128,1,180,8|8
116,128,193764,2,0,B|40:144|32:220,1,135,4|8
112,280,194597,1,0
192,340,194931,1,8
276,288,195264,5,4
360,336,195597,2,0,B|436:268|396:172,1,180,8|8
396,173,196431,2,0,B|328:212|272:164,1,135,4|8
340,92,197264,1,0
440,84,197597,6,0,B|483:107|492:152,1,90,0|4
380,316,198597,1,2
180,312,199264,1,4
292,148,199931,1,2
256,192,200597,12,0,202597
192,248,203264,5,4
224,156,203597,6,0,B|248:196|300:196,1,90,8|2
356,280,204264,1,8
356,280,204431,2,0,B|416:232|392:156,1,135,2|8
460,84,205264,1,2
364,64,205597,1,8
268,44,205931,6,0,B|180:44,2,90,4|8|0
300,140,206931,1,8
332,232,207264,5,4
260,296,207597,1,8
176,244,207931,1,2
200,148,208264,1,0
300,140,208597,1,4
240,60,208931,6,0,B|196:40|152:64,1,90,8|2
100,144,209597,1,8
100,144,209764,2,0,B|128:212|76:268,1,135,2|8
172,284,210597,1,2
228,368,210931,1,8
308,308,211264,6,0,B|348:340|392:320,2,90,4|8|0
252,228,212264,1,8
196,148,212597,2,0,B|156:116|112:136,2,90,2|8|0
276,88,213597,1,0
356,28,213931,1,4
368,128,214264,6,0,B|364:176|408:204,1,90,8|2
420,304,214931,1,8
420,304,215097,2,0,B|364:252|296:276,1,135,2|8
216,336,215931,1,2
168,248,216264,1,8
72,224,216597,6,0,B|32:192|40:144,2,90,4|8|0
140,152,217597,1,8
236,172,217931,6,0,B|340:188|392:108,1,180,2|2
452,188,218931,1,8
368,236,219264,6,2,B|320:216|312:168,1,90,0|4
292,72,219931,1,2
200,104,220264,1,8
200,104,220431,2,0,B|144:56|72:84,1,135,2|8
124,168,221264,1,2
216,204,221597,1,8
256,192,221931,12,0,224597
