osu file format v9

[General]
AudioFilename: Wei Flugel.mp3
AudioLeadIn: 0
PreviewTime: 203105
Countdown: 0
SampleSet: Soft
StackLeniency: 0.7
Mode: 0
LetterboxInBreaks: 1

[Editor]
Bookmarks: 3272,13939,35272,51272,56605,77939,80605,91272,112605,128605,133939,138931,155272,157939,168605,179272,200605,203272,224605
DistanceSpacing: 1.3
BeatDivisor: 4
GridSize: 4

[Metadata]
Title:Weiss Fluegel
Artist:Yousei Teikoku
Creator:lolcubes
Version:Insane
Source:
Tags:fairy yui itsuki gothic lolita doctrine white wing

[Difficulty]
HPDrainRate:6
CircleSize:4
OverallDifficulty:6
ApproachRate:8
SliderMultiplier:1.4
SliderTickRate:1

[Events]
//Background and Video events
Video,299,"whitewing.avi"
0,0,"BG.jpg"
//Break Periods
2,80797,90514
2,158131,167848
//Storyboard Layer 0 (Background)
//Storyboard Layer 1 (Fail)
//Storyboard Layer 2 (Pass)
//Storyboard Layer 3 (Foreground)
//Storyboard Sound Samples
//Background Colour Transformations
3,100,0,0,0

[TimingPoints]
598,333.333333333333,4,2,0,70,1,0
13931,-133.333333333333,4,2,2,70,0,0
35264,-111.111111111111,4,2,1,70,0,0
45431,-111.111111111111,4,2,1,66,0,0
45597,-111.111111111111,4,2,1,62,0,0
45764,-111.111111111111,4,2,1,58,0,0
45931,-111.111111111111,4,2,1,70,0,0
56597,-100,4,1,0,70,0,0
56681,-100,4,2,1,70,0,0
61931,-100,4,1,0,70,0,0
62014,-100,4,2,1,70,0,0
63931,-86.9565217391304,4,2,1,70,0,0
64264,-100,4,2,1,70,0,0
67264,-100,4,1,0,70,0,0
67347,-100,4,2,1,70,0,0
69931,-100,4,1,0,70,0,0
70014,-100,4,2,1,70,0,0
72597,-100,4,1,0,70,0,0
72681,-100,4,2,1,70,0,0
79931,-100,4,1,0,70,0,0
91264,-133.333333333333,4,2,0,70,0,0
112597,-111.111111111111,4,2,1,70,0,0
122764,-111.111111111111,4,2,1,66,0,0
122931,-111.111111111111,4,2,1,62,0,0
123097,-111.111111111111,4,2,1,58,0,0
123264,-111.111111111111,4,2,1,70,0,0
133931,-100,4,1,0,70,0,0
134014,-100,4,2,1,70,0,0
139264,-100,4,1,0,70,0,0
139347,-100,4,2,1,70,0,0
141264,-86.9565217391304,4,2,1,70,0,0
141597,-100,4,2,1,70,0,0
144597,-100,4,1,0,70,0,0
144681,-100,4,2,1,70,0,0
147264,-100,4,1,0,70,0,0
147347,-100,4,2,1,70,0,0
149931,-100,4,1,0,70,0,0
150014,-100,4,2,1,70,0,0
157264,-100,4,1,0,70,0,0
168597,-100,4,1,0,70,0,1
168681,-100,4,2,1,70,0,1
178597,-100,4,1,0,70,0,1
179181,-100,4,1,0,70,0,0
179264,-100,4,1,0,70,0,1
179347,-100,4,2,1,70,0,1
184597,-100,4,1,0,70,0,1
184681,-100,4,2,1,70,0,1
186597,-86.9565217391304,4,2,1,70,0,1
186931,-100,4,2,1,70,0,1
189931,-100,4,1,0,70,0,1
190014,-100,4,2,1,70,0,1
195264,-100,4,1,0,70,0,1
195347,-100,4,2,1,70,0,1
197597,-100,4,1,0,70,0,1
197931,-100,4,2,1,70,0,1
200597,-100,4,2,1,70,0,0
202597,-100,4,1,0,70,0,0
203264,-100,4,1,0,70,0,1
203347,-100,4,2,1,70,0,1
208264,-100,4,1,0,70,0,1
208681,-100,4,2,1,70,0,1
213264,-100,4,1,0,70,0,1
214014,-100,4,2,1,70,0,1
224597,-100,4,2,1,5,0,0
225264,705.882352941176,4,1,0,70,1,0
242911,727.272727272727,4,1,0,70,1,0
243638,750,4,1,0,70,1,0
245138,857.142857142857,4,1,0,70,1,0
246007,923.076923076923,4,1,0,70,1,0
246930,923.076923076923,4,1,0,70,1,0

[Colours]
Combo1 : 233,233,233
Combo2 : 212,0,0
Combo3 : 233,233,233

[HitObjects]
228,264,13931,21,0
260,108,14264,22,0,B|300:140|360:136,1,104.999996870756
436,120,14764,1,0
308,28,15098,2,0,B|268:12|224:12|192:36|172:72,1,157.499995306134,2|0
116,220,15931,1,0
272,192,16264,1,0
124,138,16598,1,0
440,240,16931,6,0,B|398:200|344:224,1,104.999996870756
276,268,17431,1,0
136,340,17764,2,0,B|244:240|204:100,1,262.499992176891,2|0
60,36,18931,21,0
16,104,19097,1,0
36,180,19264,2,0,B|64:228|124:224,1,104.999996870756,2|0
276,184,19931,1,0
464,24,20264,1,0
400,72,20431,2,0,B|352:140|396:220,1,157.499995306134,2|0
296,340,21264,1,0
276,184,21597,1,0
144,96,21931,1,0
36,336,22264,6,0,B|96:336|120:284,1,104.999996870756
132,208,22764,1,0
60,240,22931,1,0
120,284,23097,2,0,B|180:288|208:228,1,104.999996870756,2|0
256,192,23597,12,0,24597
200,88,24931,22,0,B|172:136|200:188,1,104.999996870756
248,248,25431,1,0
392,312,25764,2,0,B|440:236|396:164,1,157.499995306134,2|0
284,52,26597,1,0
200,188,26931,1,0
256,336,27264,1,0
284,180,27597,6,0,B|288:240|236:264,1,104.999996870756
160,284,28097,1,0
28,36,28431,2,0,B|104:128|36:232,1,209.999993741512,2|0
408,320,29597,21,2
352,264,29764,1,2
328,188,29931,2,0,B|300:84,1,104.999996870756,2|0
408,204,30597,1,0
332,344,30931,1,0
276,288,31097,2,0,B|200:248|128:300,1,157.499995306134,2|0
12,192,31931,1,0
168,200,32264,1,0
208,352,32597,1,0
52,344,32931,6,0,B|88:304|88:248,1,104.999996870756,0|2
88,247,33431,2,0,B|132:284|188:276,1,104.999996870756,0|2
264,256,33931,21,0
60,120,34264,1,0
130,355,34597,1,0
224,128,34931,5,0
300,140,35097,1,0
376,136,35264,22,0,B|404:80,1,62.999996995926,4|0
148,136,35764,2,0,B|85:139,1,62.999996995926,8|0
264,332,36264,2,0,B|298:384,1,62.999996995926
264,124,36764,2,0,B|260:61,1,62.999996995926,8|0
464,224,37264,2,0,B|424:228|424:228|380:220|380:220|340:224,1,125.999993991852,8|0
252,232,37764,1,0
164,244,37931,5,2
76,252,38097,1,0
288,152,38431,1,10
325,71,38597,1,0
300,304,38931,1,2
352,376,39097,1,0
352,376,39264,21,2
44,156,39764,1,2
392,4,40264,1,2
280,228,40598,6,0,B|260:288,1,62.999996995926,4|0
108,88,41098,2,0,B|128:28,1,62.999996995926,8|0
176,276,41598,2,0,B|156:336,1,62.999996995926
8,128,42098,2,0,B|28:68,1,62.999996995926,8|0
276,28,42598,1,8
468,192,42931,21,2
416,264,43098,1,2
328,268,43264,2,0,B|256:268|232:200,1,125.999993991852,2|0
276,28,43931,1,2
272,116,44098,1,0
152,248,44431,1,2
12,140,44764,6,0,B|32:200,1,62.999996995926,8|0
208,180,45264,1,8
120,164,45431,1,8
152,248,45598,21,8
176,96,45764,1,8
328,64,45931,6,0,B|388:52,1,62.999996995926,4|0
188,332,46431,2,0,B|128:344,1,62.999996995926,8|0
344,148,46931,1,0
424,188,47098,1,0
172,248,47431,1,8
92,208,47598,21,2
304,28,47931,1,10
136,80,48264,1,2
416,104,48598,6,0,B|480:108,1,62.999996995926,4|0
328,312,49098,1,10
240,304,49264,1,0
68,120,49598,2,0,B|132:104,1,62.999996995926,2|0
216,88,49931,22,0,B|320:136|384:48,1,188.999990987778,2|2
456,100,50598,1,8
356,244,50931,1,2
284,192,51098,1,8
196,196,51264,1,4
68,320,51598,6,0,B|16:288,1,62.999996995926
92,244,51931,2,0,B|144:276,1,62.999996995926,8|0
212,336,52264,1,8
300,336,52431,1,8
396,104,52764,21,0
148,136,53098,1,0
220,88,53264,2,0,B|232:148,1,62.999996995926,8|0
176,220,53598,5,10
312,192,53764,1,10
220,88,53931,22,0,B|168:36|104:64,1,125.999993991852,4|0
28,224,54598,2,0,B|88:204,1,62.999996995926,8|0
256,256,55098,2,0,B|220:316|148:304,1,125.999993991852,4|0
176,220,55598,6,0,B|159:159,1,62.999996995926,8|0
248,168,55931,2,0,B|308:184,1,62.999996995926,8|0
296,96,56264,2,0,B|312:36,1,62.999996995926,8|8
212,88,56598,22,0,B|134:65|87:124,1,140,4|0
76,308,57264,2,0,B|154:331|201:272,1,140,8|0
292,260,57764,1,10
252,344,57931,1,0
120,220,58264,1,2
56,156,58431,2,0,B|116:120,1,70,0|10
336,132,58931,2,0,B|275:167,1,70,2|0
264,76,59264,6,0,B|320:24|396:60,1,140,4|0
404,240,59931,2,0,B|416:172,1,70,8|0
476,100,60264,21,0
496,188,60431,1,8
480,276,60598,6,0,B|452:344,1,70,2|0
364,320,60931,2,0,B|300:348,1,70,2|0
208,260,61264,2,0,B|212:328,1,70,10|0
316,244,61598,2,0,B|280:184,1,70,2|0
232,108,61931,22,0,B|188:48|108:60,1,140,4|0
72,272,62598,2,0,B|131:228|119:148,1,140,8|0
108,60,63098,1,10
36,116,63264,1,0
200,196,63598,1,2
288,216,63764,1,0
368,172,63931,2,0,B|432:104|396:24,1,161.000005277991,10|2
232,108,64598,6,0,B|200:180|248:240,1,140,4|0
408,328,65264,2,0,B|340:320,1,70,8|0
160,352,65764,1,0
104,280,65931,22,0,B|52:236,1,70,2|0
132,192,66264,2,0,B|120:124,1,70,10|0
232,82,66598,2,0,B|208:148,1,70,10|0
296,180,66931,2,0,B|360:156,1,70,10|8
484,31,67264,6,0,B|508:108|452:160,1,140,4|0
308,268,67931,1,8
316,88,68264,1,0
228,116,68431,2,0,B|148:124|120:48,1,140,4|0
208,28,68931,1,2
48,112,69264,1,8
116,280,69598,1,2
104,188,69764,1,0
188,224,69931,22,0,B|264:248|316:192,1,140,4|0
392,28,70598,1,8
208,28,70931,1,0
264,100,71098,2,0,B|216:160|252:232,1,140,4|0
328,284,71598,6,0,B|360:220,1,70
420,152,71931,1,8
448,240,72098,1,8
448,240,72181,1,8
448,240,72264,2,0,B|452:308,1,70,8|0
376,360,72598,22,0,B|300:388|248:328,1,140,4|0
204,248,73098,1,0
244,164,73264,1,8
108,40,73598,2,0,B|68:124,1,70,0|4
120,280,74098,5,8
92,192,74264,1,0
160,132,74431,1,0
244,164,74598,2,0,B|312:152,1,70,8|0
276,68,74931,2,0,B|340:32,1,70,8|8
392,108,75264,21,6
436,300,75598,1,0
248,240,75931,1,10
208,48,76264,2,0,B|256:100,1,70,0|8
320,172,76598,5,6
136,108,76931,1,0
64,176,77098,1,8
64,176,77181,1,8
64,176,77264,1,10
248,240,77598,1,4
256,192,77931,12,0,79931
256,192,80597,5,4
304,108,91264,37,0
340,260,91597,6,0,B|400:260|424:208,1,104.999996870756,0|2
444,132,92097,1,0
296,192,92431,1,0
260,264,92597,2,0,B|208:280,1,52.4999984353781,0|0
156,220,92931,2,0,B|104:216,1,52.4999984353781,2|0
72,144,93264,1,0
216,84,93597,1,0
288,116,93764,1,2
224,164,93931,1,0
48,304,94264,6,0,B|8:264|24:208,1,104.999996870756,0|2
72,144,94764,1,0
196,240,95097,1,2
276,228,95264,2,0,B|308:188,1,52.4999984353781,0|2
388,172,95597,1,0
404,16,95931,2,0,B|352:28,1,52.4999984353781,2|0
292,80,96264,21,0
260,152,96431,1,2
276,228,96597,2,0,B|292:288|248:324,1,104.999996870756
92,348,97264,1,2
64,192,97597,1,0
112,128,97764,2,0,B|140:172,1,52.4999984353781
148,292,98097,2,0,B|120:248,1,52.4999984353781
32,116,98597,1,2
176,48,98931,1,0
244,88,99097,1,2
324,80,99264,1,0
312,236,99597,6,0,B|360:204|364:148,1,104.999996870756,0|2
404,80,100097,1,0
500,204,100431,1,0
440,152,100597,2,0,B|424:204,1,52.4999984353781,0|2
460,272,100931,2,0,B|404:260|364:304,1,104.999996870756,0|2
212,348,101597,1,0
252,280,101764,1,0
248,200,101931,1,0
148,76,102264,22,0,B|112:120|128:176,1,104.999996870756,0|2
160,248,102764,1,0
316,236,103097,1,0
316,156,103264,2,0,B|324:104,1,52.4999984353781
244,96,103597,2,0,B|188:116|148:76,1,104.999996870756,0|2
56,204,104264,1,0
68,284,104431,1,2
132,328,104597,1,0
288,308,104931,6,0,B|348:324|380:276,1,104.999996870756,0|2
424,212,105431,1,0
368,64,105764,1,0
304,112,105931,2,0,B|296:164,1,52.4999984353781,0|2
372,152,106264,2,0,B|424:128,1,52.4999984353781
448,56,106597,1,2
424,212,106931,21,0
372,152,107097,1,0
296,164,107264,2,0,B|268:216|208:204,1,104.999996870756
72,124,107931,1,2
72,280,108264,1,0
124,220,108431,2,0,B|136:168,1,52.4999984353781
204,124,108764,1,0
208,204,108931,2,0,B|232:256|292:260,1,104.999996870756,0|2
176,368,109597,1,0
148,296,109764,1,2
72,280,109931,1,0
72,124,110264,6,0,B|96:72|152:64,1,104.999996870756,0|2
228,44,110764,2,0,B|248:96|308:104,1,104.999996870756
308,24,111264,21,2
416,252,111597,1,2
180,356,111931,1,2
72,124,112264,5,0
152,104,112431,1,0
220,152,112597,22,0,B|280:128,1,62.999996995926,4|0
492,264,113097,2,0,B|480:324,1,62.999996995926,8|0
228,344,113597,2,0,B|240:284,1,62.999996995926
152,48,114097,2,0,B|90:36,1,62.999996995926,8|0
52,284,114597,2,0,B|80:256|80:256|120:236|120:236|152:208,1,125.999993991852,8|0
220,152,115097,1,0
288,96,115264,5,2
288,96,115431,1,0
272,348,115764,1,10
272,348,115931,1,0
496,236,116264,1,2
496,236,116431,1,0
496,236,116597,21,2
120,208,117097,1,2
468,56,117597,1,2
360,284,117931,6,0,B|380:344,1,62.999996995926,4|0
212,156,118431,2,0,B|192:96,1,62.999996995926,8|0
360,284,118931,1,0
360,284,119097,1,0
112,324,119431,1,8
112,324,119597,1,0
32,84,119931,1,8
280,44,120264,21,2
236,120,120431,1,2
324,120,120597,2,0,B|380:164|440:124,1,125.999993991852,2|0
280,196,121264,1,2
324,272,121431,1,0
180,372,121764,1,2
196,196,122097,6,0,B|156:244,1,62.999996995926,8|0
44,108,122597,1,8
120,152,122764,1,8
48,200,122931,21,8
124,64,123097,1,8
200,108,123264,6,0,B|260:88,1,62.999996995926,4|0
344,328,123764,2,0,B|284:348,1,62.999996995926,8|0
392,120,124264,1,0
440,44,124431,1,0
244,200,124764,1,8
196,276,124931,21,2
244,56,125264,1,10
284,280,125597,1,2
104,140,125931,6,0,B|16:208|60:308,1,188.999990987778,4|10
320,360,126931,1,2
232,352,127097,1,0
284,280,127264,2,0,B|368:160|276:48,1,251.999987983704,2|10
148,168,128264,1,0
112,248,128431,1,8
200,240,128597,22,0,B|264:272|316:220,1,125.999993991852,4|0
364,148,129097,1,0
304,84,129264,1,8
404,228,129597,1,0
456,156,129764,1,8
360,304,130097,2,0,B|304:332,1,62.999996995926
216,340,130431,2,0,B|168:300,1,62.999996995926,0|8
132,128,130931,5,10
156,212,131097,1,10
84,264,131264,22,0,B|28:304|44:376,1,125.999993991852,4|0
216,340,131931,1,8
236,256,132097,2,0,B|292:216|276:144,1,125.999993991852,0|4
472,40,132764,5,0
400,92,132931,2,0,B|364:144,1,62.999996995926,8|0
384,228,133264,2,0,B|448:244,1,62.999996995926,8|0
320,292,133597,2,0,B|300:352,1,62.999996995926,8|8
300,204,133931,22,0,B|220:188|208:112,1,140,4|0
40,44,134597,1,8
68,224,134931,1,0
72,132,135097,1,2
148,184,135264,2,0,B|200:236|184:312,1,140,0|2
92,312,135764,1,0
68,224,135931,2,0,B|148:216|164:136,1,140,10|2
240,88,136431,1,8
328,72,136597,6,0,B|408:80|428:156,1,140,4|0
356,324,137264,2,0,B|348:256,1,70,8|0
336,164,137597,21,0
264,220,137764,1,8
180,256,137931,6,0,B|164:224|176:188,1,70,2|0
248,132,138264,2,0,B|224:104|188:100,1,70,2|0
104,132,138597,2,0,B|88:64,1,70,10|0
24,172,138931,2,0,B|40:240,1,70,2|0
64,328,139264,22,0,B|136:300|196:352,1,140,4|0
364,284,139931,2,0,B|292:312|232:260,1,140,8|0
268,176,140431,2,0,B|296:112,1,70,2|0
472,160,140931,1,2
448,248,141097,1,0
380,188,141264,2,0,B|348:104|400:36,1,161.000005277991,10|2
224,80,141931,6,0,B|276:136|248:212,1,140,4|0
140,356,142597,2,0,B|80:324,1,70,8|0
160,160,143097,1,0
208,236,143264,22,0,B|240:296,1,70,2|0
321,160,143597,2,0,B|252:156,1,70,10|0
208,76,143931,2,0,B|252:24,1,70,10|0
120,80,144264,2,0,B|72:136,1,70,10|8
56,224,144597,6,0,B|108:280|184:256,1,140,4|0
352,184,145264,1,8
208,76,145597,1,0
292,40,145764,2,0,B|360:8|428:48,1,140,4|8
484,116,146264,1,2
436,292,146597,1,8
268,216,146931,1,2
280,128,147097,1,8
352,184,147264,22,0,B|368:268|296:300,1,140,4|0
164,176,147931,1,8
144,356,148264,1,0
204,288,148431,2,0,B|132:248|72:300,1,140,4|0
24,224,148931,6,0,B|76:176,1,70
164,176,149264,1,8
212,100,149431,1,8
212,100,149514,1,8
212,100,149597,2,0,B|152:64,1,70,8|0
60,48,149931,22,0,B|20:120|76:176,1,140,4|0
120,256,150431,1,0
212,256,150597,2,0,B|268:204|344:232,1,140,8|0
420,276,151097,1,4
484,104,151431,5,8
400,140,151597,2,0,B|332:144,1,70
240,152,151931,2,0,B|208:88,1,70,8|0
148,160,152264,2,0,B|124:224,1,70,8|8
60,164,152597,22,0,B|16:100|56:32,1,140,6|0
204,232,153264,2,0,B|248:296|208:364,1,140,10|0
144,300,153764,1,8
116,212,153931,6,0,B|148:140|228:144,1,140,6|0
292,208,154431,1,8
292,208,154514,1,8
292,208,154597,2,0,B|336:140|288:76,1,140,10|4
256,192,155264,12,0,157264
256,192,157931,5,4
128,104,168598,38,0,B|124:180|200:212,1,140,4|8
380,300,169264,2,0,B|383:223|307:191,1,140,0|8
152,288,169931,1,2
220,120,170264,1,8
288,288,170598,2,0,B|344:248,1,70,2|0
436,260,170931,2,0,B|412:192,1,70,8|0
432,104,171264,6,0,B|472:44,2,70,2|0|8
344,80,171764,2,0,B|300:140|220:120,1,140,2|2
144,68,172264,1,8
144,68,172431,1,2
36,216,172764,1,2
36,216,172931,1,8
108,272,173098,2,0,B|132:244|168:240,1,70,2|2
228,168,173431,2,0,B|256:191|260:228,1,70,0|10
308,304,173764,1,10
308,304,173848,1,2
308,304,173931,6,0,B|252:360|180:328,1,140,4|8
36,216,174598,2,0,B|92:160|164:192,1,140,2|8
284,56,175264,1,2
360,104,175431,22,0,B|396:104|424:80,1,70,0|8
424,172,175764,2,0,B|456:192|468:224,1,70,0|2
380,252,176098,2,0,B|352:280|312:276,1,70,0|10
320,184,176431,1,0
240,224,176598,6,0,B|216:168|252:124,2,105,2|0|0
160,264,177264,2,0,B|132:208|76:208,2,105,2|0|0
236,316,177931,2,0,B|204:364|144:356,2,105,2|0|0
316,276,178598,21,0
324,264,178681,1,0
332,252,178764,1,0
340,240,178848,1,0
348,228,178931,1,0
356,216,179014,1,0
364,204,179098,1,0
372,192,179181,1,0
380,180,179264,5,4
244,60,179598,2,0,B|304:96,1,70,8|0
236,160,179931,2,0,B|160:176|116:108,1,140,0|8
64,36,180431,1,2
28,120,180598,1,0
84,192,180764,1,0
68,284,180931,2,0,B|28:344,1,70,10|0
120,352,181264,2,0,B|184:304|160:228,1,140,2|10
256,72,181931,22,0,B|212:136|248:204,1,140,4|8
372,340,182598,2,0,B|392:308|384:272,1,70,2|0
336,196,182931,1,8
376,116,183098,1,0
448,64,183264,6,0,B|464:132,1,70,2|0
376,116,183598,2,0,B|312:144,1,70,10|0
228,104,183931,2,0,B|188:44,1,70,2|0
236,200,184264,2,0,B|212:264,1,70,10|0
156,340,184598,22,0,B|84:312|80:232,1,140,4|8
152,68,185264,2,0,B|136:136,1,70
44,144,185598,2,0,B|16:76,1,70,8|2
224,272,186098,2,0,B|256:332,1,70,0|10
348,348,186431,1,0
396,272,186598,2,0,B|368:184|424:120,1,161.000005277991,2|10
260,36,187264,6,0,B|320:84|308:160,1,140,4|8
136,220,187931,2,0,B|168:160,1,70
224,232,188264,1,8
224,324,188431,1,0
136,312,188598,22,0,B|100:316|72:288,1,70,2|0
136,220,188931,2,0,B|104:160,1,70,10|0
160,88,189264,2,0,B|192:148,1,70,2|0
280,128,189598,2,0,B|308:104|312:68,1,70,10|8
388,120,189931,6,0,B|456:152|456:236,1,140,4|8
480,320,190431,1,0
392,296,190598,2,0,B|316:272|264:328,1,140,0|8
176,304,191098,1,2
140,124,191431,1,0
56,156,191598,2,0,B|36:76|108:36,2,140,8|2|8
44,336,192598,22,0,B|116:307|116:227,1,140,4|8
196,184,193098,1,0
272,232,193264,2,0,B|336:192|404:232,1,140,0|8
488,196,193764,2,0,B|508:276|440:316,1,140,4|0
356,356,194264,1,8
272,324,194431,1,0
272,232,194598,2,0,B|256:164,1,70
344,192,194931,2,0,B|376:128,1,70,8|0
452,80,195264,6,0,B|396:24|324:56,1,140,4|8
236,80,195764,1,0
148,104,195931,2,0,B|76:136|19:80,1,140,0|8
96,28,196431,1,4
84,208,196764,2,0,B|56:272,1,70,0|8
148,276,197098,2,0,B|168:344,1,70
248,304,197431,1,0
336,332,197598,21,0
340,320,197681,1,0
344,308,197764,1,0
348,296,197848,1,0
352,284,197931,5,4
404,112,198264,1,8
228,60,198598,1,2
176,236,198931,1,8
352,188,199264,22,0,B|384:116|332:56,1,140,4|8
264,228,199931,2,0,B|232:300|284:360,1,140,2|8
424,244,200598,5,2
276,136,200931,1,8
108,208,201264,1,0
256,316,201598,1,10
364,172,201931,2,0,B|325:242|246:224,1,140,0|8
88,316,202598,21,0
44,232,202764,1,0
48,220,202848,1,0
52,208,202931,1,0
56,196,203014,1,0
60,184,203098,1,0
64,172,203181,1,0
68,160,203264,2,0,B|36:100,1,70,4|0
110,46,203598,5,10
172,112,203764,1,0
264,108,203931,2,0,B|320:56|396:84,1,140,2|8
452,152,204431,1,2
392,220,204598,2,0,B|360:288|408:352,1,140,0|8
176,344,205264,2,0,B|252:368|300:304,1,140,2|8
244,132,205931,22,0,B|168:108|120:172,1,140,4|8
32,332,206598,2,0,B|64:272,1,70
32,184,206931,2,0,B|20:112,1,70,8|0
100,68,207264,5,6
164,312,207598,1,10
416,308,207931,1,2
352,64,208264,1,0
348,72,208348,1,0
344,80,208431,1,0
340,88,208514,1,0
336,96,208598,1,4
264,264,208931,22,0,B|328:224,1,70,8|0
264,156,209264,2,0,B|188:160|160:236,1,140,2|8
96,300,209764,2,0,B|28:268|28:188,1,140,2|0
88,116,210264,1,8
264,156,210598,1,2
192,324,210931,1,8
372,324,211264,6,0,B|348:260,1,70,2|0
388,103,211598,2,0,B|376:172,1,70,10|0
436,240,211931,2,0,B|500:216,1,70,2|0
288,192,212264,2,0,B|224:216,1,70,10|0
144,264,212598,22,0,B|88:204|16:228,1,140,4|8
144,96,213264,1,0
156,100,213348,1,0
168,104,213431,1,0
180,108,213514,1,0
192,112,213598,1,0
280,140,213764,1,0
280,140,213848,1,0
280,140,213931,2,0,B|352:136,1,70,4|0
440,128,214264,5,10
388,52,214431,1,0
352,136,214598,2,0,B|312:200|352:268,1,140,2|8
292,336,215098,1,2
380,356,215264,2,0,B|416:348|432:312,2,70,0|0|8
196,360,215931,2,0,B|232:288|188:228,1,140,2|8
41,76,216598,22,0,B|76:140|156:144,1,140,4|8
304,36,217264,1,0
248,108,217431,1,0
280,192,217598,1,8
368,216,217764,1,0
416,292,217931,6,0,B|400:360,1,70,2|0
312,336,218264,2,0,B|248:364,1,70,8|0
228,276,218598,2,0,B|192:216,1,70,2|0
280,192,218931,2,0,B|328:140,1,70,10|0
356,52,219264,1,2
344,48,219348,1,2
332,44,219431,1,2
320,40,219514,1,2
308,36,219598,21,4
216,32,219764,1,0
172,112,219931,2,0,B|124:176|48:144,1,140,2|8
16,228,220431,1,2
60,308,220598,2,0,B|112:260,1,70
200,236,220931,1,8
348,344,221264,2,0,B|292:288|320:216,1,140,2|8
424,68,221931,6,0,B|416:136,1,70,4|0
294,141,222264,2,0,B|340:88,1,70,10|0
207,116,222598,2,0,B|138:127,1,70,2|0
208,273,222931,2,0,B|228:200,1,70,10|0
256,192,223264,12,0,224598
