osu file format v9

[General]
AudioFilename: Wei Flugel.mp3
AudioLeadIn: 0
PreviewTime: 203105
Countdown: 0
SampleSet: Soft
StackLeniency: 0.7
Mode: 0
LetterboxInBreaks: 1

[Editor]
Bookmarks: 3272,13939,35272,51272,56605,77939,80605,91272,112605,128605,133939,138931,155272,157939,168605,179272,200605,203272,224605
DistanceSpacing: 1.3
BeatDivisor: 4
GridSize: 4

[Metadata]
Title:Weiss Fluegel
Artist:Yousei Teikoku
Creator:lolcubes
Version:Hard
Source:
Tags:fairy yui itsuki gothic lolita doctrine white wing

[Difficulty]
HPDrainRate:5
CircleSize:4
OverallDifficulty:5
ApproachRate:7
SliderMultiplier:1.1
SliderTickRate:1

[Events]
//Background and Video events
Video,299,"whitewing.avi"
0,0,"BG.jpg"
//Break Periods
2,80797,90364
2,158131,167697
//Storyboard Layer 0 (Background)
//Storyboard Layer 1 (Fail)
//Storyboard Layer 2 (Pass)
//Storyboard Layer 3 (Foreground)
//Storyboard Sound Samples
//Background Colour Transformations
3,100,0,0,0

[TimingPoints]
598,333.333333333333,4,2,0,70,1,0
13931,-133.333333333333,4,2,2,70,0,0
35264,-111.111111111111,4,2,1,70,0,0
45431,-111.111111111111,4,2,1,66,0,0
45597,-111.111111111111,4,2,1,62,0,0
45764,-111.111111111111,4,2,1,58,0,0
45931,-111.111111111111,4,2,1,70,0,0
56597,-100,4,1,0,70,0,0
56681,-100,4,2,1,70,0,0
61931,-100,4,1,0,70,0,0
62014,-100,4,2,1,70,0,0
67264,-100,4,1,0,70,0,0
67347,-100,4,2,1,70,0,0
69931,-100,4,1,0,70,0,0
70014,-100,4,2,1,70,0,0
72597,-100,4,1,0,70,0,0
72681,-100,4,2,1,70,0,0
79931,-100,4,1,0,70,0,0
91264,-133.333333333333,4,2,0,70,0,0
112597,-111.111111111111,4,2,1,70,0,0
122764,-111.111111111111,4,2,1,66,0,0
122931,-111.111111111111,4,2,1,62,0,0
123097,-111.111111111111,4,2,1,58,0,0
123264,-111.111111111111,4,2,1,70,0,0
127264,-133.333333333333,4,2,1,70,0,0
127931,-111.111111111111,4,2,1,70,0,0
133931,-100,4,1,0,70,0,0
134014,-100,4,2,1,70,0,0
139264,-100,4,1,0,70,0,0
139347,-100,4,2,1,70,0,0
144597,-100,4,1,0,70,0,0
144681,-100,4,2,1,70,0,0
147264,-100,4,1,0,70,0,0
147347,-100,4,2,1,70,0,0
149931,-100,4,1,0,70,0,0
150014,-100,4,2,1,70,0,0
157264,-100,4,1,0,70,0,0
168597,-100,4,1,0,70,0,1
168681,-100,4,2,1,70,0,1
179181,-100,4,1,0,70,0,0
179264,-100,4,1,0,70,0,1
179347,-100,4,2,1,70,0,1
184597,-100,4,1,0,70,0,1
184681,-100,4,2,1,70,0,1
189931,-100,4,1,0,70,0,1
190014,-100,4,2,1,70,0,1
195264,-100,4,1,0,70,0,1
195347,-100,4,2,1,70,0,1
197597,-100,4,1,0,70,0,1
197931,-100,4,2,1,70,0,1
200597,-100,4,2,1,70,0,0
203264,-100,4,1,0,70,0,1
203347,-100,4,2,1,70,0,1
208264,-100,4,1,0,70,0,1
208681,-100,4,2,1,70,0,1
213597,-100,4,1,0,70,0,1
213931,-100,4,1,0,70,0,1
214014,-100,4,2,1,70,0,1
224597,-100,4,2,1,5,0,0
225264,705.882352941176,4,1,0,70,1,0
242911,727.272727272727,4,1,0,70,1,0
243638,750,4,1,0,70,1,0
245138,857.142857142857,4,1,0,70,1,0
246007,923.076923076923,4,1,0,70,1,0
246930,923.076923076923,4,1,0,70,1,0

[Colours]
Combo1 : 233,233,233
Combo2 : 212,0,0
Combo3 : 233,233,233

[HitObjects]
196,48,13931,21,0
312,48,14264,21,0
380,140,14597,2,0,B|368:180,1,41.2499987706542
288,260,15097,2,0,B|240:216|256:148,1,123.749996311963,2|0
196,48,15931,1,0
132,144,16264,1,0
184,248,16597,1,0
84,304,16931,5,0
180,368,17264,1,0
180,368,17431,1,0
284,316,17764,2,0,B|368:236|476:284,1,206.249993853271,2|0
456,168,18931,21,0
404,192,19097,1,0
348,180,19264,2,0,B|312:156|300:112,1,82.4999975413085,2|0
184,100,19931,1,0
96,24,20264,1,0
96,24,20431,2,0,B|56:76|76:140,1,123.749996311963,2|0
164,212,21264,1,0
88,300,21597,1,0
192,352,21931,1,0
268,264,22264,6,0,B|288:224|276:184,1,82.4999975413085
275,183,22764,1,0
256,192,23097,12,0,24597
332,124,24931,22,0,B|351:162|340:204,1,82.4999975413085
339,204,25431,1,0
304,316,25764,2,0,B|272:256|208:248,1,123.749996311963,2|0
96,276,26597,2,0,B|128:248|136:204,1,82.4999975413085
128,92,27264,1,0
12,100,27597,6,0,B|32:140|76:152,1,82.4999975413085
73,151,28097,1,0
188,144,28431,2,0,B|280:128|304:36,1,164.999995082617,2|0
420,168,29597,21,2
368,192,29764,1,2
332,236,29931,2,0,B|300:264|296:308,1,82.4999975413085,2|0
400,360,30597,1,0
476,272,30931,1,0
476,272,31097,2,0,B|422:234|420:168,1,123.749996311963,2|0
320,108,31931,2,0,B|360:92|376:48,2,82.4999975413085
212,144,32931,5,0
300,220,33264,1,0
300,220,33431,2,0,B|256:270|188:260,1,123.749996311963,0|2
84,216,34264,1,2
144,116,34597,1,2
256,84,34931,21,0
256,84,35097,1,0
324,96,35264,6,0,B|364:128,1,49.4999976396562,4|0
388,264,35764,2,0,B|372:216,1,49.4999976396562,8|0
236,232,36264,2,0,B|196:264,1,49.4999976396562
140,136,36764,1,8
140,136,36931,2,0,B|144:84|192:56,2,98.9999952793124,2|8|2
156,204,37764,1,8
132,268,37931,22,0,B|100:348|16:344,2,148.499992918969,2|2|2
208,152,39264,2,0,B|240:72|324:76,2,148.499992918969,2|2|2
272,276,40597,6,0,B|288:324,1,49.4999976396562,4|0
368,212,41097,2,0,B|404:248,1,49.4999976396562,8|0
424,108,41597,2,0,B|472:116,1,49.4999976396562
336,96,42097,1,8
336,96,42264,2,0,B|284:96|252:140,1,98.9999952793124,0|8
144,228,42931,22,0,B|96:244,2,49.4999976396562,2|2|2
176,92,43597,2,0,B|148:140|96:144,1,98.9999952793124,2|0
40,184,44097,2,0,B|8:228|24:280,1,98.9999952793124,2|2
156,320,44764,6,0,B|124:356,1,49.4999976396562,8|0
260,336,45264,1,8
268,328,45431,1,8
276,320,45597,1,8
284,312,45764,1,8
292,304,45931,22,0,B|328:268,1,49.4999976396562,4|0
248,156,46431,2,0,B|240:208,1,49.4999976396562,8|0
320,92,46931,2,0,B|352:128,1,49.4999976396562
444,232,47431,1,8
444,232,47597,5,2
360,344,47931,1,10
224,316,48264,1,2
308,208,48597,22,0,B|320:124|400:100,2,148.499992918969,4|2|2
224,316,49931,2,0,B|148:356|88:300,2,148.499992918969,2|2|2
172,188,51264,6,0,B|196:140|172:92,1,98.9999952793124,4|0
44,44,51931,2,0,B|20:92|44:140,1,98.9999952793124,8|0
76,200,52431,2,0,B|100:248|76:296,1,98.9999952793124,8|0
196,364,53097,2,0,B|192:312,1,49.4999976396562,0|8
236,184,53597,21,0
264,120,53764,1,0
328,92,53931,2,0,B|376:76|424:100,1,98.9999952793124,4|0
452,236,54597,1,8
452,236,54764,2,0,B|400:240|380:296,1,98.9999952793124,0|4
256,192,55264,12,8,56264
176,96,56597,6,0,B|169:220|296:257,1,220,4|8
352,124,57597,1,0
352,124,57764,2,0,B|435:161|434:254,1,165,8|0
368,380,58597,1,8
256,292,58931,2,0,B|296:256,1,55,2|2
308,184,59264,22,0,B|248:168|240:108,1,110,4|0
108,52,59931,2,0,B|136:100,1,55,8|0
112,240,60431,1,8
112,240,60597,6,0,B|76:284,3,55,2|0|2|0
36,224,61264,2,0,B|28:168,3,55,10|0|2|0
64,108,61931,22,0,B|132:212|256:176,1,220,4|8
380,104,62931,1,0
380,104,63097,2,0,B|337:183|388:259,1,165,8|0
460,136,63931,5,10
300,252,64264,1,2
280,56,64597,22,0,B|224:76|176:40,1,110,4|0
96,160,65264,2,0,B|108:104,1,55,8|0
164,236,65764,1,0
164,236,65931,6,0,B|152:292,3,55,2|0|10|0
216,324,66597,2,0,B|244:372,3,55,10|0|10|8
304,332,67264,22,0,B|260:216|344:128,1,220,4|8
420,248,68264,1,0
420,248,68431,5,4
324,56,68931,2,0,B|381:73|427:34,2,110,0|8|0
184,28,69931,22,0,B|228:144|144:232,1,220,4|8
36,136,70931,2,0,B|52:80,1,55,0|4
60,228,71431,2,0,B|44:284,2,55,0|0|0
108,172,71931,6,0,B|148:136,1,55,8|0
216,160,72264,2,0,B|269:156,1,55,8|8
328,200,72597,22,0,B|246:295|129:242,1,220,4|8
36,136,73597,1,0
36,136,73764,2,0,B|64:192|36:244,1,110,4|8
84,296,74264,1,0
84,296,74431,1,0
152,320,74597,6,0,B|208:336,1,55,8|0
208,264,74931,2,0,B|252:232,1,55,8|8
244,156,75264,22,0,B|216:100|252:52,1,110,4|0
360,176,75931,2,0,B|389:229|356:280,1,110,10|0
312,108,76597,2,0,B|365:78|416:116,1,110,4|0
292,224,77264,2,0,B|238:253|188:220,1,110,10|4
256,192,77931,12,0,79931
256,192,80597,5,4
304,248,91264,5,0
244,148,91597,6,0,B|200:148|176:108,1,82.4999975413085
176,108,92097,1,0
188,224,92431,2,0,B|168:288|96:292,1,123.749996311963,2|0
80,176,93264,1,0
176,108,93597,1,0
284,156,93931,1,0
368,76,94264,6,0,B|412:84|444:52,1,82.4999975413085
443,52,94764,1,0
440,168,95097,22,0,B|460:208,1,41.2499987706542,2|0
404,224,95431,2,0,B|400:268,1,41.2499987706542,2|0
300,320,95931,1,2
200,264,96264,5,0
228,212,96431,1,0
216,156,96597,2,0,B|188:124|200:80,2,82.4999975413085,2|0|0
320,100,97597,1,0
320,100,97764,2,0,B|353:161|316:216,1,123.749996311963,2|0
204,184,98597,1,0
228,296,98931,1,0
120,332,99264,1,0
92,220,99597,22,0,B|69:183|84:140,1,82.4999975413085
83,141,100097,1,0
168,64,100431,6,0,B|192:28,1,41.2499987706542
228,76,100764,2,0,B|268:80,1,41.2499987706542,2|0
364,148,101264,1,2
252,352,101931,1,0
228,240,102264,22,0,B|268:224|308:248,1,82.4999975413085
307,247,102764,1,0
412,296,103097,2,0,B|456:244|432:180,1,123.749996311963,2|0
388,72,103931,1,0
292,140,104264,1,0
292,140,104431,1,2
292,140,104597,1,0
200,208,104931,6,0,B|172:176|176:132,1,82.4999975413085,2|0
176,131,105431,1,0
48,56,105764,22,0,B|68:96,1,41.2499987706542,2|0
12,116,106097,2,0,B|8:160,1,41.2499987706542,2|0
92,236,106597,1,2
68,348,106931,5,0
124,336,107097,1,0
180,320,107264,2,0,B|224:328|256:296,2,82.4999975413085,2|0|0
188,204,108264,1,0
188,204,108431,2,0,B|235:156|301:168,1,123.749996311963,2|0
416,180,109264,1,0
444,68,109597,1,0
444,68,109764,1,2
444,68,109931,1,0
396,164,110264,22,0,B|372:200|324:200,1,82.4999975413085,2|0
261,71,110764,1,0
148,64,111097,1,0
148,64,111264,5,2
40,188,111597,1,2
192,252,111931,1,2
304,128,112264,21,0
304,128,112431,1,0
304,128,112597,6,0,B|340:88,1,49.4999976396562,4|0
356,228,113097,2,0,B|324:264,1,49.4999976396562,8|0
460,272,113597,1,0
460,272,113764,1,0
444,136,114097,1,8
444,136,114264,2,0,B|440:80|480:48,2,98.9999952793124,0|8|0
444,136,115097,1,8
444,136,115264,21,2
288,272,115764,1,2
248,68,116264,1,2
308,192,116597,1,2
104,240,117097,1,2
168,44,117597,1,2
84,152,117931,6,0,B|52:192,1,49.4999976396562,4|0
184,232,118431,2,0,B|164:184,1,49.4999976396562,8|0
284,116,118931,2,0,B|244:152,1,49.4999976396562
384,180,119431,2,0,B|400:132,1,49.4999976396562,8|0
484,244,119931,1,8
352,280,120264,21,2
352,280,120431,1,2
352,280,120597,2,0,B|296:268|284:216,1,98.9999952793124,2|2
152,168,121264,1,0
152,168,121431,2,0,B|208:172|236:128,1,98.9999952793124,2|2
332,24,122097,6,0,B|280:36,1,49.4999976396562,8|0
148,68,122597,1,8
138,70,122764,1,8
128,72,122931,1,8
118,75,123097,1,8
108,77,123264,22,0,B|60:88,1,49.4999976396562,4|0
20,220,123764,1,8
20,220,123931,1,0
120,316,124264,1,0
120,316,124431,2,0,B|160:280|212:296,1,98.9999952793124,0|8
276,324,124931,5,2
180,224,125264,1,10
312,188,125597,1,2
412,288,125931,22,0,B|364:220|416:148,1,148.499992918969,6|2
228,56,126931,1,2
364,44,127264,2,0,B|368:136|284:176,1,164.999995082617,2|10
176,264,128264,2,0,B|192:312,2,49.4999976396562,2|8|4
68,176,128931,6,0,B|24:148,1,49.4999976396562
80,104,129264,2,0,B|68:53,1,49.4999976396562,8|0
140,60,129597,2,0,B|168:16,1,49.4999976396562,0|8
224,144,130097,1,0
252,280,130431,2,0,B|288:312,1,49.4999976396562,0|8
424,276,130931,21,2
424,276,131097,1,2
424,276,131264,2,0,B|467:242|468:192,1,98.9999952793124,4|0
388,76,131931,1,8
388,76,132097,2,0,B|346:107|344:160,1,98.9999952793124,0|4
256,192,132597,12,8,133597
160,276,133931,6,0,B|288:292|328:168,1,220,4|8
188,132,134931,1,0
188,132,135097,2,0,B|180:224|272:260,1,165,8|0
412,284,135931,1,8
468,152,136264,1,0
468,152,136431,1,0
468,152,136597,22,0,B|426:110|440:52,1,110,4|0
308,108,137264,2,0,B|292:160,1,55,8|0
168,236,137764,1,8
168,236,137931,6,0,B|116:216,3,55,2|0|2|0
52,244,138597,2,0,B|40:188,3,55,10|0|2|0
24,120,139264,22,0,B|124:40|228:104,1,220,4|8
168,236,140264,1,0
167,235,140431,2,0,B|254:274|320:211,1,165,8|0
368,76,141264,5,10
364,272,141597,1,2
196,168,141931,22,0,B|228:212|216:272,1,110,4|0
328,364,142597,2,0,B|304:316,1,55,8|0
348,180,143097,1,0
348,180,143264,6,0,B|400:156,3,55,2|0|10|0
452,112,143931,2,0,B|408:80,3,55,10|0|10|8
348,40,144597,22,0,B|320:162|188:160,1,220,4|8
52,116,145597,1,0
52,116,145764,2,0,B|108:180|80:272,1,165,4|0
208,336,146597,1,8
196,192,146931,1,0
80,272,147264,6,0,B|172:352|285:301,1,220,4|8
288,160,148264,2,0,B|268:212,1,55,0|4
356,100,148764,21,0
356,100,148931,2,0,B|380:156,1,55
444,176,149264,1,8
448,164,149431,1,0
452,152,149597,1,8
456,140,149764,1,8
460,128,149931,6,0,B|416:48|320:60,1,165,4|0
321,59,150597,1,8
208,144,150931,2,0,B|264:136,1,55,0|4
132,76,151431,21,0
132,76,151597,2,0,B|76:84,1,55,0|0
28,136,151931,1,8
32,148,152097,1,0
36,160,152264,1,8
40,172,152431,1,8
44,184,152597,6,0,B|68:240|132:240,1,110,4|0
211,13,153264,2,0,B|155:37|156:100,1,110,10|0
382,183,153931,2,0,B|358:127|296:128,1,110,4|0
220,354,154597,2,0,B|275:330|276:268,1,110,10|4
256,192,155264,12,0,157264
256,192,157931,5,4
400,128,168597,38,0,B|360:168|304:176,1,110,4|8
178,359,169264,2,0,B|163:304|184:252,1,110,0|8
89,48,169931,2,0,B|144:63|180:108,1,110,0|8
256,232,170597,1,0
132,164,170931,1,8
252,88,171264,6,0,B|308:104,1,55,2|0
376,120,171597,2,0,B|368:64,1,55,8|2
388,208,172097,1,2
248,172,172431,1,2
264,312,172764,1,2
404,348,173097,1,2
404,348,173264,2,0,B|344:336,1,55,2|0
412,300,173597,2,0,B|460:268,1,55,10|2
388,260,173931,6,0,B|328:252|312:192,1,110,4|8
461,27,174597,2,0,B|484:83|440:128,1,110,2|8
226,76,175264,2,0,B|263:28|324:44,1,110,2|8
384,176,175931,21,2
208,268,176264,1,10
52,144,176597,6,0,B|24:108|32:68,2,82.5,2|0|0
92,204,177264,2,0,B|74:246|36:259,2,82.5,2|0|0
124,140,177931,2,0,B|169:133|199:160,2,82.5,2|0|0
144,216,178597,1,2
148,228,178764,1,0
152,240,178931,1,2
156,252,179097,1,0
160,264,179264,22,0,B|212:288|264:252,1,110,4|8
380,168,179931,1,0
344,304,180264,1,8
344,304,180431,2,0,B|264:252|288:160,1,165,2|8
412,92,181264,1,2
412,236,181597,1,10
340,112,181931,6,0,B|288:72|236:112,2,110,4|8|2
288,164,182764,2,0,B|272:216,1,55,0|8
184,328,183264,22,0,B|128:320,3,55,2|0|10|0
72,276,183931,1,2
68,264,184097,1,0
64,252,184264,1,10
60,240,184431,1,0
56,228,184597,6,0,B|20:176|52:124,1,110,4|8
164,36,185264,1,0
184,176,185597,1,8
184,176,185764,2,0,B|272:128|332:204,1,165,2|8
440,296,186597,21,2
248,240,186931,1,10
392,104,187264,6,0,B|372:124|344:132|312:128|288:104,2,110,4|8|2
444,56,188097,2,0,B|472:104,1,55,0|8
396,224,188597,21,2
392,236,188764,1,0
388,248,188931,1,10
384,260,189097,1,0
332,308,189264,2,0,B|300:264,3,55,2|0|10|8
236,228,189931,6,0,B|284:192|276:132,1,110,4|8
156,56,190597,1,0
100,188,190931,1,8
100,188,191097,2,0,B|27:242|39:333,1,165,2|8
228,368,191931,2,0,B|167:376|131:328,1,110,2|8
236,228,192597,22,0,B|268:176|332:188,1,110,4|8
336,332,193264,1,0
428,224,193597,1,8
428,224,193764,2,0,B|340:184|360:89,1,165,4|8
480,168,194597,1,0
432,304,194931,1,8
420,308,195097,1,8
408,312,195264,6,0,B|368:356|308:344,1,110,4|8
188,268,195931,1,0
312,200,196264,1,8
312,200,196431,2,0,B|272:116|176:128,1,165,4|8
60,208,197264,1,0
72,352,197597,1,0
84,348,197764,1,0
96,344,197931,22,0,B|156:336|180:280,1,110,4|8
275,154,198597,2,0,B|220:176|172:140,1,110,2|8
272,300,199264,5,4
232,88,199597,1,8
144,212,199931,1,2
360,176,200264,1,8
424,316,200597,21,4
80,72,201597,1,2
256,192,201764,12,4,203264
328,140,203597,6,0,B|384:136,2,55,8|0|2
184,192,204264,2,0,B|152:148,2,55,8|2|0
304,288,204931,1,8
160,340,205264,2,0,B|124:292|64:300,1,110,2|8
48,148,205931,22,0,B|48:88|100:56,1,110,4|8
248,92,206597,2,0,B|284:140|344:132,1,110,0|8
480,56,207264,5,2
392,236,207597,1,10
324,52,207931,1,2
484,168,208264,1,0
484,168,208431,1,0
484,168,208597,2,0,B|448:120|388:120,1,110,4|8
320,132,209097,21,0
320,132,209264,2,0,B|280:180|224:172,1,110,2|8
224,172,209764,2,0,B|180:252|84:232,1,165,2|8
92,80,210597,1,2
244,92,210931,1,8
236,244,211264,5,2
248,248,211431,1,0
260,252,211597,1,10
272,256,211764,1,0
348,236,211931,2,0,B|380:192,3,55,2|0|10|0
424,128,212597,22,0,B|400:68|340:68,1,110,2|8
224,172,213264,1,0
112,280,213597,1,0
112,280,213764,1,0
112,280,213931,1,4
260,320,214264,6,0,B|248:376,2,55,8|0|2
312,176,214931,2,0,B|300:124,2,55,8|2|0
436,264,215597,2,0,B|412:320|352:328,1,110,8|2
236,228,216264,1,8
124,124,216597,22,0,B|64:108|24:152,2,110,4|8|0
116,280,217597,1,8
268,304,217931,5,2
424,184,218264,1,10
256,80,218597,1,2
100,200,218930,1,10
268,304,219264,2,2,B|224:264|236:204,1,110,0|4
296,164,219764,21,0
296,164,219931,2,0,B|352:136|352:76,1,110,2|8
351,76,220431,2,0,B|404:152|496:128,1,165,2|8
384,216,221264,5,2
444,48,221597,1,10
264,80,221931,1,6
256,192,222097,12,0,224597
