osu file format v9

[General]
AudioFilename: Wei Flugel.mp3
AudioLeadIn: 0
PreviewTime: 203105
Countdown: 0
SampleSet: Soft
StackLeniency: 0.7
Mode: 0
LetterboxInBreaks: 1

[Editor]
Bookmarks: 3272,13939,35272,51272,56605,77939,80605,91272,112605,128605,133939,138931,155272,157939,168605,179272,200605,203272,224605
DistanceSpacing: 1.1
BeatDivisor: 4
GridSize: 4

[Metadata]
Title:Weiss Fluegel
Artist:Yousei Teikoku
Creator:lolcubes
Version:Easy
Source:
Tags:fairy yui itsuki gothic lolita doctrine white wing

[Difficulty]
HPDrainRate:2
CircleSize:3
OverallDifficulty:2
ApproachRate:3
SliderMultiplier:0.8
SliderTickRate:1

[Events]
//Background and Video events
Video,299,"whitewing.avi"
0,0,"BG.jpg"
//Break Periods
2,80797,89824
2,158131,167157
//Storyboard Layer 0 (Background)
//Storyboard Layer 1 (Fail)
//Storyboard Layer 2 (Pass)
//Storyboard Layer 3 (Foreground)
//Storyboard Sound Samples
//Background Colour Transformations
3,100,0,0,0

[TimingPoints]
598,333.333333333333,4,2,0,70,1,0
13931,-133.333333333333,4,2,2,70,0,0
35264,-111.111111111111,4,2,1,70,0,0
56597,-100,4,1,0,70,0,0
56681,-100,4,2,1,70,0,0
61931,-100,4,1,0,70,0,0
62014,-100,4,2,1,70,0,0
64597,-86.9565217391304,4,2,1,70,0,0
65264,-100,4,2,1,70,0,0
67264,-100,4,1,0,70,0,0
67347,-100,4,2,1,70,0,0
69931,-100,4,1,0,70,0,0
70014,-100,4,2,1,70,0,0
72597,-100,4,1,0,70,0,0
72681,-100,4,2,1,70,0,0
79931,-100,4,1,0,70,0,0
91264,-133.333333333333,4,2,2,70,0,0
96597,-133.333333333333,4,2,0,70,0,0
101931,-133.333333333333,4,2,2,70,0,0
107264,-133.333333333333,4,2,0,70,0,0
112597,-111.111111111111,4,2,1,70,0,0
133931,-100,4,1,0,70,0,0
134014,-100,4,2,1,70,0,0
139264,-100,4,1,0,70,0,0
139347,-100,4,2,1,70,0,0
144597,-100,4,1,0,70,0,0
144681,-100,4,2,1,70,0,0
147264,-100,4,1,0,70,0,0
147347,-100,4,2,1,70,0,0
149931,-100,4,1,0,70,0,0
150014,-100,4,2,1,70,0,0
157264,-100,4,1,0,70,0,0
168597,-100,4,1,0,70,0,1
168681,-100,4,2,1,70,0,1
179181,-100,4,1,0,70,0,0
179264,-100,4,1,0,70,0,1
179347,-100,4,2,1,70,0,1
184597,-100,4,1,0,70,0,1
184681,-100,4,2,1,70,0,1
189931,-100,4,1,0,70,0,1
190014,-100,4,2,1,70,0,1
195264,-100,4,1,0,70,0,1
195347,-100,4,2,1,70,0,1
197597,-100,4,1,0,70,0,1
197931,-100,4,2,1,70,0,1
200597,-100,4,2,1,70,0,0
202597,-100,4,1,0,70,0,0
203264,-100,4,1,0,70,0,1
203347,-100,4,2,1,70,0,1
208264,-100,4,1,0,70,0,1
208681,-100,4,2,1,70,0,1
213931,-100,4,1,0,70,0,1
214014,-100,4,2,1,70,0,1
224597,-100,4,2,1,5,0,0
225264,705.882352941176,4,1,0,70,1,0
242911,727.272727272727,4,1,0,70,1,0
243638,750,4,1,0,70,1,0
245138,857.142857142857,4,1,0,70,1,0
246007,923.076923076923,4,1,0,70,1,0
246930,923.076923076923,4,1,0,70,1,0

[Colours]
Combo1 : 233,233,233
Combo2 : 212,0,0

[HitObjects]
200,288,13931,21,0
160,136,14597,6,0,B|196:164|244:156,1,89.9999973177911,0|2
348,104,15597,2,0,B|356:44,2,59.9999982118607
336,180,16597,5,0
428,304,17264,2,0,B|394:338|344:332,1,89.9999973177911,0|2
80,268,18931,5,0
80,268,19264,1,2
120,116,19931,2,0,B|167:121|196:160,2,89.9999973177911,0|2|0
40,116,21264,1,0
80,268,21931,5,0
236,276,22597,2,0,B|284:268|304:224,1,89.9999973177911,0|2
440,152,24597,5,0
440,152,24931,2,0,B|380:144,1,59.9999982118607
284,80,25764,2,0,B|272:128|224:140,1,89.9999973177911,2|0
148,160,26597,1,0
88,108,26931,1,0
164,84,27264,5,0
68,208,27931,2,0,B|92:248|143:254,1,89.9999973177911,0|2
360,84,29597,5,0
360,84,29931,1,2
236,180,30597,2,0,B|200:148|200:100,2,89.9999973177911,0|2|0
296,232,31931,1,0
256,192,32597,12,2,34597
184,268,35264,6,0,B|124:264|96:216,2,107.999994850159,4|8|0
220,144,36764,2,0,B|260:188|320:176,1,107.999994850159,8|8
292,92,37597,1,0
364,44,37931,6,0,B|424:32|464:80,2,107.999994850159,2|2|2
388,128,39264,2,0,B|418:181|383:229,2,107.999994850159,2|2|2
316,176,40597,5,4
100,320,41597,1,2
84,60,42597,1,2
176,204,43264,5,4
268,348,43931,2,0,B|328:332|336:272,2,107.999994850159,2|2|2
252,264,45264,1,8
340,116,45931,6,0,B|400:116|428:64,2,107.999994850159,4|8|0
216,72,47431,2,0,B|193:126|224:176,1,107.999994850159,8|8
288,232,48264,1,2
372,212,48597,6,0,B|420:179|421:120,2,107.999994850159,4|2|2
348,296,49931,2,0,B|381:343|440:344,2,107.999994850159,2|2|2
288,232,51264,5,4
176,100,51931,2,0,B|120:124|72:88,2,107.999994850159,8|8|0
252,64,53264,1,8
364,196,53931,5,4
192,220,54597,2,0,B|136:200|88:236,1,107.999994850159,8|4
292,308,55931,1,8
264,136,56597,6,0,B|352:152|400:76,1,160,4|8
272,48,57764,2,0,B|200:48|180:112,1,120,8|2
200,196,58597,1,8
284,224,58931,1,2
368,252,59264,6,0,B|349:293|318:317|274:318|236:298,1,160,4|8
116,356,60431,2,0,B|40:276|88:168,1,200,8|8
88,84,61597,1,0
168,48,61931,6,0,B|240:96|320:60,1,160,4|8
448,88,63097,2,0,B|488:140|464:200,1,120,8|2
420,276,63931,1,8
336,300,64264,1,2
256,268,64597,6,0,B|256:360,2,92.0000030159951,4|2|8
152,184,65764,2,0,B|83:190|64:252,1,120,8|8
148,272,66597,1,8
84,336,66931,1,8
64,252,67264,6,0,B|8:188|40:100,1,160,4|8
156,164,68431,2,0,B|216:188|272:156,1,120,4|2
356,176,69264,1,8
332,92,69597,1,2
272,156,69931,6,0,B|216:224|264:304,1,160,4|8
396,296,71097,2,0,B|472:208|412:112,1,200,4|8
240,68,72597,6,0,B|148:64|112:144,1,160,4|8
32,248,73764,2,0,B|112:224|148:300|224:280,1,200,4|8
372,188,75264,5,4
240,68,75931,1,2
120,196,76597,1,4
252,316,77264,1,2
256,192,77931,12,4,80597
352,96,91264,5,0
280,236,91931,6,0,B|237:214|192:228,1,89.9999973177911,0|2
96,296,92931,2,0,B|108:368,2,59.9999982118607
84,220,93931,5,0
168,88,94597,2,0,B|216:92|252:64,1,89.9999973177911,0|0
328,44,95431,2,0,B|374:33|416:56,1,89.9999973177911,2|2
476,104,96264,5,0
428,168,96597,2,0,B|404:188|372:188,1,59.9999982118607,2|0
296,180,97264,1,0
212,260,97764,1,2
108,204,98264,2,0,B|96:144,2,59.9999982118607,0|2|0
36,236,99264,5,0
152,340,99931,2,0,B|191:366|240:356,1,89.9999973177911,0|0
312,328,100764,2,0,B|336:284|380:276,1,89.9999973177911,2|2
316,136,101931,5,0
316,136,102264,2,0,B|288:188,1,59.9999982118607
184,240,103097,2,0,B|152:204|104:208,1,89.9999973177911,2|0
44,156,103931,2,0,B|20:216,2,59.9999982118607
68,84,104931,5,0
144,100,105264,2,0,B|176:136|224:128,1,89.9999973177911
300,152,106097,2,0,B|336:184|384:176,1,89.9999973177911,2|2
460,200,106931,5,0
436,276,107264,2,0,B|380:304,1,59.9999982118607
316,340,107931,1,0
200,336,108431,1,2
176,220,108931,2,0,B|164:160,2,59.9999982118607,0|2|0
256,192,109931,12,2,111931
300,144,112597,6,0,B|352:168|404:144,2,107.999994850159,4|8|0
212,236,114097,2,0,B|160:212|108:236,1,107.999994850159,8|8
76,316,114931,1,0
160,308,115264,6,0,B|212:336|264:308,1,107.999994850159,2|2
280,180,116264,1,2
212,236,116597,2,0,B|180:184|204:132,2,107.999994850159,2|2|2
264,308,117931,6,0,B|300:260|360:272,1,107.999994850159,4|8
448,176,118931,2,0,B|448:116|396:88,1,107.999994850159,2|8
272,52,119931,6,0,B|236:40|200:52,2,71.9999965667726,8|2|2
236,220,121264,2,0,B|184:248|132:220,1,107.999994850159,2|2
184,148,122097,2,0,B|132:120|80:148,1,107.999994850159,8|8
84,320,123264,6,0,B|136:348|188:320,1,107.999994850159,4|8
316,304,124264,2,0,B|268:268|280:208,1,107.999994850159,0|8
280,80,125264,1,8
360,232,125931,6,0,B|420:248|456:200,2,107.999994850159,4|2|2
384,148,127264,2,0,B|336:132|292:184|244:168,1,143.999993133545,2|8
164,136,128264,1,2
232,84,128597,5,4
164,244,129264,2,0,B|104:248|72:196,2,107.999994850159,8|8|0
248,232,130597,1,8
408,300,131264,6,0,B|348:244|372:168,1,143.999993133545,4|8
408,44,132431,2,0,B|352:124|248:100,1,179.999991416932,4|8
168,68,133597,1,8
180,156,133931,6,0,B|96:132|36:200,1,160,4|8
144,280,135097,1,8
256,352,135597,2,0,B|296:372|332:352,2,80,2|8|2
292,272,136597,6,0,B|384:276|420:196,1,160,4|8
300,144,137764,2,0,B|208:84|112:144,1,200,8|8
36,304,139264,6,0,B|112:348|188:304,1,160,4|8
256,192,140431,1,8
324,80,140931,2,0,B|364:64|404:80,2,80,2|8|2
364,160,141931,5,4
404,240,142264,1,2
364,320,142597,1,8
244,264,143097,2,0,B|204:316|136:304,1,120,8|8
52,324,143931,1,8
72,240,144264,1,8
28,164,144597,6,0,B|48:76|140:64,1,160,4|8
264,100,145764,2,0,B|288:160|356:168,1,120,4|2
444,160,146597,1,8
392,88,146931,1,2
356,168,147264,6,0,B|296:236|344:316,1,160,4|8
216,352,148431,1,4
136,312,148764,2,0,B|76:344|24:304,1,120,8|8
100,144,149931,6,0,B|180:104|252:160,1,160,4|8
332,264,151097,1,4
336,352,151431,2,0,B|400:340|420:276,1,120,8|8
396,100,152597,5,4
228,44,153264,1,2
164,208,153931,1,4
332,264,154597,1,2
256,192,155264,12,4,157931
116,240,168597,5,4
204,224,168931,2,0,B|292:252|348:184,1,160,8|8
432,216,169931,6,0,B|448:120|356:96,2,160,2|2|2
416,348,171764,2,0,B|384:320|344:319,1,80,2|2
256,328,172431,2,0,B|140:344|84:252,1,200,2|2
124,176,173597,1,8
160,96,173931,6,0,B|320:96,2,160,4|2|2
264,240,175931,1,2
352,240,176264,1,2
428,192,176597,5,2
280,100,177264,1,2
144,212,177931,1,2
292,304,178597,1,2
356,140,179264,6,0,B|332:216|232:232,1,160,4|0
176,296,180264,1,8
88,284,180597,2,0,B|4:244|20:152,1,160,0|0
48,68,181597,1,8
104,136,181931,5,2
192,124,182264,2,0,B|260:68|344:108,1,160,8|8
416,156,183264,5,2
424,244,183597,2,0,B|468:236|492:200,2,80,8|2|8
344,208,184597,5,4
352,296,184931,2,0,B|264:284|216:360,1,160,8|8
128,356,185931,1,0
56,304,186264,2,0,B|4:232|40:152,1,160,8|8
120,192,187264,5,4
116,104,187597,2,0,B|204:128|260:56,1,160,8|8
340,88,188597,5,2
424,112,188931,2,0,B|452:84|500:88,2,80,8|2|8
484,176,189931,6,0,B|472:268|384:288,1,160,4|0
272,356,191097,2,0,B|232:304|256:240,1,120,4|8
280,156,191931,1,2
340,220,192264,1,8
256,244,192597,6,0,B|168:276|112:208,1,160,4|0
36,100,193764,2,0,B|88:60|148:84,1,120,4|8
232,112,194597,1,0
316,88,194931,1,8
296,172,195264,6,0,B|230:232|267:317,1,160,4|0
392,272,196431,2,0,B|448:236|440:168,1,120,4|8
404,88,197264,1,0
316,88,197597,1,0
244,36,197931,5,4
136,176,198597,1,2
256,304,199264,1,4
364,164,199931,1,2
244,36,200597,6,0,B|104:24|56:152,2,240,4|2|0
388,140,203264,6,0,B|468:140,2,80,4|8|2
428,264,204431,2,0,B|388:316|320:300,1,120,2|8
236,276,205264,1,2
180,208,205597,1,8
152,292,205931,5,4
96,224,206264,2,0,B|48:148|104:72,1,160,8|8
192,76,207264,6,0,B|272:76,3,80,4|8|2|0
360,76,208597,1,4
404,152,208931,5,8
364,228,209264,2,0,B|424:256|476:204,2,120,2|2|8
320,304,210597,1,2
276,228,210931,1,8
232,304,211264,6,0,B|152:320|60:292|20:204|36:120,1,320,4|2
188,32,213264,1,8
256,84,213597,1,8
176,120,213931,1,4
248,172,214264,6,0,B|220:204|180:208,2,80,8|2|8
328,132,215264,1,2
404,88,215597,2,0,B|448:92|476:124,2,80,8|2|8
404,176,216597,5,4
360,252,216931,2,0,B|268:248|236:332,1,160,8|8
148,332,217931,6,0,B|72:284|88:196,1,160,4|2
124,116,218931,1,8
292,64,219597,6,0,B|332:80|372:64,2,80,4|2|8
276,152,220597,1,0
260,240,220931,2,0,B|336:284|412:240,1,160,8|8
256,192,221931,12,0,224597
