osu file format v9

[General]
AudioFilename: 01 Wahrheit.mp3
AudioLeadIn: 0
PreviewTime: 104711
Countdown: 0
SampleSet: Soft
StackLeniency: 0.7
Mode: 0
LetterboxInBreaks: 0

[Editor]
DistanceSpacing: 1.2
BeatDivisor: 4
GridSize: 4

[Metadata]
Title:Wahrheit
Artist:Yousei Teikoku
Creator:Saten
Version:Saten
Source:
Tags:Saten-san Kokatsu metanoia

[Difficulty]
HPDrainRate:6
CircleSize:4
OverallDifficulty:8
ApproachRate:9
SliderMultiplier:1
SliderTickRate:2

[Events]
//Background and Video events
0,0,"bg.jpg"
//Break Periods
2,129328,138528
//Storyboard Layer 0 (Background)
//Storyboard Layer 1 (Fail)
//Storyboard Layer 2 (Pass)
//Storyboard Layer 3 (Foreground)
//Storyboard Sound Samples
//Background Colour Transformations
3,100,0,0,0

[TimingPoints]
24368,428.571428571429,4,2,1,30,1,0
31225,-100,4,2,1,15,0,0
31278,-100,4,2,1,30,0,0
38082,-50,4,2,1,20,0,0
38135,-50,4,2,1,30,0,0
50653,-61,4,2,1,30,0,0
51368,-200,4,2,1,30,0,0
51421,-200,4,2,1,5,0,0
54462,333.333333333333,4,2,1,5,1,0
55462,-50,4,2,1,60,0,0
78128,-50,4,1,1,40,0,0
78461,-50,4,2,1,60,0,0
88795,-50,4,1,1,40,0,0
89128,-50,4,2,1,60,0,0
101795,-50,4,1,1,40,0,0
102461,-50,4,2,1,60,0,0
104461,-50,4,1,1,40,0,0
105128,-50,4,2,1,60,0,1
129128,-50,4,2,1,60,0,0
139128,-50,4,1,1,40,0,0
139795,-66.6666666666667,4,2,1,60,0,0
149628,-200,4,2,1,60,0,0
149670,-200,4,2,1,5,0,0
150461,-50,4,2,1,60,0,0
173795,-50,4,1,1,40,0,0
174461,-50,4,2,1,60,0,0
176461,-50,4,1,1,40,0,0
177128,-50,4,2,1,60,0,1
198461,-200,4,2,1,60,0,1
201128,-50,4,2,1,60,0,0
206461,-47.6190476190476,4,2,1,60,0,0
207128,-45.4545454545455,4,2,1,60,0,0
207795,-43.4782608695652,4,2,1,60,0,0
208461,-41.6666666666667,4,2,1,60,0,0
209128,-40,4,2,1,60,0,0
209795,-38.4615384615385,4,2,1,60,0,0
210461,-37.037037037037,4,2,1,60,0,0
211128,-35.7142857142857,4,2,1,60,0,0
211795,-50,4,2,1,60,0,0
214795,333.333333333333,3,2,1,60,1,0
231503,-66.6666666666667,3,2,1,15,0,0
232128,-66.6666666666667,3,2,1,60,0,0
232794,333.333333333333,4,2,1,60,1,1
232794,-50,4,2,1,60,0,1
256793,-50,4,2,1,60,0,0
269543,-50,4,2,1,5,0,0

[Colours]
Combo1 : 172,172,172
Combo2 : 125,213,255
Combo3 : 255,174,94
Combo4 : 255,113,255
Combo5 : 113,255,113
Combo6 : 255,98,98
Combo7 : 229,229,229

[HitObjects]
256,48,24368,86,0,B|356:48,1,100,2|0
396,140,25225,2,0,B|296:140,1,100,2|0
208,192,26082,1,2
256,280,26510,1,2
256,280,26725,1,0
256,280,26939,2,0,B|356:296,1,100,2|0
436,236,27796,6,0,B|452:136,1,100,2|0
404,48,28653,1,2
404,48,28868,1,0
404,48,29082,1,2
404,48,29296,1,0
404,48,29510,2,0,B|304:40,1,100,2|0
256,128,30368,1,2
256,228,30796,1,0
188,300,31225,86,0,B|132:292|96:248|92:188|128:148,1,200,6|0
208,208,32510,1,2
112,244,32939,2,0,B|56:236|20:192|16:132|52:92,1,200,2|2
152,96,34225,1,0
184,192,34653,6,0,B|212:232|276:244|332:216|348:164,2,200,2|2|2
180,188,36582,1,2
176,184,36796,1,2
172,180,37010,1,0
168,176,37225,2,0,B|168:124|212:88|272:80|324:104,1,200,2|6
400,164,38296,85,0
376,260,38510,1,2
284,304,38725,1,0
256,208,38939,2,0,B|256:4,1,200,2|0
72,92,39796,2,0,B|72:292,1,200,2|2
152,352,40439,1,0
212,272,40653,2,0,B|212:216|180:172|120:160|71:178,1,200,2|0
256,72,41510,6,0,B|304:52|364:64|396:108|396:164,1,200,2|0
256,348,42368,1,2
188,272,42582,1,0
208,176,42796,2,0,B|304:148,1,100,2|0
124,220,43225,2,0,B|108:172|124:116|176:84|232:88,2,200,2|2|0
256,372,44510,1,0
388,220,44939,86,0,B|348:128,1,100,6|0
256,168,45368,2,0,B|256:268,1,100,2|0
124,220,45796,2,0,B|120:168|152:120|204:100|256:104,2,200,2|0|2
256,372,47082,5,2
352,344,47296,1,0
416,268,47510,2,0,B|444:224|452:168|420:124|372:100,1,200,2|0
256,264,48368,86,0,B|208:284|148:264|120:224|116:168,1,200,2|0
256,24,49225,1,2
336,84,49439,1,0
332,184,49653,1,2
256,252,49868,1,0
156,222,50082,6,0,B|132:184|140:116|176:84,1,150,2|0
356,222,50653,2,0,B|380:184|372:116|336:84,1,150,2|0
256,252,51368,86,0,B|256:352,1,100,2|0
256,192,52439,12,0,54462
256,352,55462,22,0,B|256:328,6,25
256,352,55795,6,0,B|203:371|160:335|160:335|102:345|73:303,1,200,6|4
73,80,56462,2,0,B|102:38|160:48|160:48|203:12|256:32,1,200,4|4
256,232,57128,6,0,B|200:248|160:220,1,100,4|2
220,140,57462,2,0,B|276:124|316:152,1,100,10|2
352,244,57795,1,2
280,316,57962,1,0
180,316,58128,2,0,B|128:300|92:256|96:192|132:156,1,200,10|2
204,220,58628,1,0
292,168,58795,6,0,B|312:124|288:72,1,100,10|2
72,92,59128,2,0,B|28:124|24:176,1,100,2|0
284,252,59461,2,0,B|340:252|368:208,1,100,10|0
352,108,59795,5,2
256,76,59961,1,2
180,144,60128,2,0,B|148:240,1,100,10|2
336,320,60461,2,0,B|420:260,1,100,2|0
360,180,60795,2,0,B|216:316,1,200,10|2
124,280,61295,1,0
60,204,61461,38,0,B|88:108,1,100,10|2
452,180,61795,2,0,B|424:276,1,100,2|0
336,320,62128,1,8
176,64,62295,1,0
256,192,62461,6,0,B|236:244|176:252,1,100,2|2
84,220,62795,2,0,B|108:176|164:160,1,100,10|2
336,236,63128,2,0,B|372:200|368:140,1,100,2|0
256,32,63461,2,0,B|208:16|156:32,1,100,10|0
92,108,63795,5,2
148,192,63961,1,0
420,108,64128,1,10
364,192,64294,1,2
256,192,64461,2,0,B|240:144|252:88|304:52|360:52,1,200,2|10
388,148,64961,1,0
292,124,65128,6,0,B|196:92,1,100,2|2
116,148,65461,2,0,B|140:244,1,100,10|2
188,336,65795,2,0,B|244:332|292:296|288:232|256:192,1,200,2|10
180,128,66295,1,0
116,204,66461,6,0,B|200:257,1,100,2|0
356,160,66795,2,0,B|271:106,1,100,10|2
288,216,67128,1,0
288,216,67211,1,0
288,216,67295,2,0,B|336:240|388:232,1,100,0|8
468,172,67628,1,8
420,84,67795,38,0,B|380:56|324:64,2,100,6|0|0
356,160,68295,2,0,B|304:164|256:148|256:148|208:164|156:160,1,200,2|0
92,84,68795,2,0,B|132:56|188:64,2,100,2|0|2
84,184,69295,1,2
160,248,69461,1,0
256,224,69628,1,2
256,124,69795,5,0
356,332,69961,1,2
256,120,70128,1,2
156,332,70295,1,0
256,116,70461,6,0,B|300:84|352:88,2,100,2|0|0
256,216,70961,2,0,B|300:244|356:240|400:212|420:156,1,200,2|0
348,84,71461,5,2
164,84,71628,1,0
328,160,71795,1,2
184,160,71961,1,0
256,36,72128,1,2
256,148,72295,1,2
312,52,72461,2,0,B|356:28|412:32,1,100,2|0
200,52,72795,2,0,B|156:28|100:32,1,100,2|0
20,84,73128,5,2
36,184,73295,1,0
128,224,73461,1,0
224,192,73628,1,2
316,232,73795,1,0
316,232,73878,1,0
316,232,73961,2,0,B|316:332,1,100,2|2
412,364,74295,1,0
476,288,74461,38,0,B|500:192,1,100,2|2
256,44,74795,2,0,B|256:144,1,100,0|2
376,184,75128,2,0,B|376:84,1,100,2|0
136,84,75461,2,0,B|136:184,1,100,2|0
160,280,75795,5,2
256,312,75961,1,0
352,280,76128,1,0
280,212,76295,2,0,B|228:184|204:136|220:80|256:44,1,200,2|0
356,56,76795,2,0,B|420:132,1,100,2|0
440,232,77128,5,2
352,280,77295,1,2
440,232,77461,1,0
280,212,77628,1,2
440,232,77795,1,2
256,116,77961,1,0
440,232,78128,5,10
460,248,78211,1,0
468,272,78295,1,8
464,296,78378,1,8
456,320,78461,2,0,B|256:320,1,200,4|10
200,236,78961,1,0
268,164,79128,2,0,B|364:132,1,100,2|0
256,28,79461,2,0,B|160:60,1,100,10|0
108,144,79795,5,2
312,72,79961,1,0
80,264,80128,37,10
173,68,80294,1,0
208,160,80461,5,2
220,180,80545,1,2
240,192,80628,1,2
264,200,80711,1,2
288,200,80795,2,0,B|380:164,1,100,10|0
464,224,81128,2,0,B|464:324,1,100,2|0
48,324,81461,2,0,B|48:224,1,100,10|0
108,144,81795,5,2
404,240,81961,1,2
192,67,82128,1,8
319,316,82295,1,0
294,72,82461,1,2
217,311,82628,1,0
356,140,82795,1,10
155,243,82961,1,2
352,223,83128,1,2
159,160,83295,1,0
297,273,83461,1,10
214,110,83628,1,0
256,192,83795,6,0,B|248:240|196:268,1,100,6|0
60,132,84128,2,0,B|76:80|128:56,1,100,10|0
300,132,84461,2,0,B|320:176|376:192,1,100,2|2
476,172,84795,1,8
508,80,84961,1,0
428,20,85128,6,0,B|328:20,1,100,2|0
84,20,85461,2,0,B|184:20,1,100,10|0
256,92,85795,1,2
252,116,85878,1,2
240,136,85961,1,2
220,152,86045,1,2
196,160,86128,2,0,B|96:160,1,100,10|0
156,300,86461,38,0,B|256:300,1,100,2|0
152,88,86795,2,0,B|52:88,1,100,10|0
100,228,87128,2,0,B|200:228,1,100,2|2
412,228,87461,2,0,B|312:228,1,100,8|2
256,144,87795,5,2
392,84,87961,1,0
256,152,88128,1,10
120,92,88295,1,2
8,192,88461,5,2
120,92,88628,1,8
256,32,88795,1,10
256,56,88878,1,0
256,80,88961,1,2
256,104,89045,1,0
256,128,89128,6,0,B|244:176|192:208|132:208|92:172,1,200,4|8
72,76,89628,1,0
188,192,89795,2,0,B|228:220|284:216,1,100
324,340,90128,2,0,B|284:368|228:364,1,100,8|0
140,320,90461,6,0,B|112:224,1,100,0|2
372,64,90795,2,0,B|400:160,1,100,10|2
256,192,91128,1,2
256,192,91211,1,2
256,192,91295,2,0,B|200:184|172:144,1,100,2|8
192,44,91628,1,2
284,84,91795,38,0,B|352:156,1,100
228,300,92128,2,0,B|160:228,1,100,8|0
352,156,92461,5,0
159,227,92628,1,0
349,235,92795,1,8
162,148,92961,1,0
256,192,93128,6,0,B|296:284,1,100,0|2
164,356,93461,2,0,B|72:320,1,100,10|2
20,176,93795,1,2
32,152,93878,1,2
52,136,93961,1,2
76,128,94045,1,2
100,128,94128,1,8
188,180,94295,1,2
284,148,94461,6,0,B|308:100|284:52,1,100,4|0
196,100,94795,2,0,B|179:49|128:32,1,100,8|0
100,128,95128,2,0,B|51:103|4:132,1,100
52,216,95461,6,0,B|28:264|52:312,1,100,8|0
140,264,95795,2,0,B|156:314|207:331,1,100,0|2
236,236,96128,2,0,B|284:260|332:232,1,100,10|2
420,188,96461,1,2
420,188,96545,1,2
420,188,96628,2,0,B|388:92,1,100,2|10
296,52,96961,1,2
212,108,97128,38,0,B|212:308,1,200,0|8
124,356,97628,1,0
58,284,97795,2,0,B|65:232|108:191|161:186|212:208,1,200,0|8
256,296,98295,1,0
155,296,98461,6,0,B|115:264|115:208,1,100,0|2
357,296,98795,2,0,B|397:264|397:208,1,100,10|2
256,112,99128,1,2
256,112,99211,1,2
256,112,99295,2,0,B|256:212,1,100,2|10
160,236,99628,1,2
72,192,99795,6,0,B|52:144|64:92,2,100,4|0|0
256,112,100295,1,4
256,112,100628,5,0
440,192,100795,2,0,B|460:144|448:92,2,100,4|0|0
256,112,101295,1,4
256,112,101628,5,0
256,212,101795,1,12
236,224,101878,1,0
212,232,101961,1,0
188,232,102045,1,0
164,224,102128,1,8
148,204,102211,1,0
140,180,102295,1,0
144,156,102378,1,0
156,132,102461,38,0,B|196:100|204:48,1,100,4|0
108,24,102795,1,0
36,92,102961,2,0,B|36:292,1,200,4|0
108,360,103461,1,4
204,336,103629,2,0,B|196:284|156:252,1,100
236,192,103961,2,0,B|436:192,1,200,4|0
480,284,104461,5,4
468,308,104545,1,0
448,324,104628,1,8
424,332,104711,1,0
400,328,104795,1,0
380,312,104878,1,0
368,288,104961,1,0
368,264,105045,1,0
376,240,105128,6,0,B|396:192|376:144,1,100,4|0
136,144,105461,2,0,B|116:192|136:240,1,100,8|0
236,256,105795,1,0
312,192,105961,1,0
308,92,106128,2,0,B|295:43|245:11|185:11|142:44,1,200,8|0
136,144,106628,1,0
216,204,106795,2,0,B|264:216|312:192,1,100,8|0
216,120,107128,2,0,B|176:84|124:92,1,100,0|0
40,148,107461,5,8
36,248,107628,1,0
104,324,107795,2,0,B|155:333|212:323|245:282|256:232,1,200,0|8
408,324,108295,2,0,B|356:333|299:323|266:282|256:232,1,200
256,132,108795,5,8
256,368,108961,1,0
136,192,109128,1,0
256,368,109295,1,0
376,192,109461,1,8
256,368,109628,1,0
256,132,109795,2,0,B|228:84|176:68|120:80|84:120,1,200,0|8
80,220,110295,37,0
80,220,110378,1,0
80,220,110461,2,0,B|132:220|180:188|196:144|174:82,1,200,0|8
84,128,110961,1,0
256,236,111128,1,0
428,128,111295,1,0
338,82,111461,2,0,B|316:144|332:188|380:220|432:220,1,200,8|0
460,316,111961,5,0
256,148,112128,1,8
52,316,112295,1,0
256,140,112461,1,0
460,316,112628,1,0
372,360,112795,6,0,B|312:360|268:340|248:296|256:236,1,200,8|2
260,240,113461,1,10
264,245,113795,1,2
268,249,114128,1,10
272,253,114461,6,0,B|324:253|368:229,1,100,2|0
292,152,114795,2,0,B|240:152|196:176,1,100,10|0
328,316,115128,1,2
328,316,115211,1,2
328,316,115295,2,0,B|364:280|368:228,1,100,2|8
292,152,115628,5,8
292,152,115711,1,8
292,152,115795,2,0,B|200:116,1,100,4|0
132,192,116128,2,0,B|160:288,1,100,8|0
424,140,116461,2,0,B|348:76,1,100
52,264,116795,2,0,B|96:356,1,100,8|0
196,368,117128,37,0
264,292,117295,1,0
256,192,117461,1,8
324,116,117628,5,0
256,192,117795,1,0
264,292,117961,1,0
356,336,118128,6,0,B|408:328|444:284|444:228|412:180,1,200,8|0
328,236,118628,1,0
228,244,118795,1,8
156,172,118961,2,0,B|120:80,2,100
256,192,119461,2,0,B|308:180|344:144|364:96|348:40,1,200,8|0
164,39,119961,5,0
256,192,120128,1,8
347,39,120295,1,0
164,39,120461,5,0
256,192,120628,1,0
347,39,120795,2,0,B|300:18|240:31|208:70|197:126,1,200,8|0
256,316,121295,37,0
197,125,121461,1,8
256,316,121628,2,0,B|308:324|360:304|388:260|376:200,1,200
256,316,122128,2,0,B|204:324|152:304|124:260|136:200,1,200,8|0
256,40,122628,5,0
136,199,122795,1,8
256,40,122961,2,0,B|308:48|348:88|364:136|344:192,1,200
256,40,123461,2,0,B|204:48|164:88|148:136|168:192,1,200,8|2
172,196,124128,1,10
176,200,124461,1,2
180,204,124795,1,10
184,208,125128,6,0,B|228:228|280:196|280:196|324:224|376:204,1,200,4|8
256,44,125795,6,0,B|212:24|160:56|160:56|116:28|64:48,1,200,4|8
256,192,126461,12,4,129128
256,192,139128,5,0
256,192,139211,1,0
256,192,139295,1,0
256,192,139378,1,0
256,192,139461,1,0
256,192,139545,1,0
256,192,139628,1,0
256,192,139711,1,0
256,192,139795,38,0,B|324:164,1,74.9999977648259,6|0
400,176,140128,1,0
432,244,140295,2,0,B|412:316|332:352,1,149.999995529652,2|0
260,344,140795,2,0,B|196:304,1,74.9999977648259,2|0
260,260,141128,6,0,B|324:220,1,74.9999977648259,2|0
340,148,141461,1,0
304,80,141628,1,2
232,56,141795,2,0,B|156:56,1,74.9999977648259,0|2
72,132,142128,2,0,B|148:132,1,74.9999977648259,0|2
216,160,142461,5,2
256,224,142628,1,0
232,296,142795,1,0
160,316,142961,2,0,B|111:285|97:235|127:187,1,149.999995529652,2|0
184,240,143461,6,0,B|232:296,1,74.9999977648259,2|0
104,376,143795,2,0,B|56:320,1,74.9999977648259,2|0
216,160,144128,2,0,B|264:216,1,74.9999977648259,0|2
160,316,144461,2,0,B|112:260,1,74.9999977648259,0|2
300,136,144795,2,0,B|348:192,1,74.9999977648259
364,268,145128,5,2
328,336,145295,1,0
256,360,145461,1,0
256,284,145628,2,0,B|256:136,1,149.999995529652,2|0
192,92,146128,2,0,B|140:148,1,74.9999977648259,2|0
371,146,146461,2,0,B|320:92,1,74.9999977648259,2|2
256,132,146795,37,0
176,260,146961,1,2
256,128,147128,1,0
336,260,147295,1,2
256,124,147461,1,0
176,260,147628,1,2
256,120,147795,5,2
368,116,147961,1,0
452,192,148128,1,0
452,304,148295,2,0,B|408:372|320:352,1,149.999995529652,2|0
256,260,148795,1,2
312,164,148961,1,0
256,260,149128,1,0
200,164,149295,1,2
256,260,149461,1,0
312,164,149628,6,0,B|360:280,1,125,2|6
424,356,150628,5,0
480,276,150795,2,0,B|504:180,1,100,10|2
424,52,151128,2,0,B|400:148,1,100,2|0
32,276,151461,2,0,B|8:180,1,100,10|0
88,52,151794,2,0,B|112:148,1,100,2|0
256,232,152128,6,0,B|256:132,1,100,10|0
212,44,152461,1,2
188,48,152545,1,2
168,60,152628,1,2
152,80,152711,1,2
144,104,152795,2,0,B|144:204,1,100,10|2
368,280,153128,38,0,B|368:180,1,100,2|0
128,116,153461,2,0,B|128:216,1,100,10|0
384,268,153795,2,0,B|384:168,1,100,2|0
182,276,154128,5,10
329,107,154295,1,0
264,304,154461,1,0
248,79,154628,1,2
340,265,154795,1,8
171,118,154961,1,2
368,184,155128,5,2
143,199,155295,1,0
368,184,155461,1,10
143,199,155628,1,0
256,192,155795,6,0,B|300:220|304:276,1,100,6|0
104,276,156128,2,0,B|60:248|56:192,1,100,10|0
76,76,156461,1,2
168,156,156628,1,2
256,76,156795,1,10
344,156,156961,1,0
436,76,157128,6,0,B|512:140,1,100,2|0
332,256,157461,2,0,B|256:192,1,100,10|0
136,140,157795,1,2
112,140,157878,1,2
92,152,157961,1,2
80,172,158045,1,2
76,196,158128,2,0,B|76:296,1,100,10|2
208,228,158461,38,0,B|208:128,1,100,2|0
328,36,158795,2,0,B|328:136,1,100,10|0
448,228,159128,2,0,B|448:128,1,100,2|0
256,20,159461,2,0,B|160:52,1,100,10|0
116,140,159795,5,2
160,228,159961,1,2
256,264,160128,2,0,B|292:172,1,100,10|2
468,208,160461,1,2
468,208,160545,1,2
468,208,160628,2,0,B|432:300,1,100,2|10
348,356,160961,1,2
248,348,161128,6,0,B|200:332|180:280,1,100,4|0
256,216,161461,2,0,B|304:200|324:148,1,100,8|0
188,148,161795,2,0,B|140:132|120:80,1,100
324,148,162128,2,0,B|372:132|392:80,1,100,8|0
256,24,162461,5,0
336,240,162628,1,2
144,112,162795,1,10
368,112,162961,1,2
176,240,163128,1,2
256,24,163295,1,2
336,240,163461,1,10
256,148,163628,1,0
368,112,163795,6,0,B|412:92|465:103,1,100,0|0
304,316,164128,2,0,B|256:336|208:316,1,100,8|0
46,103,164461,2,0,B|100:92|144:112,1,100
204,192,164795,1,8
152,276,164961,1,0
52,264,165128,38,0,B|8:232|8:180,1,100,0|2
256,32,165461,2,0,B|256:132,1,100,10|2
332,228,165795,1,2
332,228,165878,1,2
332,228,165961,2,0,B|380:240|428:212,1,100,2|10
496,136,166295,1,2
448,48,166461,6,0,B|352:24,1,100,4|0
64,48,166795,2,0,B|160:24,1,100,8|0
256,60,167128,1,0
248,160,167295,1,0
168,220,167461,2,0,B|116:200|104:148|104:148|68:104|20:100,1,200,8|0
8,216,167961,5,2
144,68,168128,1,10
76,256,168295,1,2
212,108,168461,1,2
212,108,168545,1,2
212,108,168628,2,0,B|264:88|312:96,1,100,2|10
392,156,168961,1,2
380,256,169128,6,0,B|328:260|288:224,1,100
132,128,169461,2,0,B|184:124|224:160,1,100,8|0
367,276,169795,6,0,B|315:271|281:229,1,100
144,107,170128,2,0,B|196:112|230:154,1,100,8|0
220,256,170461,37,0
136,312,170628,1,2
40,288,170795,2,8,B|20:192,1,100,10|2
40,92,171128,1,2
56,72,171211,1,2
76,60,171295,1,2
100,56,171378,1,0
124,60,171461,1,10
204,120,171628,1,2
308,120,171795,6,0,B|356:100|372:44,2,100,4|0|0
204,120,172295,2,0,B|156:140|140:196,2,100,4|0|0
256,204,172795,6,0,B|276:252|332:268,2,100,4|0|0
308,120,173295,2,0,B|358:112|410:138|434:186|419:245,1,200,4|0
348,312,173795,5,12
324,316,173878,1,0
300,312,173961,1,0
276,304,174045,1,0
256,288,174128,1,8
236,304,174211,1,0
212,312,174295,1,0
188,316,174378,1,0
164,312,174461,6,0,B|136:264|160:216,1,100,4|0
256,192,174795,2,0,B|284:144|260:96,1,100,0|4
260,96,175295,37,0
168,60,175461,2,0,B|116:60|80:100,1,100,4|0
144,180,175795,2,0,B|136:232|96:264,1,100,0|4
95,264,176295,5,0
4,220,176461,1,4
16,196,176545,1,0
28,172,176628,1,12
40,148,176711,1,0
52,124,176795,1,0
64,104,176878,1,0
76,84,176961,1,0
88,64,177045,1,0
100,44,177128,6,0,B|196:24,1,100,4|0
412,44,177461,2,0,B|316:24,1,100,8|0
256,108,177795,1,0
288,204,177961,1,0
376,252,178128,6,8,B|417:214|430:160|399:112|349:89,1,200,8|0
188,180,178628,1,0
324,180,178795,1,8
162,88,178961,2,0,B|111:113|81:160|93:214|136:252,1,200,0|0
256,120,179461,5,8
375,252,179628,1,0
256,120,179795,1,0
136,252,179961,1,0
256,120,180128,1,8
375,252,180295,2,0,B|360:300|312:336|260:332|212:304,1,200
228,63,180795,38,0,B|200:112|196:164|232:212|280:228,2,200,8|0|8
304,132,181628,1,0
280,228,181795,2,0,B|231:256|179:260|131:224|115:176,2,200,0|8|0
304,132,182628,5,0
228,63,182795,1,8
140,108,182961,2,0,B|72:296,1,200
440,296,183461,6,0,B|372:108,1,200,8|0
284,63,183961,1,0
208,132,184128,1,8
232,228,184295,2,0,B|281:256|333:260|381:224|397:176,1,200
304,132,184795,6,0,B|258:154|199:146|165:106|150:52,1,200,8|2
448,36,185461,1,10
80,192,185795,1,2
448,348,186128,1,10
150,331,186461,6,0,B|200:240,1,100,2|0
400,224,186795,2,0,B|350:132,1,100,10|0
152,116,187128,2,0,B|201:24,1,100,2|0
300,28,187461,1,8
320,40,187545,1,8
332,60,187628,1,8
336,84,187711,1,0
332,108,187795,38,0,B|296:144|240:152,1,100,4|0
48,192,188128,2,0,B|84:228|140:236,1,100,8|0
328,288,188461,2,0,B|292:324|236:332,1,100,0|0
144,300,188795,1,8
96,212,188961,1,0
144,124,189128,6,0,B|176:72|228:60|281:69|311:118,1,200,0|8
228,172,189628,2,0,B|196:224|144:236|90:226|60:177,1,200
76,80,190128,1,8
168,40,190295,1,0
256,84,190461,6,0,B|256:284,1,200,0|8
336,224,190961,2,0,B|320:172|272:144|220:148|172:184,1,200
136,276,191461,1,8
376,108,191628,1,0
256,192,191795,6,0,B|191:204|150:174|130:122|159:69,1,200,0|8
256,92,192295,1,0
256,192,192461,2,0,B|320:204|361:174|381:122|352:69,1,200,0|8
256,92,192961,1,0
256,192,193128,6,0,B|248:240|200:280|144:284|96:256,1,200,0|8
256,192,193628,2,0,B|264:240|312:280|368:284|416:256,1,200
256,36,194128,1,8
414,256,194295,1,0
256,36,194461,38,0,B|208:24|160:52|160:52|108:32|68:72,1,200,0|8
256,36,194961,2,0,B|304:24|352:52|352:52|404:32|444:72,1,200
256,264,195461,1,8
444,72,195628,1,0
256,264,195795,6,0,B|208:252|184:200,1,100,2|0
332,192,196128,2,0,B|380:180|404:128,1,100,10|0
256,100,196461,2,0,B|156:100,1,100,2|0
336,272,196795,2,0,B|436:272,1,100,10|0
472,120,197128,6,0,B|456:64|424:28|364:16|316:32,1,200,4|8
40,120,197795,6,0,B|56:64|88:28|148:16|196:32,1,200,4|8
184,212,198461,6,6,B|152:256|152:304|176:348|228:384|284:384|336:348|360:304|360:256|328:212,1,400,6|6
256,144,201295,37,0
160,112,201461,2,0,B|104:128|88:176,1,100,10|0
424,176,201795,2,0,B|408:128|352:112,1,100,2|0
256,144,202128,5,8
360,316,202295,1,2
256,144,202461,2,0,B|160:112,1,100,2|0
160,312,202795,2,0,B|256:344,1,100,10|2
344,164,203128,5,0
254,343,203295,1,4
168,164,203461,1,8
254,343,203628,1,4
344,164,203795,6,0,B|352:108|316:72,1,100,6|0
284,280,204128,2,0,B|340:288|376:252,1,100,10|2
168,220,204461,2,0,B|160:276|196:312,1,100,2|0
228,104,204795,2,0,B|172:96|136:132,1,100,10|2
168,220,205128,5,2
284,280,205295,1,2
344,164,205461,1,8
228,104,205628,1,2
316,72,205795,37,4
375,252,205961,1,2
195,311,206128,1,8
136,131,206295,1,2
404,28,206461,6,0,B|300:28,1,104.999999687076,6|0
108,28,206795,2,0,B|212:28,1,104.999999687076,10|2
410,76,207128,6,0,B|300:76,1,109.999996721745,2|0
102,76,207461,2,0,B|212:76,1,109.999996721745,10|2
416,124,207795,6,0,B|300:124,1,115.000003769994,2|0
96,124,208128,2,0,B|212:124,1,115.000003769994,10|2
420,172,208461,6,0,B|300:172,1,120.000002861023,2|0
92,172,208795,2,0,B|212:172,1,120.000002861023,10|2
424,220,209128,38,0,B|300:220,1,124.999998137355,6|0
88,220,209461,2,0,B|212:220,1,124.999998137355,10|2
430,268,209795,6,0,B|300:268,1,129.999997675419,4|0
82,268,210128,2,0,B|212:268,1,129.999997675419,10|2
436,316,210461,6,0,B|300:316,1,135.000004425645,6|0
76,316,210795,2,0,B|212:316,1,135.000004425645,14|2
440,364,211128,6,0,B|300:364,1,139.99999666214,6|0
72,364,211461,2,0,B|212:364,1,139.99999666214,10|0
256,192,211795,5,2
124,40,212017,1,2
256,192,212239,1,2
388,40,212461,1,2
256,192,212684,1,2
124,40,212906,1,10
256,192,213128,1,2
388,40,213350,1,2
256,192,213573,1,10
124,40,213795,1,6
256,192,214795,6,0,B|356:192,1,100,2|0
444,144,215461,1,2
384,64,215795,2,0,B|352:24|296:4|232:12|192:52|168:100|176:152,1,300,2|2
256,212,217128,1,0
188,288,217461,5,2
188,288,217628,1,0
188,288,217795,2,0,B|88:304,1,100,2|0
36,220,218461,2,0,B|80:128,1,100,2|0
168,84,219128,2,0,B|268:96,1,100,2|2
312,184,219795,86,0,B|316:236|284:284|228:304|176:288,1,200,2|2
212,192,220795,2,0,B|216:140|184:92|128:72|76:88,1,200,2|2
80,92,221628,1,0
84,96,221795,2,0,B|84:244,1,150,2|2
88,248,222461,1,0
92,252,222628,1,2
96,256,222795,2,0,B|136:284|192:268,1,100,2|2
256,192,223461,1,0
256,92,223795,6,0,B|202:86|149:115|135:168|151:222,1,200,2|2
236,276,224795,1,0
332,256,225128,1,2
392,176,225461,85,2
392,176,225628,1,0
392,176,225795,2,0,B|400:120|384:72|336:32|276:20|224:40|192:76,1,300,2|2
196,80,226961,1,0
200,84,227128,1,2
204,88,227295,1,0
208,92,227461,6,0,B|308:92,1,100,2|2
328,192,228128,1,2
256,260,228461,1,0
164,224,228795,2,0,B|128:132,1,100,2|2
36,168,229461,85,2
36,168,229628,1,0
36,168,229794,2,0,B|24:220|48:268|104:284,1,150,2|2
108,280,230461,1,0
112,276,230628,1,2
116,272,230794,2,0,B|116:72,2,200,2|0|0
204,328,232461,21,0
304,296,232794,2,0,B|356:280|388:232|384:180|348:132,1,200,4|8
256,96,233294,1,0
168,144,233460,2,0,B|152:196|180:240,1,100
448,236,233794,2,0,B|464:184|436:140,1,100,8|0
356,80,234127,5,0
256,96,234294,1,0
168,144,234460,1,8
136,240,234627,2,0,B|79:232|42:180|49:127|85:85,1,200
168,144,235127,6,0,B|204:186|211:238|174:290|117:298,1,200,8|0
28,260,235627,1,0
16,160,235794,1,8
83,84,235960,2,0,B|107:32|163:32|163:32|211:60|256:28,1,200
428,84,236460,2,0,B|404:32|348:32|348:32|300:60|256:28,1,200,8|0
212,116,236960,5,0
256,32,237127,1,8
300,172,237294,1,0
256,36,237460,1,0
212,224,237627,1,0
256,40,237794,1,8
300,272,237960,1,0
256,44,238127,6,0,B|201:41|149:65|129:113|137:169,1,200,0|8
256,44,238627,2,0,B|311:41|363:65|383:113|375:169,1,200
256,336,239127,37,8
256,140,239294,1,0
256,340,239460,6,0,B|201:343|149:319|129:271|137:215,1,200,0|8
256,340,239960,2,0,B|311:343|363:319|383:271|375:215,1,200
256,44,240460,5,8
256,244,240627,1,0
256,44,240794,5,2
260,48,241127,1,10
264,52,241460,1,2
268,56,241794,1,10
272,60,242127,6,0,B|272:160,1,100,2|0
96,256,242460,2,0,B|96:156,1,100,10|0
236,216,242794,38,2,B|224:248,5,33.3333333333333
252,204,243127,5,8
276,200,243210,1,8
300,212,243294,1,8
320,228,243377,1,8
344,236,243460,2,0,B|400:240|444:220|476:180|464:116,1,200,4|8
416,28,243960,1,0
316,28,244127,2,0,B|316:128,1,100
196,356,244460,2,0,B|196:256,1,100,8|0
316,128,244794,5,0
196,256,244960,1,0
369,188,245127,1,8
142,195,245294,1,0
363,293,245460,1,0
148,90,245627,1,0
256,192,245794,6,0,B|256:244|232:296|176:308|120:296,1,200,8|0
56,220,246294,1,0
76,124,246460,1,8
142,195,246627,2,0,B|214:235|238:203|262:167|334:215,1,200
372,304,247127,1,8
292,364,247293,1,0
208,312,247460,6,0,B|164:224,1,100
304,72,247793,2,0,B|348:160,1,100,8|0
147,262,248127,2,0,B|162:165,1,100
364,121,248460,2,0,B|349:218,1,100,8|0
162,163,248793,37,0
349,220,248960,1,0
195,80,249127,1,8
316,303,249293,2,0,B|272:280|236:232|240:180|256:132,1,200
195,303,249793,2,0,B|240:280|276:232|272:180|256:132,1,200,8|0
160,100,250293,5,0
352,284,250460,1,8
123,194,250627,1,0
388,189,250793,1,0
164,288,250960,1,0
348,95,251127,1,8
258,324,251293,1,0
253,59,251460,6,0,B|232:106|249:148|296:172,1,133.333333333333,2|0
258,324,251793,2,0,B|279:277|262:235|215:211,1,133.333333333333,10|0
184,288,252127,2,0,B|312:240,1,133.333333333333,2|0
328,96,252460,2,0,B|200:144,1,133.333333333333,10|0
160,212,252793,6,0,B|116:240|64:224|32:168|68:104,1,200,4|8
352,212,253460,6,0,B|396:240|448:224|480:168|444:104,1,200,4|8
256,340,254127,37,4
104,76,254460,1,2
408,76,254793,1,6
420,100,254877,1,0
424,124,254960,1,0
420,148,255043,1,0
412,172,255127,1,2
396,192,255210,1,0
376,204,255293,1,0
352,208,255377,1,0
328,204,255460,2,0,B|272:196|240:156|236:100|256:48,1,200,2|2
256,348,256127,5,14
236,332,256210,1,0
216,316,256293,1,0
196,300,256377,1,0
176,284,256460,1,10
156,268,256543,1,0
136,252,256627,1,0
116,236,256710,1,0
96,220,256793,6,0,B|96:120,1,100,6|2
220,32,257127,2,0,B|220:132,1,100,10|2
256,228,257460,1,2
348,268,257627,1,0
444,236,257793,2,0,B|466:181|437:140|437:140|381:141|349:101,1,200,10|2
428,40,258293,5,0
368,208,258460,2,0,B|316:200|288:152,1,100,10|2
144,176,258793,2,0,B|196:184|224:232,1,100,2|0
128,268,259127,2,0,B|72:252|48:204|48:148|88:108,1,200,10|2
188,96,259627,5,2
256,168,259793,2,0,B|256:268,1,100,10|2
324,340,260127,2,0,B|376:340|404:288|404:288|452:288|484:236,1,200,2|10
396,192,260627,1,0
484,148,260793,2,0,B|452:96|404:96|404:96|376:44|324:44,1,200,2|10
256,120,261293,1,2
188,44,261460,2,0,B|136:44|108:96|108:96|60:96|28:148,1,200,2|8
96,220,261960,1,0
192,192,262127,38,0,B|244:172|256:120,1,100,2|2
308,36,262460,2,0,B|360:52|372:108,1,100,10|2
360,204,262793,1,2
272,252,262960,1,0
192,192,263127,2,0,B|168:144|188:96|188:96|148:60|92:68,1,200,10|2
20,132,263627,5,0
44,228,263793,2,0,B|88:208|104:152,1,100,10|2
468,228,264127,2,0,B|424:208|408:152,1,100,2|0
256,40,264460,2,0,B|256:240,1,200,10|2
204,324,264960,5,2
104,328,265127,2,0,B|80:284|104:232,1,100,10|2
408,56,265460,2,0,B|432:100|408:152,1,100,2|0
52,180,265793,2,0,B|66:132|120:112,1,100,10|0
459,203,266127,2,0,B|445:251|391:271,1,100,2|0
296,240,266460,5,10
256,148,266627,1,2
296,240,266793,1,2
391,270,266960,1,0
460,204,267127,5,2
464,180,267210,1,2
468,156,267293,1,2
472,132,267377,1,2
476,108,267460,2,0,B|416:24,1,100,6|2
336,88,267793,1,2
256,148,267960,2,0,B|211:120|198:67|198:67|151:55|105:92,1,200,6|0
88,192,268460,37,6
160,260,268627,1,2
256,292,268793,1,0
256,192,268960,1,4
256,192,269460,5,4
256,192,269543,12,0,280793
