osu file format v6

[General]
AudioFilename: 01 Wahrheit.mp3
AudioLeadIn: 0
PreviewTime: 115461
Countdown: 0
SampleSet: Soft
StackLeniency: 0.7
Mode: 0
LetterboxInBreaks: 0

[Editor]
Bookmarks: 78138,78471,104471,104804,134471,139804,161138,173804,175971,176804,201138,201471,211471,230798,232465,256798
DistanceSpacing: 1.60000002384186
BeatDivisor: 4
GridSize: 8

[Metadata]
Title:Wahrheit
Artist:Yousei Teikoku
Creator:Mafiamaster
Version:Collab
Source:
Tags:Mafiamaster v2b Takuma ignorethis Alace minyeob

[Difficulty]
HPDrainRate:6
CircleSize:5
OverallDifficulty:7
SliderMultiplier:1.4
SliderTickRate:1

[Events]
//Background and Video events
0,0,"BG by Diokatsu.jpg"
//Break Periods
2,51564,54422
2,129338,138754
2,201337,210904
//Storyboard Layer 0 (Background)
//Storyboard Layer 1 (Fail)
//Storyboard Layer 2 (Pass)
//Storyboard Layer 3 (Foreground)
Sprite,Foreground,Centre,"Name1.png",320,240 M,0,23936,,457,434 S,0,23936,,0.80032 F,0,23936,24365,0,1 F,0,24365,25222,1 F,0,25222,37222,1 R,0,37008,37222,0,-0.2918396 F,0,37222,38079,1 R,0,37865,38079,-0.2611194,-0.0153589 F,0,38079,50079,1 F,0,50079,50186,1,0.67744 F,0,50186,50294,0.67744,0.9193602 F,0,50294,50401,0.9193602,0.7350403 F,0,50401,50508,0.7350403,1 F,0,50508,50615,1,0.7312001 F,0,50615,50722,0.7312001,0.9769601 F,0,50722,50829,0.9769601,0.7542401 F,0,50829,50936,0.7542401,1 F,0,50936,51044,1,0.5315201 F,0,51044,51151,0.5315201,0.8694401 F,0,51151,51258,0.8694401,0.4969603 F,0,51258,51365,0.4969603,1 F,0,51365,53508,1,0
Sprite,Foreground,Centre,"Name2.png",320,240 S,0,55555,55805,0.1,0.9908798 S,0,55805,55888,0.9908798,0.1 S,0,55888,56138,0.1,0.9908795 S,0,56138,56221,0.9908795,0.1 S,0,56221,56471,0.1,0.9831999 S,0,56471,56555,0.9831999,0.1 M,0,55555,56805,320,240,319,240 S,0,56555,56805,0.1,0.9908798 F,0,55555,57138,1 M,0,56805,57138,319,240,515,425 R,0,56805,57138,0.0153598,12.53376 F,0,57138,78138,1 F,0,78138,78304,1 F,0,78304,78471,1,0
Sprite,Foreground,Centre,"Name4.png",320,240 M,0,78304,78388,649,429,648,429 F,0,78304,78471,0,1 M,0,78388,78471,648,429,482,429 R,0,99638,99804,0,0.230401 R,0,99804,99971,0.230401,-0.2457593 R,0,99971,100138,-0.2457593,0.1996802 R,0,100138,100304,0.1996802,-0.3071997 R,0,100638,100804,-0.2918402,0.1843194 R,0,100804,100971,0.1843194,-0.2457605 R,0,100971,101138,-0.2457605,0.2764789 R,0,101138,101304,0.2764789,-0.3379212 S,0,78304,101638,0.8694398,0.8771196 S,0,101638,101804,0.8771196,1.030719 S,0,101804,101888,1.030719,0.8617589 S,0,101888,101971,0.8617589 S,0,101971,102138,0.8617589,1.038399 S,0,102138,102304,1.038399,0.8463988 R,0,102304,102471,-0.3379212,0.1996789 R,0,102471,102638,0.1996789,-0.2918409 R,0,102638,102804,-0.2918409,0.2918389 R,0,102804,102971,0.2918389,-0.3072016 R,0,103304,103471,-0.3072016,0.2918383 R,0,103471,103638,0.2918383,-0.5836817 R,0,103638,103804,-0.5836817,0.6758386 F,0,78471,103971,1 R,0,103804,103971,0.6758386,-0.01536136 F,0,103971,104638,1,0.3433598 F,0,104638,104721,0.3433598,0.5123199 F,0,104721,104804,0.5123199,1 F,0,104804,105054,1,0.3510402 F,0,105054,105138,0.3510402,1 F,0,105138,126471,1 F,0,126471,129138,1,0
Sprite,Foreground,Centre,"Name1.png",320,240 S,0,129138,129804,0.4623999 S,0,129804,129888,0.4623999,0.5084799 S,0,129888,129971,0.5084799,0.4623999 S,0,129971,130471,0.4623999 S,0,130471,130554,0.4623999,0.5007998 S,0,130554,130638,0.5007998,0.4623996 S,0,130638,131138,0.4623996 S,0,131138,131221,0.4623996,0.5007998 S,0,131221,131304,0.5007998,0.4700799 F,0,129138,132709,1 F,0,132709,134471,1 S,0,131304,137138,0.4700799,0.47776 S,0,137138,137221,0.47776,0.5315198 S,0,137221,137304,0.5315198,0.4700793 M,0,129138,139471,490,430 F,0,134471,139471,1 M,0,139471,139804,490,430,318,494 F,0,139471,139804,1,0 R,0,139471,139804,0,-8.263681
Sprite,Foreground,Centre,"Name2.png",320,240 F,0,129138,134471,1 S,0,129138,134471,0.45472 S,0,134471,134554,0.45472,0.5315199 S,0,134554,134638,0.5315199,0.4624 S,0,134638,135138,0.4624 S,0,135138,135221,0.4624,0.5392002 S,0,135221,135304,0.5392002,0.4470402 S,0,135304,135804,0.4470402 S,0,135804,135888,0.4470402,0.5238405 S,0,135888,135971,0.5238405,0.4470403 S,0,135971,136471,0.4470403,0.45472 S,0,136471,136554,0.45472,0.5468801 S,0,136554,136638,0.5468801,0.45472 S,0,136638,138471,0.45472 S,0,138471,138554,0.45472,0.5699202 S,0,138554,138638,0.5699202,0.4624004 M,0,129138,139471,532,386 F,0,134471,139471,1 M,0,139471,139804,532,386,602,489 F,0,139471,139804,1,0 R,0,139471,139804,0,-8.524801
Sprite,Foreground,Centre,"Name4.png",320,240 S,0,129138,131804,0.4547201 S,0,131804,131888,0.4547201,0.5008001 S,0,131888,131971,0.5008001,0.4470401 S,0,131971,132471,0.4470401 S,0,132471,132554,0.4470401,0.48544 S,0,132554,132638,0.48544,0.4470398 S,0,132638,133138,0.4470398 S,0,133138,133221,0.4470398,0.5007998 S,0,133221,133304,0.5007998,0.4470398 S,0,133304,133804,0.4470398 S,0,133804,133888,0.4470398,0.4931198 S,0,133888,133971,0.4931198,0.4470398 F,0,129138,134471,1 S,0,133971,137804,0.4470398 S,0,137804,137888,0.4470398,0.5007998 S,0,137888,137971,0.5007998,0.4470398 M,0,129138,139471,511,408 F,0,134471,139471,1 M,0,139471,139804,511,408,510,502 F,0,139471,139804,1,0 R,0,139471,139804,0,-5.05344
Sprite,Foreground,Centre,"Name3.png",320,240 S,0,138471,,0.64672 M,0,138471,139138,706,118,484,115 F,0,138471,139138,0,1 M,0,139138,139804,484,115,487,424 R,0,139138,139804,0.01536026,-25.1136 F,0,139138,176637,1 M,0,139804,176637,487,424 M,0,176637,176804,487,424 F,0,176637,176804,1 M,0,176804,177137,487,424,487,360 F,0,176804,177137,1,0
Sprite,Foreground,Centre,"Name1.png",320,240 S,0,211637,,0.7542398 M,0,211637,211804,444,407,445,407 F,0,211637,211804,0,1 M,0,211804,211913,445,407 M,0,211913,212022,445,407,417,259 R,0,211913,212022,0,-0.7372797 M,0,212022,212131,417,259 R,0,212022,212131,-0.7372797 M,0,212131,212240,417,259,344,214 R,0,212131,212240,-0.7372797,0.5836802 M,0,212240,212349,344,214,343,214 R,0,212240,212349,0.5836802 M,0,212349,212458,343,214,431,152 R,0,212349,212458,0.5836802,-0.4147195 M,0,212458,212567,431,152 R,0,212458,212567,-0.4147195 M,0,212567,212676,431,152,474,232 R,0,212567,212676,-0.4147195,0.4300803 M,0,212676,212785,474,232 R,0,212676,212785,0.4300803 M,0,212785,212894,474,232,293,187 R,0,212785,212894,0.4300803,-0.03071985 M,0,212894,213004,293,187 R,0,212894,213004,-0.03071985,-0.01536004 M,0,213004,213113,293,187,144,179 R,0,213004,213113,-0.01536004,-0.4454397 M,0,213113,213222,144,179 R,0,213113,213222,-0.4454397 M,0,213222,213331,144,179,244,275 R,0,213222,213331,-0.4454397,0.6758409 M,0,213331,213440,244,275 R,0,213331,213440,0.6758409 M,0,213440,213549,244,275,151,389 R,0,213440,213549,0.6758409,-0.4761593 M,0,213549,213658,151,389,151,390 R,0,213549,213658,-0.4761593 F,0,211804,213767,1 M,0,213658,213767,151,390,313,354 R,0,213658,213767,-0.4761593,-0.01535971 F,0,213767,213985,1 F,0,213985,214804,1,0
Sprite,Foreground,Centre,"Name2.png",320,240 F,0,214531,214804,0,1 M,0,214531,215799,320,354,504,420 R,0,214531,215799,0.03072022,6.26688 F,0,214804,230798,1 F,0,230798,231798,1,0
Sprite,Foreground,Centre,"Name5.png",320,240 S,0,232132,,0.91552 F,0,232132,232465,0,1 M,0,232132,232632,472,420,472,317 M,0,232632,232715,472,317,472,319 M,0,232715,232798,472,319,472,421 M,0,232798,232882,472,421,472,399 R,0,232798,232965,0,-6.282236 M,0,232882,232965,472,399,473,423 F,0,232465,254132,1 F,0,254132,255798,1,0
Sprite,Foreground,Centre,"Name6.png",320,240 S,0,176804,,0.76192 R,0,176804,,0 M,0,176804,177137,504,481,502,416 F,0,176804,177137,0,1 F,0,177137,198470,1 F,0,198470,201137,1,0
Sprite,Foreground,Centre,"spotlight.png",320,240 M,0,105138,,482,240 R,0,105138,,-3.1488 F,0,105138,105804,1,0 M,0,115804,,482,240 F,0,115804,116471,1,0 F,0,150471,151138,1,0 F,0,161138,161804,1,0 F,0,166471,167138,1,0 F,0,177137,177804,1,0 F,0,187804,188471,1,0 F,0,232798,233465,1,0 F,0,243465,244132,1,0
Sprite,Foreground,Centre,"spotlight.png",320,240 M,0,105138,,159,239 F,0,105138,105804,1,0 F,0,115804,116471,1,0 F,0,150471,151138,1,0 F,0,177137,177804,1,0 F,0,187804,188471,1,0 F,0,232798,233465,1,0 F,0,243465,244132,1,0
Sprite,Foreground,Centre,"spotlight.png",320,240 M,0,55805,,158,240 F,0,55805,56471,1,0 F,0,57138,57805,1,0 F,0,62471,63138,1,0 F,0,67804,68471,1,0 F,0,78471,79138,1,0 F,0,83804,84471,1,0 F,0,89138,89804,1,0 F,0,94471,95138,1,0 F,0,161138,161804,1,0 F,0,166471,167138,1,0 F,0,171804,172138,1,0 F,0,172304,172638,1,0 F,0,172804,173138,1,0 F,0,173304,173638,1,0 F,0,174471,174804,1,0 F,0,174971,175304,1,0 F,0,175471,175804,1,0 F,0,175971,176304,1,0 F,0,219799,220132,0.351408,0 F,0,220799,221132,0.2074482,0 F,0,221799,222132,0.2097496,0 F,0,222799,223132,0.2687999,0 F,0,227799,228132,0.1832937,0 F,0,228799,229132,0.195853,0 F,0,229798,230132,0.1875378,0 F,0,230798,231132,0.1881599,0 F,0,232465,232798,0.2217198,0
Sprite,Foreground,Centre,"spotlight.png",320,240 M,0,56471,,487,240 R,0,56471,,-3.1488 F,0,56471,57138,1,0
Sprite,Foreground,Centre,"spotlight.png",320,240 M,0,57138,,486,240 R,0,57138,,-3.1488 F,0,57138,57805,1,0 F,0,59804,60471,1,0 F,0,61971,62304,1,0 F,0,62471,63138,1,0 F,0,65138,65804,1,0 F,0,67804,68471,1,0 F,0,78471,79138,1,0 F,0,83804,84471,1,0 F,0,89138,89804,1,0 F,0,94471,95138,1,0 F,0,99804,100138,1,0 F,0,100304,100638,1,0 F,0,100804,101138,1,0 F,0,101304,101638,1,0 F,0,102471,102804,1,0 F,0,102971,103304,1,0 F,0,103471,103804,1,0 F,0,103971,104304,1,0 F,0,215799,216132,0.232713,0 F,0,216799,217132,0.2028284,0 F,0,217799,218132,0.1431126,0 F,0,218799,219132,0.1736873,0 F,0,223799,224132,0.225139,0 F,0,224799,225132,0.191757,0 F,0,225799,226132,0.1791344,0 F,0,226799,227132,0.1579035,0 F,0,232465,232798,0.35328,0
//Storyboard Sound Samples
//Background Colour Transformations
3,100,163,162,255

[TimingPoints]
24365.4285714286,857.142857142857,4,2,0,40,1,0
50401,-100,4,2,0,30,0,0
50722,-100,4,2,0,20,0,0
51043,-100,4,2,0,10,0,0
51364,-100,4,2,0,5,0,0
55222,333.333333333333,4,1,0,60,1,0
55805,333.333333333333,4,1,0,60,1,0
105138,-100,4,1,0,60,0,1
105221,-100,4,1,0,60,0,0
115794,-100,4,1,0,60,0,1
115877,-100,4,1,0,60,0,0
139804,-100,4,2,0,60,0,0
149804,-100,4,1,0,20,0,0
149971,-100,4,1,0,30,0,0
150138,-100,4,1,0,40,0,0
150304,-100,4,1,0,50,0,0
150471,-100,4,1,0,60,0,0
174471,333.333333333333,4,1,0,60,1,0
177128,-100,4,1,0,60,0,1
177211,-100,4,1,0,60,0,0
187794,-100,4,1,0,60,0,1
187877,-100,4,1,0,60,0,0
196970,-100,4,2,0,78,0,0
198470,-100,4,1,0,60,0,0
211804,218.181818181818,4,1,0,60,1,0
214799,333.333333333333,4,2,0,40,1,0
215632,-200,4,2,0,40,0,0
232798,-100,4,1,0,100,0,1
232882,-100,4,1,0,60,0,0

[Colours]
Combo1 : 255,150,0
Combo2 : 5,240,5
Combo3 : 5,5,240
Combo4 : 240,5,5

[HitObjects]
448,128,24365,1,0
472,160,24579,1,0
480,200,24793,1,0
472,240,25008,1,0
448,272,25222,1,2
256,200,25651,1,0
224,40,26079,6,0,L|254:25|286:41,1,70,2|0
256,200,26722,1,0
256,200,26936,2,2,C|256:128,1,70,2|0
288,344,27793,6,0,L|258:359|226:343,2,70,2|0|2
320,320,28865,1,0
288,288,29079,1,0
256,256,29293,1,0
224,288,29508,1,2
344,168,29936,1,0
160,352,30365,2,0,B|128:368|96:352,1,70,2|0
64,128,31222,5,2
40,160,31436,1,0
32,200,31651,1,0
40,240,31865,1,0
64,272,32079,1,2
256,200,32508,1,0
288,360,32936,6,0,L|258:375|226:359,1,70,2|0
256,200,33579,1,0
256,200,33793,2,2,C|256:272,1,70,2|0
224,40,34651,6,0,L|254:25|286:41,2,70,2|0|2
192,64,35722,1,0
224,96,35936,1,0
256,128,36151,1,0
288,96,36365,1,2
320,64,36579,1,0
286,42,36794,2,0,L|254:25|224:40,1,70,0|2
256,352,38079,5,2
296,344,38294,1,0
336,328,38508,1,0
368,304,38722,1,2
392,272,38936,2,0,B|392:192,1,70,0|2
472,232,39794,2,0,B|472:152,1,70,0|2
472,120,40436,1,0
432,120,40651,2,0,B|402:135|370:119,1,70,0|2
400,40,41508,6,0,B|370:25|338:41,2,70,0|2|0
432,64,42579,1,2
456,96,42794,1,0
464,136,43008,1,0
456,176,43222,2,0,B|426:191|394:175,2,70,2|0|2
256,32,44936,5,2
216,40,45151,1,0
176,56,45365,1,0
144,80,45579,1,2
120,112,45794,2,0,B|120:192,1,70,0|2
40,152,46651,2,0,B|40:232,1,70,0|2
40,264,47294,1,0
80,264,47508,2,0,B|110:249|142:265,1,70,0|2
112,344,48365,6,0,B|142:359|174:343,2,70,0|2|0
80,320,49436,1,0
56,288,49651,1,2
48,248,49865,1,0
56,208,50079,2,0,B|86:193|112:208,4,52.5,2|2|2|2|4
160,80,55472,6,0,B|128:80,7,17.5
160,80,55805,5,4
376,144,56138,1,4
112,208,56471,1,4
424,272,56805,1,4
296,328,57138,5,0
233,359,57305,1,0
163,366,57471,1,0
98,338,57638,1,0
46,290,57805,2,0,B|14:218|54:154,1,140,0|2
91,97,58305,1,0
148,58,58471,2,0,B|212:106|292:66,1,140
347,47,58971,1,0
400,92,59138,2,0,B|438:165|385:238,1,140,2|0
293,127,59805,5,4
228,98,59971,1,0
158,103,60138,1,0
104,147,60305,1,0
76,211,60471,2,0,B|47:289|97:354,2,140,0|2|0
104,147,61305,1,0
150,199,61471,2,0,B|207:261,1,70,2|0
249,297,61805,1,0
303,253,61971,2,0,B|336:215,2,35,4|0|0
249,297,62305,1,0
300,344,62471,5,4
369,349,62638,1,0
436,332,62805,1,0
481,278,62971,1,0
416,250,63138,2,0,B|343:234|325:139,1,140,0|2
397,150,63638,1,0
466,149,63805,2,0,B|453:67|378:33,1,140
351,97,64305,1,0
283,78,64471,2,0,B|263:147|308:215,1,140,2|0
168,181,65138,5,4
99,166,65305,1,0
49,116,65471,1,0
33,47,65638,1,0
99,24,65805,2,0,B|186:38|200:142,1,140,0|2
215,181,66305,2,0,B|230:232|270:248,1,70
308,281,66638,1,0
366,242,66805,2,0,B|403:216|408:173,1,70,2|0
431,120,67138,2,0,B|404:191|485:267,1,140,0|0
359,338,67805,5,4
290,349,67971,1,0
276,351,68055,1,0
262,352,68138,1,8
192,357,68305,2,0,B|105:349|36:296,1,140
12,261,68805,1,0
63,214,68971,1,0
131,201,69138,1,0
200,208,69305,1,0
213,211,69388,1,0
226,214,69471,1,8
292,234,69638,2,0,B|372:244|451:188,1,140
486,168,70138,1,0
486,168,70305,1,0
471,99,70471,6,0,B|448:68|392:52,1,70
414,59,70721,1,0
414,59,70804,1,8
345,75,70971,2,0,B|274:113|182:59,1,140
147,42,71471,1,0
77,53,71638,1,0
31,106,71804,1,0
16,174,71971,1,0
16,188,72054,1,0
16,201,72138,1,8
25,270,72304,1,0
75,318,72471,2,0,B|140:350|242:318,1,140
347,290,73138,5,4
412,267,73304,2,0,B|455:252,2,35,0|0|8
347,290,73638,2,0,B|259:324|192:278,1,140
147,257,74138,1,0
184,197,74304,1,0
220,137,74471,1,0
160,100,74638,2,0,B|116:78,2,35,0|0|8
220,137,74971,2,0,B|308:174|380:133,1,140
426,135,75471,2,0,B|474:140|501:175,1,70
498,231,75804,5,0
466,293,75971,1,0
399,313,76138,1,8
330,298,76304,2,0,B|261:265|268:167,1,140
192,192,76804,2,0,B|147:206|141:249,1,70,0|0
168,312,77138,1,0
96,312,77304,1,0
43,266,77471,1,8
23,198,77638,2,0,B|-2:125|37:50,1,140
77,8,78138,2,0,B|110:50|144:52,1,70,0|4
176,152,78471,6,0,B|160:80|216:16,1,140,4|8
336,152,79138,2,0,B|352:80|296:16,1,140,0|8
256,80,79638,2,2,B|256:232,1,140,2|0
320,256,80138,1,8
256,288,80304,2,0,B|176:288,2,70
320,328,80804,1,8
384,288,80971,2,0,B|416:264|408:224,1,70,0|4
408,152,81304,5,0
472,184,81471,1,8
472,32,81804,2,0,B|472:112,2,70,0|0|8
408,64,82304,2,2,B|256:64,1,140,2|0
200,64,82804,2,0,B|176:136,1,70,8|0
160,200,83138,1,0
96,168,83304,2,0,B|16:168,1,70,4|8
24,240,83638,6,0,B|104:240,1,70,0|4
152,272,83971,1,0
216,304,84138,1,8
224,232,84304,1,0
280,272,84471,2,0,B|296:312|280:344,1,70
352,328,84804,1,8
400,280,84971,2,2,B|352:208|408:152,1,140,2|0
456,104,85471,2,0,B|432:72|392:72,1,70,8|0
328,56,85804,2,0,B|328:96|288:120,1,70
224,96,86138,5,8
168,136,86304,1,0
192,200,86471,1,4
52,200,86804,2,0,B|204:200,1,140,8|0
256,328,87471,1,8
224,264,87638,2,2,B|304:240|376:272,1,140,2|0
416,304,88138,2,0,B|448:288|456:248,1,70,8|0
448,176,88471,1,4
376,184,88638,2,0,B|376:112,1,70,4|4
376,114,88888,1,0
376,114,88971,1,0
320,72,89138,6,0,B|296:40|256:40,1,70,4|0
192,48,89471,1,8
160,112,89638,1,0
224,144,89804,2,0,B|240:192|216:216,1,70
200,280,90138,1,8
136,256,90304,1,0
72,232,90471,2,0,B|48:264|56:304,1,70
72,368,90804,1,8
136,336,90971,2,0,B|208:360|280:336,1,140,0|0
273,338,91471,1,2
376,240,91804,6,0,B|424:240|424:184,2,70,4|0|8
336,184,92304,1,0
272,208,92471,2,0,B|304:280,2,70,0|0|8
208,232,92971,2,2,B|144:184|176:104,1,140,2|0
184,40,93471,6,0,B|144:56|112:32,1,70,8|0
48,24,93804,2,0,B|24:96,1,70
96,104,94138,2,0,B|72:176,1,70,8|0
56,240,94471,6,0,B|64:328|160:328,1,140,4|8
272,272,95138,2,0,B|344:272,2,70,0|0|8
184,164,95804,2,0,B|256:140|256:52,1,140,0|8
256,55,96304,2,0,B|256:140|328:164,1,140,0|0
256,200,96804,1,2
256,200,97138,5,4
216,256,97304,1,0
272,296,97471,2,0,B|312:280|344:296,1,70,8|0
376,232,97804,1,0
440,256,97971,1,0
440,256,98138,2,0,B|464:192|440:112,1,140,8|4
416,48,98638,6,0,B|344:48,1,70,0|2
296,104,98971,2,2,B|224:104,1,70,0|0
160,80,99304,2,0,B|160:160,2,70,0|2|0
96,40,99804,5,4
24,32,99971,1,0
16,104,100138,1,0
88,112,100304,1,4
256,192,100804,5,4
216,256,100971,1,0
296,280,101138,1,0
256,344,101304,1,4
416,264,101638,5,0
414,192,101804,2,0,B|454:192,2,35
344,160,102138,2,0,B|344:120,2,35
344,232,102471,5,6
296,288,102638,1,0
216,288,102804,1,0
168,232,102971,1,6
344,160,103471,5,6
296,104,103638,1,0
216,104,103804,1,0
168,160,103971,1,6
256,192,104804,5,0
168,56,105138,2,0,B|96:56,1,70,4|0
24,56,105471,2,0,B|40:144,1,70,8|0
56,264,105971,1,0
48,192,106138,2,0,B|200:192,1,140,8|4
224,128,106638,1,0
288,152,106804,1,8
256,216,106971,2,0,B|264:296|352:312,1,140
336,240,107471,2,0,B|184:272,1,140,8|4
128,248,107971,5,0
72,288,108138,1,8
104,352,108304,2,0,B|184:376|240:296|320:352,1,210,0|8
256,192,109138,12,8,110138
72,88,110471,6,0,B|144:120|224:80,1,140,4|8
184,32,110971,2,0,B|160:176,1,140
144,240,111471,2,2,B|296:240,1,140,8|4
312,176,111971,5,0
376,192,112138,1,8
352,256,112304,1,0
464,336,112638,1,0
400,360,112804,2,2,B|384:312|416:264|456:248|496:272,1,140,8|4
448,192,113304,5,0
416,128,113471,2,0,B|384:96|416:40,1,70,8|0
344,24,113804,1,0
312,88,113971,1,0
256,48,114138,2,0,B|208:40|184:64,1,70,8|0
120,40,114471,6,0,B|40:40,1,70,2|0
128,112,114804,2,0,B|56:160,1,70,2|0
192,152,115138,2,0,B|184:224,1,70,2|0
256,120,115471,2,2,B|360:224,1,140,2|4
416,184,115971,5,0
472,232,116138,1,8
448,296,116304,1,0
312,336,116638,1,0
296,264,116804,2,2,B|152:264,1,140,8|4
104,312,117304,2,0,B|64:296|80:248,1,70,0|8
96,184,117638,2,0,B|136:128|112:48,1,140
48,80,118138,6,2,B|200:80,1,140,2|4
256,80,118638,1,0
248,152,118804,2,0,B|280:176|344:152,1,70,8|0
384,144,119138,1,0
392,216,119304,2,2,B|416:256|392:288,2,70,2|8|0
256,192,119804,12,4,120471
256,192,120638,6,0,B|256:264,2,70,0|8|0
184,192,121138,1,4
216,128,121304,1,0
296,128,121471,1,8
328,192,121638,1,0
328,48,121971,1,0
328,48,122138,2,2,B|184:48,1,140,8|4
120,32,122638,5,0
72,80,122804,1,8
112,136,122971,2,0,B|120:216|64:264,1,140
88,328,123471,2,0,B|160:312,1,70,2|0
224,296,123804,5,4
296,296,123971,1,0
288,224,124138,2,0,B|320:200|368:208,1,70,8|0
424,224,124471,1,0
464,168,124638,1,0
432,104,124804,2,0,B|360:104,1,70,8|0
320,48,125138,5,4
120,88,125471,2,2,B|264:88,2,140,2|0|0
256,192,126471,12,4,129138
56,128,139804,5,0
104,56,139971,1,2
184,80,140138,1,0
256,32,140304,1,2
144,152,140638,1,0
224,176,140804,1,2
272,104,140971,1,2
336,160,141138,1,2
368,80,141304,1,0
440,120,141471,1,2
464,40,141638,1,0
408,192,141971,6,0,B|504:192,2,70,0|2|0
400,272,142471,2,0,B|344:288|312:264,1,70,0|2
304,192,142804,2,0,B|264:176|224:200,1,70,0|2
256,272,143138,1,0
184,320,143304,1,2
112,272,143471,1,0
184,224,143638,1,2
112,176,143804,2,0,B|72:152,2,35,0|0|2
184,128,144138,1,2
112,80,144304,1,2
280,48,144638,1,0
320,48,144721,1,0
360,48,144804,1,2
400,48,144888,1,0
440,48,144971,1,0
448,128,145138,6,0,B|384:160,1,70,0|2
448,256,145471,2,0,B|384:224,1,70,0|2
216,192,145971,1,0
144,152,146138,1,2
72,192,146304,1,0
64,272,146471,2,0,B|96:304|136:264,1,70,0|2
184,336,146804,2,0,B|216:304|256:344,1,70,0|2
328,192,147304,2,0,B|360:152,2,35,0|0|2
256,136,147638,1,0
192,192,147804,6,0,B|176:232|184:272,2,70,0|2|0
112,152,148304,2,2,B|136:88|224:72,1,140
256,136,148804,1,0
296,72,148971,1,2
336,136,149138,6,0,B|424:136,1,70,0|2
456,200,149471,2,0,B|416:216|368:192,1,70,0|2
312,232,149804,1,0
344,312,149971,1,0
312,232,150138,1,0
344,312,150304,1,0
256,304,150471,6,0,B|176:288|104:336,1,140,4|8
40,304,150971,1,0
104,248,151138,2,0,B|112:160|40:120,1,140,0|8
96,56,151638,2,0,B|248:56,1,140
272,128,152138,2,0,B|192:128,1,70,10|0
48,216,152471,2,0,B|128:216,1,70,2|0
272,288,152804,2,0,B|192:288,1,70,10|0
120,288,153138,6,0,B|80:352|80:352|40:280,1,140,0|8
48,216,153638,1,0
120,184,153804,2,0,B|192:144|264:192,1,140,0|8
192,240,154304,2,0,B|256:288|344:232,1,140
408,240,154804,2,0,B|448:304,2,70,8|2|0
408,144,155304,2,0,B|448:80,2,70,0|10|0
336,192,155804,6,0,B|184:192,1,140,4|8
128,136,156304,1,0
64,192,156471,2,0,B|136:240|208:184,1,140,0|8
200,280,156971,2,0,B|264:232|344:288,1,140
392,336,157471,1,10
440,272,157638,1,0
392,200,157804,1,2
440,128,157971,1,0
392,56,158138,1,10
328,128,158304,1,0
272,64,158471,6,0,B|208:112|128:56,1,140,0|8
56,88,158971,1,0
120,144,159138,2,0,B|144:216|96:280,1,140,0|8
48,344,159638,2,0,B|200:344,1,140
208,264,160138,1,8
304,264,160304,1,2
176,192,160471,1,0
336,192,160638,1,0
152,120,160804,1,10
360,120,160971,1,0
440,144,161138,6,0,B|472:216,1,70,4|0
392,248,161471,2,0,B|424:312,1,70,8|0
336,304,161805,2,0,B|264:336|184:304,1,140,0|8
144,248,162305,2,0,B|112:312,2,70,0|0|0
208,200,162805,1,10
304,200,162971,1,0
208,200,163138,1,2
304,200,163305,1,0
208,200,163471,1,10
304,200,163638,1,0
376,152,163805,6,0,B|416:216|376:296,1,140,0|8
304,320,164305,2,0,B|224:320,2,70
256,248,164805,2,0,B|176:248,1,70,8|0
136,184,165138,2,0,B|152:112,1,70,0|2
256,144,165471,2,0,B|256:72,1,70,8|2
376,184,165805,2,0,B|360:112,2,70,0|2|8
304,224,166305,1,10
256,240,166388,1,8
216,224,166471,6,0,B|192:296|256:360,1,140,4|8
320,312,166971,1,0
384,264,167138,2,0,B|488:264,2,70,0|0|8
320,208,167638,1,0
264,144,167805,2,0,B|160:144,1,70
112,112,168138,2,0,B|96:144|96:144|120:192,1,70,8|0
80,248,168471,2,0,B|176:248,1,70
224,208,168804,2,0,B|240:240|240:240|216:288,1,70,8|0
192,344,169138,6,0,B|344:344,1,140,0|8
376,272,169638,1,0
440,320,169805,2,0,B|480:240|440:176,1,140,0|8
392,120,170305,2,0,B|328:72|240:96,1,140
176,64,170805,2,0,B|104:64,1,70,10|0
152,144,171138,2,0,B|224:144,1,70,2|0
176,224,171471,2,0,B|104:224,1,70,10|0
128,304,171805,5,4
208,304,171971,1,0
288,304,172138,1,0
368,304,172305,1,2
384,80,172805,1,0
304,80,172971,1,0
224,80,173138,1,0
144,80,173305,1,2
360,192,173638,6,0,B|264:192,1,70,0|2
152,192,173971,6,0,B|232:192,1,70,0|2
456,192,174304,5,0
408,264,174471,5,0
352,328,174637,1,0
296,264,174804,1,0
248,328,174971,1,2
104,120,175471,1,0
160,56,175637,1,0
216,120,175804,1,0
264,56,175971,1,2
344,192,176304,5,0
344,192,176387,1,0
344,192,176471,1,2
256,192,176637,1,0
256,192,176721,1,0
256,192,176804,1,2
168,192,176971,1,0
256,192,177137,6,0,B|304:248|288:336,2,140,0|8|0
256,192,177971,1,0
256,192,178137,2,0,B|208:136|224:48,2,140,8|0|8
328,152,178971,1,0
400,192,179137,1,0
400,192,179304,1,0
408,272,179471,5,8
256,344,179804,1,0
104,272,180137,1,8
48,208,180304,2,0,B|24:128|88:64,1,140
152,112,180804,1,8
152,112,180971,1,0
224,64,181137,2,0,B|304:48|368:96,1,140,0|8
432,56,181637,1,0
424,136,181804,2,0,B|448:216|384:272,1,140,0|8
48,48,182471,6,0,B|128:80|136:168,1,140,0|8
192,208,182971,2,0,B|216:136|312:104,1,140
344,168,183471,1,8
368,88,183637,1,0
424,144,183804,2,0,B|456:216|400:288,1,140,0|8
352,336,184304,2,0,B|288:288|208:352,1,140
136,344,184804,1,8
56,320,184971,1,0
24,240,185137,5,0
200,64,185471,1,8
312,288,185804,1,0
488,112,186137,1,8
152,136,186471,6,0,B|80:136,1,70,0|0
192,240,186804,2,0,B|104:240,1,70,8|0
320,240,187137,2,0,B|408:240,1,70,0|0
360,136,187471,2,0,B|432:136,1,70,8|0
430,136,187804,5,4
256,48,188137,1,8
82,136,188471,1,0
160,192,188637,1,0
82,248,188804,1,8
256,336,189137,1,0
430,248,189470,1,8
352,192,189637,1,0
432,136,189804,1,0
144,56,190137,5,8
368,56,190470,1,0
256,192,190804,1,8
256,192,190970,2,0,B|256:336,1,140
256,332,191470,1,8
256,332,191637,1,0
184,280,191804,2,0,B|160:216|208:136,1,140,0|8
256,80,192304,1,0
309,145,192470,2,0,B|352:216|328:280,1,140,0|8
464,48,193137,6,0,B|376:40|328:112,1,140,0|8
408,144,193637,2,0,B|344:192|272:168,1,140
256,88,194137,1,8
192,144,194304,1,0
112,168,194470,2,0,B|32:208|56:296,1,140,0|8
128,256,194970,2,0,B|184:312|272:264,1,140
336,304,195471,1,8
416,280,195638,1,0
424,192,195804,5,0
256,40,196138,1,8
88,192,196470,1,0
256,344,196804,1,8
256,40,197137,5,4
256,344,197470,1,4
256,40,197804,1,4
256,344,198137,1,4
256,192,198470,12,0,201137
264,336,211804,5,4
416,216,212022,1,0
232,168,212240,1,0
368,32,212458,1,4
416,216,212676,1,0
232,168,212894,1,0
72,64,213113,1,4
232,168,213331,1,0
80,272,213549,1,0
264,336,213767,1,4
256,192,214799,5,0
256,192,215132,1,0
256,192,215465,1,2
176,96,215799,6,0,B|96:96,2,70,0|0|2
336,288,216799,2,0,B|416:288,2,70,0|0|2
160,272,217799,6,0,B|160:352,2,70,0|0|2
352,112,218799,2,0,B|352:32,2,70,0|0|2
192,32,219799,5,0
128,64,220132,1,0
96,128,220465,1,2
320,352,220799,1,0
384,320,221132,1,0
416,256,221465,1,2
96,256,221799,5,0
128,320,222132,1,0
192,352,222465,1,2
416,128,222799,1,0
404,96,222965,1,0
384,64,223132,1,0
354,45,223299,1,0
320,32,223465,1,2
192,32,223799,6,0,B|192:80|128:96,1,70,0|2
120,104,224299,1,0
88,112,224465,1,0
56,120,224632,1,0
24,136,224799,2,0,B|8:224|72:264,1,140,0|2
96,280,225632,1,0
128,296,225799,6,0,B|160:312|208:304,1,70,0|2
232,304,226299,1,0
264,296,226465,1,0
296,280,226632,1,0
320,256,226799,2,0,B|360:192|328:128,1,105,0|2
328,120,227465,1,0
352,56,227799,6,0,B|400:40|440:56,1,70,0|2
448,72,228299,1,0
456,104,228465,2,0,B|456:152|480:184,1,70,0|2
488,240,229132,1,0
472,304,229465,1,0
448,328,229632,1,0
416,344,229799,2,0,B|352:368|288:360,1,105,0|2
280,352,230465,1,0
248,336,230632,1,0
216,312,230799,1,0
256,192,232465,5,2
206,123,232799,6,0,B|119:123,2,70,0|0|8
255,54,233299,1,0
304,122,233465,2,0,B|384:128|458:188,2,140,0|8|0
255,53,234299,1,0
205,121,234465,1,8
155,52,234632,2,0,B|86:61|20:109,1,140
98,147,235132,1,8
34,201,235299,1,0
99,253,235465,6,0,B|111:321|198:360,1,140,0|8
102,353,235965,2,0,B|162:321|194:245,1,140,0|0
245,184,236465,1,8
212,106,236632,1,0
257,35,236799,2,0,B|357:35,1,70
257,35,237132,2,0,B|168:35,1,70,8|0
102,36,237465,1,0
102,36,237549,1,0
102,36,237632,1,0
102,36,237799,1,8
57,107,237965,1,0
101,178,238132,6,0,B|6:178,2,70,0|0|8
185,178,238632,2,0,B|421:178,1,210,0|8
454,238,239299,1,0
399,301,239465,6,0,B|497:301,2,70,0|0|8
342,238,239965,2,0,B|121:238,1,210,0|8
36,100,240799,6,0,B|51:42|101:43,1,70
133,109,241132,2,0,B|172:168|128:257,1,140,8|0
53,219,241632,1,0
22,297,241799,1,8
100,327,241965,1,0
178,357,242132,6,0,B|352:357,1,140,0|8
318,272,242632,2,8,B|150:272,1,140,0|8
249,227,243132,2,0,B|250:174,4,35,8|0|8|0|12
172,192,243632,5,0
215,120,243799,1,8
175,45,243965,1,0
254,17,244132,1,0
332,48,244299,1,0
291,121,244465,1,8
338,190,244632,1,0
414,155,244799,2,0,B|468:171|476:224,1,70
408,257,245132,1,8
339,305,245299,2,0,B|168:305,1,140
131,254,245799,5,8
178,184,245965,1,0
228,116,246132,2,4,B|165:42,2,70,12|0|0
281,181,246632,2,4,B|333:120,2,70,12|4|4
229,247,247132,2,4,B|161:280|68:237,1,140
141,177,247632,1,0
97,105,247799,1,8
145,36,247965,2,0,B|204:32|221:78,1,70,0|8
257,126,248299,5,0
257,143,248382,1,0
257,160,248465,1,0
257,177,248549,1,0
257,194,248632,1,0
257,211,248715,1,0
257,228,248799,5,12
441,127,249132,1,4
256,27,249465,1,8
70,125,249799,1,4
181,308,250132,2,0,B|182:214,1,70,4|0
182,132,250465,1,8
287,131,250632,2,0,B|337:177|436:173,1,140,4|0
375,76,251132,2,0,B|390:25|425:20,1,70,8|0
486,163,251465,6,0,B|486:317,1,140,0|8
26,221,252132,2,0,B|26:63,1,140,0|8
392,200,252799,6,4,B|392:296,1,70
288,360,253132,2,4,B|192:360,1,70,8|0
136,248,253465,2,4,B|136:152,1,70,4|4
240,72,253798,2,4,B|336:72,1,70,8|0
256,192,254132,12,4,256799
