osu file format v10

[General]
AudioFilename: Wahrheit.mp3
AudioLeadIn: 0
PreviewTime: 104721
Countdown: 0
SampleSet: None
StackLeniency: 0.7
Mode: 0
LetterboxInBreaks: 1

[Editor]
Bookmarks: 55798,111799,129133,139799,177133,281964
DistanceSpacing: 0.8
BeatDivisor: 2
GridSize: 8

[Metadata]
Title:Wahrheit
TitleUnicode:
Artist:Yousei Teikoku
ArtistUnicode:
Creator:Lybydose
Version:Easy
Source:
Tags:Fairy Empire Karen Yui Itsuki goth gothic metanoia lilac mariobros777
BeatmapID:187422
BeatmapSetID:24590

[Difficulty]
HPDrainRate:1
CircleSize:3
OverallDifficulty:1
ApproachRate:3
SliderMultiplier:1.04
SliderTickRate:2

[Events]
//Background and Video events
0,0,"THISISMYBACKGROUND.jpg"
Video,-200,"totally not the video.AVI"
//Break Periods
2,129333,138359
2,201333,210359
//Storyboard Layer 0 (Background)
//Storyboard Layer 1 (Fail)
//Storyboard Layer 2 (Pass)
//Storyboard Layer 3 (Foreground)
//Storyboard Sound Samples
//Background Colour Transformations
3,100,163,162,255

[TimingPoints]
24360.4285714286,857.142857142857,4,2,1,40,1,0
55465,333.333333333333,4,1,1,70,1,0
55800,333.333333333333,4,1,1,70,1,0
105133,-100,4,1,1,70,0,1
115716,-100,4,1,1,70,0,0
115789,-100,4,1,1,70,0,1
129133,-100,4,1,1,70,0,0
139799,-133.333333333333,4,2,1,70,0,0
149799,-100,4,1,1,71,0,0
177133,-100,4,1,1,71,0,1
187716,-100,4,1,1,71,0,0
187799,-100,4,1,1,71,0,1
201133,-100,4,1,1,71,0,0
214465,-100,4,2,1,60,0,0
215799,333.333333333333,3,2,1,61,1,0
232798,333.333333333333,4,1,1,70,1,1
243409,-100,4,1,1,70,0,0
243464,-100,4,1,1,70,0,1
256797,-100,4,1,1,71,0,0
269631,-100,4,2,1,0,0,0

[Colours]
Combo1 : 131,131,131
Combo2 : 33,33,254
Combo3 : 126,240,23
Combo4 : 223,0,5
Combo5 : 207,207,207

[HitObjects]
256,192,55465,12,0,57133,0:0:0
371,101,58133,5,0,0:0:0
451,117,58466,2,0,B|497:324|296:322,1,312
215,322,59799,6,0,B|14:323|62:107,1,312
144,96,61133,1,0,0:0:0
216,56,61466,1,0,0:0:0
288,96,61799,1,0,0:0:0
216,248,62466,6,0,B|304:328|456:272|464:144,1,312
408,96,63799,2,0,B|282:-29|122:49,1,312
112,136,65133,2,0,B|237:261|397:182,1,312
432,104,66466,37,0,0:0:0
360,64,66799,1,0,0:0:0
280,64,67133,1,0,0:0:0
120,96,67799,5,0,0:0:0
32,192,68299,1,0,0:0:0
120,288,68799,1,0,0:0:0
392,96,70466,5,0,0:0:0
480,192,70966,1,0,0:0:0
392,288,71466,1,0,0:0:0
144,272,72466,1,0,0:0:0
80,216,72799,1,0,0:0:0
80,136,73133,38,0,B|72:24|192:16,2,156
432,248,75799,6,0,B|440:360|320:368,2,156
304,232,77299,1,0,0:0:0
344,112,77799,1,0,0:0:0
264,112,78133,1,0,0:0:0
190,72,78466,6,0,B|96:128|124:253,2,208
256,128,80133,1,0,0:0:0
255,210,80466,1,0,0:0:0
307,276,80799,1,0,0:0:0
387,253,81133,38,0,B|416:128|321:72,2,208
352,328,82799,1,0,0:0:0
272,328,83133,1,0,0:0:0
192,328,83466,1,0,0:0:0
112,328,83799,6,0,B|16:232|112:112,2,208
176,272,85466,1,0,0:0:0
240,216,85799,1,0,0:0:0
304,160,86133,1,0,0:0:0
366,99,86466,6,0,B|462:195|366:315,2,208
296,48,88133,1,0,0:0:0
216,48,88466,1,0,0:0:0
256,120,88799,1,0,0:0:0
176,144,89133,38,0,B|200:200|256:224|312:200|336:144,2,208
72,72,90966,1,0,0:0:0
24,184,91466,1,0,0:0:0
40,264,91799,6,0,B|104:352|248:320,2,208
112,216,93466,1,0,0:0:0
192,216,93799,1,0,0:0:0
272,192,94133,1,0,0:0:0
336,136,94466,6,0,B|256:40|112:72,2,208
392,248,96299,1,0,0:0:0
304,336,96799,1,0,0:0:0
312,256,97133,38,0,B|152:96,2,208
392,224,98799,1,0,0:0:0
432,152,99133,1,0,0:0:0
392,80,99466,1,0,0:0:0
309,46,99799,6,0,B|240:0|161:32,1,156
240,128,100799,2,0,B|309:174|388:142,1,156
152,312,102466,6,0,B|82:358|3:326,1,156
83,230,103466,2,0,B|152:183|231:215,1,156
408,320,104799,37,0,0:0:0
416,240,105133,2,0,B|336:88|232:296|144:104,1,312
250,104,106466,2,0,B|348:75|434:116,2,156
166,104,107799,6,0,B|68:75|-18:116,2,156
208,176,109133,1,0,0:0:0
208,344,109799,1,0,0:0:0
352,264,110466,5,0,0:0:0
224,264,110966,1,0,0:0:0
96,264,111466,1,0,0:0:0
160,208,111799,2,0,B|168:96|280:96,2,156
79,197,113133,38,0,B|84:111|136:48|187:33,1,208
324,33,114466,2,0,B|376:48|428:111|432:197,1,208
336,200,115466,1,0,0:0:0
336,200,115799,6,0,B|312:254|256:278|200:254|176:198,1,208
256,176,116799,1,0,0:0:0
185,118,117133,2,0,B|253:68|334:120,2,156
104,144,118466,5,0,0:0:0
72,264,118966,1,0,0:0:0
160,352,119466,1,0,0:0:0
240,352,119799,2,0,B|360:344|384:192,1,208
216,200,121133,37,0,0:0:0
304,112,121633,1,0,0:0:0
216,24,122133,1,0,0:0:0
216,24,122466,1,0,0:0:0
128,112,122966,1,0,0:0:0
40,200,123466,1,0,0:0:0
96,280,123799,6,0,B|256:368|408:248,1,312
440,192,125133,1,0,0:0:0
384,128,125466,1,0,0:0:0
304,104,125799,1,0,0:0:0
224,104,126133,1,0,0:0:0
256,192,126466,12,0,129133,0:0:0
80,112,139799,21,0,0:0:0
192,64,140299,1,0,0:0:0
184,192,140799,1,0,0:0:0
104,216,141133,2,0,B|72:296|136:368,1,156
336,352,142466,5,0,0:0:0
224,304,142966,1,0,0:0:0
328,240,143466,1,0,0:0:0
408,216,143800,2,0,B|440:136|376:64,1,156
192,144,145133,53,0,0:0:0
288,224,145633,1,0,0:0:0
320,104,146133,1,0,0:0:0
248,64,146466,2,0,B|168:32|96:96,1,156
96,296,147799,5,0,0:0:0
208,248,148299,1,0,0:0:0
320,304,148799,1,0,0:0:0
288,224,149133,2,0,B|352:144|304:64,1,156
112,152,150466,6,0,B|113:299|260:297,1,208
344,168,151799,2,0,B|208:168,1,104
208,88,152466,2,0,B|344:88,1,104
395,88,153133,6,0,B|499:144|435:288,1,208
280,256,154466,1,0,0:0:0
232,328,154799,1,0,0:0:0
152,352,155133,1,0,0:0:0
72,328,155466,1,0,0:0:0
24,256,155799,6,0,B|-8:120|120:64,1,208
259,53,157133,2,0,B|312:24|358:54,1,104
310,122,157799,2,0,B|263:152|211:123,1,104
168,56,158466,38,0,B|48:112|112:272,2,208
251,56,160133,1,0,0:0:0
328,88,160466,1,0,0:0:0
384,152,160799,1,0,0:0:0
416,232,161133,5,0,0:0:0
312,360,161799,1,0,0:0:0
152,328,162466,2,0,B|56:312|40:216,2,156
224,288,163799,5,0,0:0:0
248,120,164465,1,0,0:0:0
344,256,165133,1,0,0:0:0
272,208,165466,1,0,0:0:0
192,208,165799,1,0,0:0:0
120,168,166133,1,0,0:0:0
88,88,166466,38,0,B|320:88,2,208
56,208,168299,1,0,0:0:0
128,312,168799,1,0,0:0:0
208,336,169133,6,0,B|304:392|416:336,1,208
304,208,170466,1,0,0:0:0
304,124,170799,1,0,0:0:0
224,144,171133,1,0,0:0:0
224,60,171466,1,0,0:0:0
152,96,171799,6,0,B|48:104|48:240,1,156
176,216,172799,2,0,B|304:328,1,156
360,96,174466,38,0,B|464:104|464:240,1,156
336,216,175466,2,0,B|208:328,1,156
104,64,176799,5,0,0:0:0
96,144,177133,2,0,B|176:296|280:88|368:280,1,312
262,280,178466,2,0,B|164:309|78:268,2,156
346,280,179799,6,0,B|444:309|530:268,2,156
304,208,181133,1,0,0:0:0
304,40,181799,1,0,0:0:0
160,120,182466,37,0,0:0:0
288,120,182966,1,0,0:0:0
416,120,183466,1,0,0:0:0
352,176,183799,2,0,B|344:288|232:288,2,156
433,187,185133,6,0,B|428:273|376:336|325:351,1,208
188,351,186466,2,0,B|136:336|84:273|80:187,1,208
176,184,187466,1,0,0:0:0
176,184,187799,6,0,B|200:130|256:106|312:130|336:186,1,208
256,208,188799,1,0,0:0:0
327,266,189133,2,0,B|259:316|178:264,2,156
408,240,190466,37,0,0:0:0
440,120,190966,1,0,0:0:0
352,32,191466,1,0,0:0:0
272,32,191799,2,0,B|152:40|128:192,1,208
296,184,193133,5,0,0:0:0
208,272,193633,1,0,0:0:0
296,360,194133,1,0,0:0:0
296,360,194466,1,0,0:0:0
384,272,194966,1,0,0:0:0
464,176,195466,1,0,0:0:0
416,104,195799,6,0,B|256:16|104:136,1,312
72,192,197133,1,0,0:0:0
128,256,197466,1,0,0:0:0
208,280,197799,1,0,0:0:0
288,280,198133,1,0,0:0:0
256,192,198466,12,0,201133,0:0:0
256,72,211799,69,0,0:0:0
368,192,212466,1,0,0:0:0
256,312,213133,1,0,0:0:0
144,192,213799,1,0,0:0:0
192,48,214688,6,0,B|304:-24|440:56,1,242.666666666667
432,128,215799,6,0,B|488:248|352:328,1,208
296,309,216799,1,0,0:0:0
129,309,217465,1,0,0:0:0
46,309,217799,2,0,B|-10:189|126:109,1,208
181,127,218799,1,0,0:0:0
256,368,219799,54,0,B|256:144,1,208
256,76,220799,1,0,0:0:0
96,104,221465,1,0,0:0:0
96,104,221799,2,0,B|24:248|112:360|264:352,1,312
280,336,223132,53,0,0:0:0
360,312,223465,1,0,0:0:0
408,241,223799,22,0,B|416:104|303:89,1,208
224,64,224799,1,0,0:0:0
224,232,225465,1,0,0:0:0
144,248,225799,2,0,B|32:233|39:95,1,208
112,56,226799,1,0,0:0:0
208,192,227465,1,0,0:0:0
256,264,227799,54,0,B|279:319|335:343|391:319|415:265,1,208
456,192,228799,2,0,B|492:143|485:82|436:46|377:52,1,208
294,52,229799,2,0,B|235:45|186:82|179:142|215:191,1,208
264,256,230798,1,0,0:0:0
192,48,232465,21,0,0:0:0
134,119,232798,2,0,B|170:201|256:238|341:201|378:115,1,312
336,48,234131,2,0,B|419:14|477:88|461:152,2,156
256,48,235464,6,0,B|256:208,2,156
176,72,236799,1,0,0:0:0
64,192,237465,1,0,0:0:0
24,352,238132,5,0,0:0:0
128,280,238632,1,0,0:0:0
240,328,239132,1,0,0:0:0
208,248,239465,2,0,B|200:136|88:136,2,156
288,256,240798,38,0,B|456:104,1,208
280,96,242131,2,0,B|120:240,1,208
48,200,243132,5,0,0:0:0
48,200,243465,2,0,B|26:255|49:311|105:334|162:311,1,208
248,312,244465,1,0,0:0:0
312,256,244799,2,0,B|380:206|461:258,2,156
240,208,246132,5,0,0:0:0
136,136,246632,1,0,0:0:0
232,56,247132,1,0,0:0:0
312,56,247465,2,0,B|432:64|456:216,1,208
304,264,248797,38,0,B|232:304|136:272,2,156
304,180,250131,2,0,B|232:140|136:172,2,156
376,224,251464,2,0,B|464:144|408:24,1,208
328,48,252464,1,0,0:0:0
248,64,252799,1,0,0:0:0
176,104,253132,1,0,0:0:0
136,176,253465,1,0,0:0:0
160,256,253799,1,0,0:0:0
256,192,254132,12,0,256799,0:0:0
80,192,257464,5,0,0:0:0
192,320,258131,1,0,0:0:0
272,336,258464,1,0,0:0:0
352,312,258797,1,0,0:0:0
384,152,259464,6,0,B|336:32|184:72,2,208
344,224,261131,1,0,0:0:0
264,240,261464,1,0,0:0:0
120,328,262131,37,0,0:0:0
32,184,262797,1,0,0:0:0
120,40,263464,1,0,0:0:0
120,40,263797,1,0,0:0:0
120,40,264131,1,0,0:0:0
184,192,264797,6,0,B|424:192,2,208
112,152,266464,1,0,0:0:0
112,232,266797,1,0,0:0:0
264,304,267464,6,0,B|364:319|397:249,1,156
396,124,268464,2,0,B|363:54|262:69,1,156
256,192,269464,1,0,0:0:0
256,192,269631,12,0,282131,0:0:0
