osu file format v12

[General]
AudioFilename: Valkyrja.mp3
AudioLeadIn: 1985
PreviewTime: 166898
Countdown: 0
SampleSet: Normal
StackLeniency: 0.8
Mode: 0
LetterboxInBreaks: 1
EpilepsyWarning: 1
WidescreenStoryboard: 0

[Editor]
Bookmarks: 58898,70898,97519,102731,109013,145898,164179,188398,210341,253898,341495,384185
DistanceSpacing: 1.5
BeatDivisor: 4
GridSize: 4

[Metadata]
Title:Valkyrja
TitleUnicode:Valkyrja
Artist:Yousei Teikoku
ArtistUnicode:妖精帝國
Creator:Pizza Kun
Version:Havoc of Valkyrja
Source:
Tags:Fairy Empire 妖精帝國 Yui Itsuki Takaha Tachibana Nanami Relu Gothic Lolita Propaganda Fairy Yui 橘 尭葉 名波 Gight Relu Shiren
BeatmapID:197948
BeatmapSetID:68385

[Difficulty]
HPDrainRate:7
CircleSize:4
OverallDifficulty:7
ApproachRate:9
SliderMultiplier:1.8
SliderTickRate:2

[Events]
//Background and Video events
0,0,"BG.jpg",0,0
//Break Periods
2,37765,47631
2,277565,287631
//Storyboard Layer 0 (Background)
//Storyboard Layer 1 (Fail)
//Storyboard Layer 2 (Pass)
//Storyboard Layer 3 (Foreground)
//Storyboard Sound Samples
//Background Colour Transformations
3,100,0,0,0

[TimingPoints]
232,333.333333333333,4,2,1,5,1,0
5565,-133.333333333333,4,2,1,20,0,0
14898,-200,4,2,1,15,0,0
16231,-200,4,2,1,80,0,0
21565,-133.333333333333,4,1,1,80,0,0
21731,-133.333333333333,4,1,1,5,0,0
22231,-133.333333333333,4,1,1,80,0,0
22398,-133.333333333333,4,1,1,5,0,0
22898,-133.333333333333,4,1,1,80,0,0
23065,-133.333333333333,4,1,1,5,0,0
23565,-133.333333333333,4,1,1,80,0,0
23731,-133.333333333333,4,1,1,5,0,0
24231,-133.333333333333,4,1,1,80,0,0
24398,-133.333333333333,4,1,1,5,0,0
24898,-133.333333333333,4,1,1,80,0,0
25065,-133.333333333333,4,1,1,5,0,0
25231,-133.333333333333,4,1,1,80,0,0
27065,-100,4,2,1,80,0,0
36565,-100,4,2,1,80,0,0
48231,-100,4,1,1,80,0,0
58898,-100,4,2,1,80,0,0
80231,-133.333333333333,4,2,1,80,0,0
97565,-100,4,2,1,80,0,0
102898,-100,4,1,1,80,0,1
145231,-100,4,1,1,50,0,1
145565,-100,4,1,1,80,0,0
156231,-100,4,1,1,80,0,0
166898,-100,4,2,1,80,0,0
177565,-133.333333333333,4,2,1,80,0,0
182231,-100,4,2,1,80,0,0
188231,-133.333333333333,4,2,1,80,0,0
210398,-100,4,2,1,80,0,0
210898,-100,4,1,1,80,0,1
250898,-100,4,1,1,80,0,0
274231,-100,4,1,1,80,0,0
274398,-100,4,1,1,60,0,0
274565,-100,4,1,1,40,0,0
274731,-100,4,1,1,20,0,0
274898,-100,4,1,1,5,0,0
277565,-200,4,2,1,40,0,0
288231,-166.666666666667,4,2,1,60,0,0
296231,-200,4,2,1,80,0,0
298898,-200,4,2,1,80,0,0
300898,-100,4,1,1,80,0,0
301565,-100,4,1,1,80,0,1
344231,-100,4,1,1,80,0,0
386231,-100,4,1,0,60,0,0

[Colours]
Combo1 : 58,204,252
Combo2 : 124,124,124
Combo3 : 214,214,214
Combo4 : 100,51,247
Combo5 : 167,142,240
Combo6 : 174,233,255

[HitObjects]
256,192,232,12,0,4231,0:0:0:0:
488,160,5565,6,0,B|440:168|400:160|400:160|420:120|408:88|368:64|368:64|328:84|296:72,1,270.000010299683
24,160,6898,2,0,B|72:168|112:160|112:160|92:120|104:88|144:64|144:64|184:84|216:72,1,270.000010299683
294,316,8231,6,0,P|432:232|400:176,1,270.000010299683
220,56,9565,2,0,P|83:141|115:197,1,270.000010299683
384,128,10898,70,0,B|408:168|400:208|400:208|424:256|424:256|408:296|408:296|368:320|320:296,1,270.000010299683
128,128,12231,2,0,B|104:168|112:208|112:208|88:256|88:256|104:296|104:296|144:320|192:296,1,270.000010299683
256,192,13565,5,0,0:0:0:0:
292,164,14231,1,0,0:0:0:0:
328,192,14898,1,0,0:0:0:0:
256,192,16231,69,4,0:0:0:0:
488,24,16898,1,0,0:0:0:0:
24,24,17565,1,0,0:0:0:0:
488,352,18231,1,0,0:0:0:0:
24,352,18898,1,0,0:0:0:0:
488,24,19565,1,0,0:0:0:0:
16,192,20231,1,0,0:0:0:0:
504,192,20898,1,0,0:0:0:0:
88,80,21565,6,0,L|224:80,1,135.000005149842,12|0,0:2|2:0,0:0:0:0:
456,320,22231,2,0,L|320:320,1,135.000005149842,8|0,0:0|2:0,0:0:0:0:
0,192,22898,2,0,L|136:192,1,135.000005149842,8|0,0:0|2:0,0:0:0:0:
512,192,23565,2,0,L|376:192,1,135.000005149842,8|0,0:0|2:0,0:0:0:0:
0,80,24231,2,0,L|136:80,1,135.000005149842,8|0,0:0|2:0,0:0:0:0:
512,304,24898,2,0,L|376:304,1,135.000005149842,8|8,0:0|0:0,0:0:0:0:
192,304,25398,69,8,0:0:0:0:
320,256,25565,1,8,0:0:0:0:
144,192,25731,1,8,0:0:0:0:
272,140,25898,1,8,0:0:0:0:
320,256,26065,1,8,0:0:0:0:
192,304,26231,5,0,0:0:0:0:
169,294,26314,1,0,0:0:0:0:
148,280,26397,1,0,0:0:0:0:
131,262,26480,1,0,0:0:0:0:
117,241,26564,1,0,0:0:0:0:
108,217,26647,1,0,0:0:0:0:
104,193,26730,1,0,0:0:0:0:
104,168,26814,1,0,0:0:0:0:
110,144,26897,1,0,0:0:0:0:
312,192,27231,70,0,B|312:240|312:240|352:272,1,90,2|0,0:0|0:0,0:0:0:0:
256,40,27565,2,0,L|166:40,1,90,0|0,0:0|0:0,0:0:0:0:
252,120,27898,2,0,L|342:120,1,90,2|0,0:0|0:0,0:0:0:0:
144,192,28231,2,0,P|176:240|288:272,1,180,0|2,0:0|0:0,0:0:0:0:
408,248,28731,1,0,0:0:0:0:
480,152,28898,2,0,P|464:104|416:88,1,90,0|0,0:0|0:0,0:0:0:0:
360,184,29231,2,0,P|376:232|424:248,1,90,2|0,0:0|0:0,0:0:0:0:
448,328,29565,6,0,B|360:368|360:280|264:328,1,180,0|0,0:0|0:0,0:0:0:0:
160,336,30065,2,0,L|48:336,2,90,0|2|0,0:0|0:0|0:0,0:0:0:0:
256,264,30565,1,0,0:0:0:0:
184,176,30731,1,0,0:0:0:0:
328,56,30898,69,2,0:0:0:0:
336,232,31065,1,0,0:0:0:0:
488,152,31231,1,0,0:0:0:0:
320,144,31398,1,0,0:0:0:0:
424,232,31565,1,2,0:0:0:0:
416,72,31731,1,0,0:0:0:0:
336,232,31898,1,2,0:0:0:0:
192,72,32065,1,0,0:0:0:0:
488,152,32231,6,0,L|360:152,1,90,4|0,0:0|0:0,0:0:0:0:
256,200,32565,1,2,0:0:0:0:
384,288,32731,1,0,0:0:0:0:
256,336,32898,1,2,2:0:0:0:
237,324,32981,1,0,2:0:0:0:
217,318,33064,1,0,2:0:0:0:
195,315,33148,1,0,2:0:0:0:
174,311,33231,1,2,2:0:0:0:
154,304,33315,1,0,2:0:0:0:
136,292,33398,1,0,2:0:0:0:
121,276,33481,1,0,2:0:0:0:
109,258,33564,1,0,2:0:0:0:
48,104,33731,69,0,0:0:0:0:
232,56,33898,1,0,0:0:0:0:
120,24,34065,1,0,0:0:0:0:
224,168,34231,2,0,L|136:192,1,90,2|0,0:0|0:0,0:0:0:0:
232,56,34565,2,0,L|321:68,1,90,2|0,0:0|0:0,0:0:0:0:
416,164,34898,1,0,0:0:0:0:
416,164,34981,1,0,0:0:0:0:
416,164,35065,1,0,0:0:0:0:
308,252,35231,2,0,L|403:304,1,90
125,295,35565,2,0,L|204:252,1,90
112,136,35898,2,0,L|32:88,1,90
312,328,36231,5,2,0:0:0:0:
312,328,36315,1,0,0:0:0:0:
312,328,36398,1,0,0:0:0:0:
432,208,36565,1,0,1:0:0:0:
312,104,36731,2,0,L|336:56,2,45,0|0|0,1:0|1:0|1:0,0:0:0:0:
136,200,37065,69,0,1:0:0:0:
128,235,37148,1,0,1:0:0:0:
134,270,37231,1,0,1:0:0:0:
155,299,37315,1,0,1:0:0:0:
185,318,37398,1,0,1:0:0:0:
220,323,37481,1,0,1:0:0:0:
255,313,37565,1,0,1:0:0:0:
432,192,48231,54,0,B|408:232|408:232|360:232,1,90
248,224,48565,2,0,B|248:272|248:272|296:304,1,90,8|0,0:0|0:0,0:0:0:0:
392,336,48898,2,0,B|448:336|448:336|472:296,1,90
432,192,49231,2,0,L|336:192,1,90,8|0,0:0|0:0,0:0:0:0:
256,64,49565,6,0,B|312:64|312:64|344:88,1,90,8|0,0:2|0:0,0:0:0:0:
334,224,49898,2,0,B|296:224|296:224|256:192,1,90,0|8,0:0|0:0,0:0:0:0:
120,112,50231,2,0,L|120:16,2,90,0|0|8,0:0|0:0|0:0,0:0:0:0:
120,212,50731,1,0,0:0:0:0:
24,216,50898,2,0,B|24:264|24:264|64:288,1,90,8|0,0:0|0:0,0:0:0:0:
208,216,51231,2,0,B|208:264|208:264|168:288,1,90,8|0,0:0|0:0,0:0:0:0:
24,216,51565,2,0,B|24:168|24:168|64:144,1,90,8|0,0:0|0:0,0:0:0:0:
256,96,51898,2,0,L|160:96,1,90,8|0,0:0|0:0,0:0:0:0:
368,192,52231,70,0,L|464:192,1,90
256,344,52565,2,0,L|160:344,1,90
256,96,52898,1,8,0:0:0:0:
256,96,52981,1,0,0:0:0:0:
256,96,53065,1,0,0:0:0:0:
328,280,53231,1,0,0:0:0:0:
160,192,53398,1,0,0:0:0:0:
368,192,53565,6,0,L|278:192,1,90,4|0,0:2|0:0,0:0:0:0:
160,192,53898,2,0,B|160:240|160:240|128:272,1,90
16,262,54231,2,0,B|16:224|16:224|48:184,1,90,8|0,0:0|0:0,0:0:0:0:
128,96,54565,1,0,0:0:0:0:
256,96,54731,1,0,0:0:0:0:
376,192,54898,2,0,L|472:192,1,90,8|0,0:0|0:0,0:0:0:0:
136,192,55231,2,0,L|40:192,1,90,8|0,0:0|0:0,0:0:0:0:
392,240,55565,2,0,L|496:240,1,90,8|0,0:0|0:0,0:0:0:0:
120,240,55898,2,0,L|16:240,1,90,8|0,0:0|0:0,0:0:0:0:
256,336,56231,70,0,L|352:336,2,90,8|0|0,0:0|0:0|0:0,0:0:0:0:
392,240,56731,1,8,0:0:0:0:
282,256,56898,1,0,0:0:0:0:
368,40,57065,1,0,0:0:0:0:
320,144,57231,1,8,0:0:0:0:
448,124,57398,1,0,0:0:0:0:
368,40,57565,2,0,L|272:40,1,90,8|0,0:0|0:0,0:0:0:0:
160,264,57898,2,0,L|272:264,1,90,8|0,0:0|0:0,0:0:0:0:
144,88,58231,2,0,L|112:56,2,45,0|8|0,0:0|0:0|0:0,0:0:0:0:
320,144,58565,1,8,0:0:0:0:
160,264,58731,1,8,0:0:0:0:
464,280,58898,70,0,P|408:304|376:296,1,90,6|0,0:0|0:0,0:0:0:0:
280,224,59231,1,0,0:0:0:0:
160,264,59398,2,0,P|216:336|320:344,1,180,2|0,0:0|0:0,0:0:0:0:
464,280,59898,1,0,0:0:0:0:
280,224,60065,1,0,0:0:0:0:
400,120,60231,2,0,L|304:120,1,90,2|0,0:0|0:0,0:0:0:0:
440,32,60565,2,0,L|536:32,1,90,2|0,0:0|0:0,0:0:0:0:
400,120,60898,2,0,P|360:152|248:112,1,180
249,113,61398,1,0,0:0:0:0:
24,192,61565,70,0,B|48:192|80:176|80:176|96:192|120:192,1,90,2|0,0:0|0:0,0:0:0:0:
224,240,61898,1,0,0:0:0:0:
249,113,62065,2,0,L|160:112,1,90,2|0,0:0|0:0,0:0:0:0:
40,112,62398,1,0,0:0:0:0:
200,336,62565,1,0,0:0:0:0:
24,192,62731,1,2,0:0:0:0:
112,296,62898,5,2,0:0:0:0:
143,307,62981,1,0,0:0:0:0:
176,312,63064,1,0,0:0:0:0:
209,312,63148,1,0,0:0:0:0:
241,305,63231,1,2,0:0:0:0:
344,288,63398,1,0,0:0:0:0:
432,224,63565,69,2,0:0:0:0:
449,199,63648,1,0,0:0:0:0:
459,171,63731,1,0,0:0:0:0:
463,141,63815,1,0,0:0:0:0:
460,111,63898,1,2,0:0:0:0:
310,72,64065,1,0,0:0:0:0:
216,176,64231,6,0,P|176:200|120:192,2,90,2|0|0,0:0|0:0|0:0,0:0:0:0:
310,72,64731,2,0,B|312:136|312:136|312:216|368:240,1,180,2|0,0:0|0:0,0:0:0:0:
480,304,65231,1,0,0:0:0:0:
216,176,65398,1,0,0:0:0:0:
360,160,65565,2,0,L|456:160,1,90,2|0,0:0|0:0,0:0:0:0:
310,72,65898,2,0,L|220:72,1,90
120,80,66231,2,0,B|120:152|120:152|176:128|216:176,1,180
272,296,66731,1,0,0:0:0:0:
136,296,66898,70,0,L|32:296,1,90,2|0,0:0|0:0,0:0:0:0:
200,208,67231,2,0,L|296:208,1,90
116,148,67565,2,0,L|20:148,1,90,2|0,0:0|0:0,0:0:0:0:
172,56,67898,2,0,P|268:24|356:64,1,180,0|2,0:0|0:0,0:0:0:0:
348,56,68315,5,0,0:0:0:0:
358,64,68398,1,0,0:0:0:0:
367,72,68481,1,0,0:0:0:0:
375,82,68564,1,2,0:0:0:0:
381,93,68648,1,0,0:0:0:0:
387,105,68731,1,0,0:0:0:0:
391,118,68814,1,0,0:0:0:0:
394,130,68898,69,2,0:0:0:0:
395,143,68981,1,0,0:0:0:0:
395,157,69064,1,0,0:0:0:0:
394,170,69148,1,0,0:0:0:0:
390,182,69231,1,0,1:0:0:0:
356,272,69398,1,0,0:0:0:0:
288,336,69565,6,0,P|256:328|216:288,1,90,4|0,0:0|0:0,0:0:0:0:
176,160,69898,1,0,0:0:0:0:
312,152,70065,2,0,P|344:192|352:240,1,90,2|0,0:0|0:0,0:0:0:0:
352,344,70398,1,0,0:0:0:0:
248,248,70565,2,0,P|256:208|304:176,1,90,2|0,0:0|0:0,0:0:0:0:
480,176,70898,2,0,L|376:176,1,90,2|0,0:0|0:0,0:0:0:0:
416,80,71231,2,0,L|512:80,1,90,2|0,0:0|0:0,0:0:0:0:
336,32,71565,2,0,B|272:68|224:8|160:48,1,180
56,232,72065,1,0,0:0:0:0:
264,336,72231,70,0,L|160:336,1,90,2|0,0:0|0:0,0:0:0:0:
56,232,72565,2,0,L|152:232,1,90,0|2,0:0|0:0,0:0:0:0:
256,192,72898,1,0,0:0:0:0:
384,88,73065,2,0,L|280:88,1,90,0|2,0:0|0:0,0:0:0:0:
256,192,73398,1,0,0:0:0:0:
440,192,73565,2,0,L|536:192,1,90,2|0,0:0|0:0,0:0:0:0:
256,192,73898,5,2,0:0:0:0:
314,372,74065,1,0,0:0:0:0:
161,260,74231,1,2,0:0:0:0:
350,260,74398,1,0,0:0:0:0:
197,372,74565,1,2,0:0:0:0:
256,192,74731,1,0,0:0:0:0:
84,268,74898,70,2,P|112:320|160:332,1,90
264,304,75231,1,0,0:0:0:0:
161,260,75398,2,0,P|176:192|280:176,1,180
384,216,75898,1,2,0:0:0:0:
304,56,76065,1,2,0:0:0:0:
208,120,76231,6,0,P|240:152|304:160,1,90
400,184,76565,1,0,0:0:0:0:
488,264,76731,2,2,P|448:304|400:312,1,90
296,320,77065,1,0,0:0:0:0:
400,184,77231,1,0,0:0:0:0:
304,56,77398,1,0,0:0:0:0:
296,320,77565,70,0,L|384:352,1,90,2|0,0:0|0:0,0:0:0:0:
192,136,77898,2,0,L|107:105,1,90,2|0,0:0|0:0,0:0:0:0:
416,64,78231,2,0,L|504:96,1,90,2|0,0:0|0:0,0:0:0:0:
96,320,78565,2,0,L|8:288,1,90,2|0,0:0|0:0,0:0:0:0:
440,192,78898,1,8,1:0:0:0:
440,192,78981,1,0,1:0:0:0:
440,192,79065,1,0,1:0:0:0:
440,192,79148,1,0,1:0:0:0:
440,192,79231,1,8,1:0:0:0:
332,248,79398,5,0,0:0:0:0:
224,192,79565,1,0,1:0:0:0:
112,136,79731,1,8,1:0:0:0:
36,224,79898,1,8,1:0:0:0:
96,320,80065,1,8,1:0:0:0:
220,336,80231,38,0,L|288:336,1,67.5000025749208,12|0,0:0|0:0,0:0:0:0:
224,192,80565,2,0,L|152:192,1,67.5000025749208,8|0,1:0|0:0,0:0:0:0:
96,320,80898,2,0,P|64:352|24:360,1,67.5000025749208,0|0,0:0|0:0,0:0:0:0:
172,232,81231,2,0,P|204:200|244:192,1,67.5000025749208,8|0,1:0|0:0,0:0:0:0:
232,320,81565,2,0,L|88:320,1,135.000005149842,2|8,0:0|1:0,0:0:0:0:
36,224,82065,2,0,P|8:196|4:164,1,67.5000025749208
88,152,82398,1,0,0:0:0:0:
152,212,82565,2,0,P|177:162|147:87,1,135.000005149842,8|0,1:0|0:0,0:0:0:0:
64,64,83065,5,0,0:0:0:0:
88,152,83231,2,0,L|168:152,1,67.5000025749208,8|0,1:0|0:0,0:0:0:0:
232,256,83565,2,0,L|152:256,1,67.5000025749208
264,352,83898,2,0,L|336:352,1,67.5000025749208,8|0,1:0|0:0,0:0:0:0:
432,320,84231,69,2,0:0:0:0:
457,298,84314,1,0,0:0:0:0:
471,267,84397,1,0,0:0:0:0:
471,234,84480,1,0,0:0:0:0:
458,203,84564,1,8,1:0:0:0:
400,136,84731,1,0,0:0:0:0:
320,96,84898,2,0,L|280:136,2,33.7500012874604,8|0|8,0:0|0:0|0:0,0:0:0:0:
320,256,85231,1,8,1:0:0:0:
200,144,85398,1,0,0:0:0:0:
148,280,85565,6,0,P|124:328|100:344,1,67.5000025749208,2|0,0:0|0:0,0:0:0:0:
228,356,85898,2,0,P|237:347|261:299,1,67.5000025749208,8|0,1:0|0:0,0:0:0:0:
336,192,86231,2,0,P|360:216|360:264,1,67.5000025749208,2|0,0:0|0:0,0:0:0:0:
296,352,86565,2,0,P|264:320|264:288,1,67.5000025749208,8|0,1:0|0:0,0:0:0:0:
256,160,86898,2,0,P|264:112|280:96,1,67.5000025749208,2|0,0:0|0:0,0:0:0:0:
360,64,87231,1,0,1:0:0:0:
432,112,87398,2,0,P|424:160|408:176,1,67.5000025749208,2|0,0:0|0:0,0:0:0:0:
336,192,87731,1,0,0:0:0:0:
280,256,87898,2,0,B|224:288|192:232|136:272,1,135.000005149842,8|0,1:0|0:0,0:0:0:0:
80,320,88398,69,0,0:0:0:0:
64,232,88565,2,0,L|8:272,1,67.5000025749208,8|0,1:0|0:0,0:0:0:0:
56,136,88898,2,0,L|0:176,1,67.5000025749208
176,136,89231,2,0,L|232:176,1,67.5000025749208,8|0,1:0|0:0,0:0:0:0:
168,232,89565,2,0,L|224:272,1,67.5000025749208
360,232,89898,2,0,L|304:272,1,67.5000025749208,8|0,1:0|0:0,0:0:0:0:
352,136,90231,2,0,L|296:176,1,67.5000025749208,2|0,0:0|0:0,0:0:0:0:
168,232,90565,1,8,1:0:0:0:
360,232,90731,1,8,1:0:0:0:
168,80,90898,6,0,L|256:80,1,67.5000025749208,12|0,0:0|0:0,0:0:0:0:
320,80,91231,2,0,P|368:104|384:128,1,67.5000025749208,8|0,1:0|0:0,0:0:0:0:
304,168,91565,2,0,P|288:208|296:240,1,67.5000025749208
373,285,91898,2,0,P|387:266|392:224,1,67.5000025749208,8|0,1:0|0:0,0:0:0:0:
288,328,92231,2,0,P|248:336|216:328,1,67.5000025749208
160,272,92565,1,8,1:0:0:0:
80,232,92731,2,0,P|64:264|64:304,1,67.5000025749208
136,360,93065,1,0,0:0:0:0:
160,272,93231,2,0,B|136:224|216:224|192:144,1,135.000005149842,8|0,1:0|0:0,0:0:0:0:
176,64,93731,69,8,0:0:0:0:
256,24,93898,1,8,1:0:0:0:
336,56,94065,1,8,0:0:0:0:
304,152,94231,2,0,L|256:104,1,67.5000025749208
384,192,94565,2,0,L|432:144,1,67.5000025749208,8|0,1:0|0:0,0:0:0:0:
308,232,94898,2,0,P|296:272|300:304,1,67.5000025749208
376,272,95231,1,8,1:0:0:0:
456,232,95398,2,0,P|468:296|428:348,1,135.000005149842
427,348,95898,1,8,1:0:0:0:
200,192,96231,6,0,P|208:240|224:256,1,67.5000025749208
304,192,96565,2,0,P|304:152|280:120,1,67.5000025749208,8|0,1:0|0:0,0:0:0:0:
192,216,96898,2,0,P|222:267|247:278,1,67.5000025749208
310,171,97232,2,0,P|293:125|251:99,1,67.5000025749208,8|8,1:0|0:0,0:0:0:0:
193,237,97565,70,0,P|241:284|288:296,1,90
309,152,97898,2,0,P|277:108|224:96,1,90,8|0,1:0|0:0,0:0:0:0:
204,271,98232,2,0,P|279:304|312:304,1,90
300,124,98566,2,0,P|243:87|208:88,1,90,8|0,1:0|0:0,0:0:0:0:
256,192,98898,12,0,101231,0:0:0:0:
256,192,101565,5,0,0:0:0:0:
256,192,101731,1,0,0:0:0:0:
440,72,102398,1,0,0:0:0:0:
324,72,102565,1,0,0:0:0:0:
360,184,102731,1,0,0:0:0:0:
76,260,102898,38,0,P|120:276|168:260,1,90
436,156,103231,2,0,P|425:115|441:71,1,90
192,48,103565,2,0,P|144:60|100:48,1,90
332,328,103898,2,0,P|370:318|418:330,1,90
180,208,104231,2,0,P|132:220|88:208,1,90
332,176,104565,2,0,P|380:164|424:176,1,90
332,328,104898,1,0,0:0:0:0:
256,192,105065,1,0,0:0:0:0:
256,296,105231,1,8,0:0:0:0:
332,208,105398,1,0,0:0:0:0:
248,136,105565,6,0,P|272:80|304:64,1,90,12|0,0:2|0:0,0:0:0:0:
280,240,105898,1,0,0:0:0:0:
274,134,106065,2,0,P|326:103|362:108,1,90,8|0,0:0|0:0,0:0:0:0:
240,240,106398,1,0,0:0:0:0:
294,145,106565,2,0,P|355:145|382:169,1,90,8|0,0:0|0:0,0:0:0:0:
399,298,106898,2,0,P|368:296|320:264,1,90,8|0,0:0|0:0,0:0:0:0:
354,72,107231,2,0,P|392:80|432:112,1,90,0|8,0:0|0:0,0:0:0:0:
241,299,107565,2,0,P|208:280|176:240,1,90
189,34,107898,2,0,P|224:32|272:56,1,90,8|0,0:0|0:0,0:0:0:0:
312,192,108231,69,4,0:2:0:0:
176,240,108398,2,0,L|80:240,1,90,8|0,0:0|0:0,0:0:0:0:
86,240,108731,1,0,0:0:0:0:
240,299,108898,2,0,L|312:244,1,90,8|0,0:0|0:0,0:2:0:0:
376,112,109231,2,0,L|304:168,1,90,8|0,0:0|0:0,0:0:0:0:
176,240,109565,2,0,L|112:168,1,90
224,48,109898,2,0,L|288:120,1,90,8|0,0:0|0:0,0:0:0:0:
80,120,110231,1,0,0:0:0:0:
176,240,110398,2,0,L|104:296,1,90,8|0,0:0|0:0,0:0:0:0:
344,328,110731,1,0,0:0:0:0:
384,56,110898,6,0,L|464:120,1,90,8|0,0:0|0:0,0:0:0:0:
208,128,111231,1,0,0:0:0:0:
128,328,111398,2,0,L|48:264,1,90,8|0,0:0|0:0,0:0:0:0:
254,328,111731,2,0,L|344:328,1,90
128,328,112065,1,8,0:0:0:0:
104,200,112231,1,8,0:0:0:0:
232,252,112398,1,8,0:0:0:0:
208,128,112565,1,0,0:0:0:0:
340,184,112731,1,8,0:0:0:0:
176,40,112898,69,8,0:0:0:0:
134,24,112981,1,0,0:0:0:0:
89,27,113064,1,0,0:0:0:0:
50,48,113147,1,0,0:0:0:0:
23,84,113231,1,8,0:0:0:0:
14,127,113314,1,0,0:0:0:0:
23,171,113397,1,0,0:0:0:0:
50,206,113481,1,0,0:0:0:0:
90,227,113564,5,12,0:2:0:0:
216,272,113731,1,0,0:0:0:0:
392,192,113898,2,0,L|296:192,1,90,0|8,0:0|0:0,0:0:0:0:
440,64,114231,1,0,0:0:0:0:
256,104,114398,1,0,0:0:0:0:
400,264,114565,1,8,0:0:0:0:
256,304,114731,1,0,0:0:0:0:
90,227,114898,2,0,L|88:328,1,90,8|0,0:0|0:0,0:0:0:0:
16,128,115231,1,0,0:0:0:0:
160,232,115398,2,0,L|157:332,1,90,8|0,0:0|0:0,0:0:0:0:
260,156,115731,1,0,0:0:0:0:
288,232,115898,70,0,P|328:200|340:152,1,90,8|0,0:0|0:0,0:0:0:0:
400,48,116231,1,0,0:0:0:0:
400,48,116398,1,0,0:0:0:0:
260,156,116565,1,8,0:0:0:0:
260,156,116731,1,0,0:0:0:0:
400,288,116898,1,0,0:0:0:0:
400,288,117065,1,0,0:0:0:0:
224,328,117231,1,8,0:0:0:0:
224,328,117398,1,0,0:0:0:0:
56,248,117565,6,0,L|152:248,1,90
320,224,117898,1,0,0:0:0:0:
232,136,118065,2,0,L|128:136,1,90,8|0,0:0|0:0,0:0:0:0:
40,64,118398,1,0,0:0:0:0:
224,40,118565,2,0,L|320:40,1,90,8|0,0:0|0:0,0:0:0:0:
392,176,118898,70,0,P|456:176|480:152,1,90,8|0,0:0|0:0,0:0:0:0:
256,136,119231,1,0,0:0:0:0:
120,176,119398,2,0,P|56:176|32:152,1,90,8|0,0:0|0:0,0:0:0:0:
256,208,119731,1,0,0:0:0:0:
373,240,119898,2,0,P|428:240|449:216,1,90,8|0,0:0|0:0,0:0:0:0:
256,208,120231,1,0,0:0:0:0:
132,244,120398,2,0,P|90:240|54:208,1,90,8|0,0:0|0:0,0:0:0:0:
136,128,120731,1,0,0:0:0:0:
228,96,120898,2,0,P|232:144|204:192,1,90,8|0,0:0|0:0,0:0:0:0:
304,232,121231,2,0,P|300:180|318:146,1,90,8|0,0:0|0:0,0:0:0:0:
384,48,121565,6,0,P|440:64|456:88,1,90,8|0,0:0|0:0,0:0:0:0:
304,232,121898,2,0,P|256:224|232:192,1,90
423,50,122231,2,0,P|472:80|490:122,1,90,8|0,0:0|0:0,0:0:0:0:
264,228,122564,2,0,P|220:200|197:156,1,90
24,24,122898,70,0,P|8:80|16:120,1,90,8|0,0:0|0:0,0:0:0:0:
304,232,123231,2,0,P|336:184|328:136,1,90,8|0,0:0|0:0,0:0:0:0:
128,168,123565,2,0,P|108:212|128:264,1,90,8|0,0:0|0:0,0:0:0:0:
256,352,123898,1,8,0:0:0:0:
300,350,123981,1,0,0:0:0:0:
340,330,124064,1,0,0:0:0:0:
367,295,124147,1,0,0:0:0:0:
376,251,124231,5,12,0:2:0:0:
384,136,124398,1,0,0:0:0:0:
296,64,124565,2,0,P|248:80|240:120,1,90,0|8,0:0|0:0,0:0:0:0:
376,251,124898,2,0,P|448:224|456:128,1,180,0|8,0:0|0:0,0:0:0:0:
76,228,125565,2,0,P|85:321|157:348,1,180,0|8,0:0|0:0,0:0:0:0:
164,256,126065,2,0,P|173:179|92:127,1,180,0|8,0:0|0:0,0:0:0:0:
95,126,126565,1,0,0:0:0:0:
456,56,126898,70,0,L|364:56,1,90
264,112,127231,1,8,0:0:0:0:
360,184,127398,2,0,P|312:216|264:216,1,90
472,192,127731,1,0,0:0:0:0:
320,288,127898,1,8,0:0:0:0:
456,312,128065,1,0,0:0:0:0:
472,192,128231,2,0,P|448:144|408:132,1,90,8|0,0:0|0:0,0:0:0:0:
264,112,128564,2,0,P|304:64|352:56,1,90,8|0,0:0|0:0,0:0:0:0:
360,184,128898,2,0,P|320:208|264:200,1,90,8|0,0:0|0:0,0:0:0:0:
304,64,129231,2,0,P|344:40|392:48,1,90,8|0,0:0|0:0,0:0:0:0:
232,288,129565,6,0,P|176:288|136:264,1,90,4|0,0:2|0:0,0:0:0:0:
80,176,129898,1,8,0:0:0:0:
160,88,130065,2,0,P|192:168|136:240,1,180
141,237,130565,1,8,0:0:0:0:
40,24,130898,2,0,L|136:24,1,90
240,112,131231,2,0,L|144:112,1,90
32,112,131565,1,8,0:0:0:0:
141,237,131731,1,0,0:0:0:0:
24,216,131898,1,0,0:0:0:0:
240,112,132065,1,8,0:0:0:0:
376,336,132231,70,0,P|448:304|456:280,1,90,4|0,0:2|0:0,0:0:0:0:
224,200,132565,1,0,0:0:0:0:
384,80,132731,2,0,P|344:48|304:48,1,90,8|0,0:0|0:0,0:0:0:0:
400,232,133065,1,0,0:0:0:0:
160,280,133231,2,0,P|176:328|224:344,1,90,8|0,0:0|0:0,0:0:0:0:
160,144,133565,1,0,0:0:0:0:
384,80,133731,2,0,P|336:56|296:64,1,90,8|0,0:0|0:0,0:0:0:0:
408,328,134065,1,12,0:2:0:0:
408,328,134231,5,0,0:0:0:0:
408,328,134315,1,0,0:0:0:0:
408,328,134398,1,0,0:0:0:0:
384,216,134565,1,8,0:0:0:0:
369,186,134648,1,0,0:0:0:0:
345,163,134731,1,0,0:0:0:0:
315,148,134815,1,0,0:0:0:0:
282,143,134898,1,12,0:2:0:0:
160,144,135065,1,0,0:0:0:0:
48,176,135231,70,0,P|64:224|104:240,1,90,0|8,0:0|0:0,0:0:0:0:
200,296,135565,1,0,0:0:0:0:
288,224,135731,1,0,0:0:0:0:
368,144,135898,1,8,0:0:0:0:
472,200,136065,1,0,0:0:0:0:
288,224,136231,2,0,L|184:224,1,90,8|0,0:0|0:0,0:0:0:0:
368,144,136565,2,0,L|472:144,1,90,0|8,0:0|0:0,0:0:0:0:
336,48,136898,2,0,L|232:48,1,90
128,48,137231,1,8,0:0:0:0:
256,192,137398,1,0,0:0:0:0:
64,240,137565,6,0,P|120:256|160:240,1,90,8|0,0:0|0:0,0:0:0:0:
256,192,137898,1,0,0:0:0:0:
168,112,138065,2,0,P|120:80|80:80,1,90,8|0,0:0|0:0,0:0:0:0:
0,136,138398,1,0,0:0:0:0:
64,240,138565,2,0,P|96:272|144:272,1,90
256,192,138898,2,0,P|312:224|328:256,1,90,8|0,0:0|0:0,0:0:0:0:
444,154,139231,2,0,P|416:144|384:96,1,90,8|0,0:0|0:0,0:0:0:0:
288,56,139565,2,0,P|256:96|216:104,1,90,8|0,0:0|0:0,0:0:0:0:
188,244,139898,2,0,P|200:224|256:192,1,90,8|0,0:0|0:0,0:0:0:0:
48,192,140231,70,0,P|32:256|128:304,1,180,12|0,0:2|0:0,0:0:0:0:
200,136,140731,1,0,0:0:0:0:
320,200,140898,2,0,B|320:248|320:248|320:280|344:304,1,90,8|0,0:0|0:0,0:0:0:0:
480,232,141231,2,0,B|480:184|480:184|480:152|456:128,1,90
200,136,141565,2,0,P|176:184|176:232,1,90,8|0,0:0|0:0,0:0:0:0:
320,344,141898,2,0,P|352:352|408:344,1,90,0|8,0:0|0:0,0:0:0:0:
480,232,142231,1,0,0:0:0:0:
400,120,142398,2,0,P|368:160|312:168,1,90,0|8,0:0|0:0,0:0:0:0:
160,232,142731,1,0,0:0:0:0:
240,80,142898,5,8,0:0:0:0:
276,53,142981,1,0,0:0:0:0:
318,40,143064,1,0,0:0:0:0:
363,42,143148,1,0,0:0:0:0:
405,58,143231,1,8,0:0:0:0:
439,87,143314,1,0,0:0:0:0:
462,126,143398,1,0,0:0:0:0:
470,170,143481,1,0,0:0:0:0:
464,214,143564,69,8,0:0:0:0:
448,248,143648,1,8,0:0:0:0:
424,280,143731,1,0,0:0:0:0:
392,304,143815,1,0,0:0:0:0:
352,312,143898,1,0,0:0:0:0:
312,312,143981,1,0,0:0:0:0:
272,304,144065,1,8,0:0:0:0:
240,288,144148,1,8,0:0:0:0:
200,272,144231,6,0,L|160:304,3,45,0|0|0|0,0:0|0:0|0:0|0:0,0:0:0:0:
192,232,144565,2,0,L|240:208,3,45,8|0|0|0,0:0|0:0|0:0|0:0,0:0:0:0:
152,208,144898,2,0,L|96:216,3,45,8|0|0|0,0:0|0:0|0:0|0:0,0:0:0:0:
168,168,145231,69,10,2:0:0:0:
174,123,145314,1,10,2:0:0:0:
199,87,145397,1,10,2:0:0:0:
238,65,145481,1,10,2:0:0:0:
283,63,145564,1,12,2:0:0:0:
400,288,145898,6,0,B|352:304|352:304|312:288,1,90
234,179,146231,1,8,0:0:0:0:
136,288,146398,2,0,B|88:304|88:304|48:288,1,90
96,160,146731,1,0,0:0:0:0:
51,30,146898,2,0,B|88:16|88:16|136:32,1,90,8|0,0:0|0:0,0:0:0:0:
256,128,147231,1,0,0:0:0:0:
360,32,147398,2,0,B|408:16|408:16|456:32,1,90,8|0,0:0|0:0,0:0:0:0:
384,128,147731,1,0,0:0:0:0:
504,152,147898,1,0,0:0:0:0:
256,128,148065,1,0,0:0:0:0:
256,240,148231,70,0,B|256:288|256:288|216:312,1,90,8|0,0:0|0:0,0:0:0:0:
168,212,148565,1,0,0:0:0:0:
256,240,148731,2,0,P|244:152|152:112,1,180
68,128,149231,2,0,B|24:152|24:152|24:204,1,90
168,302,149565,2,0,L|168:212,1,90,8|0,0:0|0:0,0:0:0:0:
172,112,149898,1,0,0:0:0:0:
168,352,150065,1,0,0:0:0:0:
56,192,150231,1,8,0:0:0:0:
292,192,150398,1,0,0:0:0:0:
56,192,150565,1,8,0:0:0:0:
292,192,150731,1,0,0:0:0:0:
335,285,150898,6,0,B|368:312|368:312|416:312,1,90,4|0,0:2|0:0,0:0:0:0:
480,192,151231,1,0,0:0:0:0:
480,192,151398,1,0,0:0:0:0:
416,72,151565,2,0,B|368:72|368:72|328:104,1,90,8|0,0:0|0:0,0:0:0:0:
256,192,151898,2,0,B|160:192,1,90
112,40,152231,2,0,B|80:80|80:80|80:128,1,90,8|0,0:0|0:0,0:0:0:0:
112,344,152565,2,0,B|80:304|80:304|80:256,1,90,8|0,0:0|0:0,0:0:0:0:
256,192,152898,2,0,L|352:192,1,90,8|0,0:0|0:0,0:0:0:0:
480,192,153231,1,0,0:0:0:0:
296,80,153398,1,0,0:0:0:0:
304,304,153565,70,0,L|208:304,1,90,8|0,0:0|0:0,0:0:0:0:
296,80,153898,2,0,L|400:80,1,90
480,192,154231,1,8,0:0:0:0:
256,192,154398,1,0,0:0:0:0:
480,192,154565,1,0,0:0:0:0:
256,192,154731,1,0,0:0:0:0:
304,304,154898,6,0,B|368:304|368:304|392:280,1,90,8|0,0:0|0:0,0:0:0:0:
480,192,155231,1,0,0:0:0:0:
368,112,155398,1,0,0:0:0:0:
256,192,155565,1,8,0:0:0:0:
256,192,155648,1,0,0:0:0:0:
256,192,155731,1,8,0:0:0:0:
144,112,155898,1,0,0:0:0:0:
216,312,156065,1,0,0:0:0:0:
56,192,156231,70,0,B|72:240|72:240|112:256,1,90,12|0,0:2|0:0,0:0:0:0:
144,112,156565,2,0,B|120:72|120:72|80:56,1,90
56,192,156898,2,0,L|160:192,1,90,8|0,0:0|0:0,0:0:0:0:
376,192,157231,2,0,L|280:192,1,90
200,272,157565,2,0,B|208:320|208:320|256:336,1,90,8|0,0:0|0:0,0:0:0:0:
360,320,157898,1,0,0:0:0:0:
376,192,158065,2,0,B|424:192|424:192|464:216,1,90,0|8,0:0|0:0,0:0:0:0:
360,320,158398,1,0,0:0:0:0:
376,192,158565,1,0,0:0:0:0:
168,176,158731,1,0,0:0:0:0:
168,72,158898,6,0,L|264:72,1,90,8|0,0:0|0:0,0:0:0:0:
168,176,159231,2,0,L|64:176,1,90
288,72,159565,2,0,L|384:72,1,90,8|0,0:0|0:0,0:0:0:0:
472,144,159898,2,0,B|472:200|472:200|448:232,2,90,0|0|8,0:0|0:0|0:0,0:0:0:0:
408,48,160398,1,0,0:0:0:0:
328,152,160565,2,0,B|304:192|304:192|304:240,1,90
312,352,160898,1,8,0:0:0:0:
80,200,161065,1,8,0:0:0:0:
248,136,161231,1,8,0:0:0:0:
248,280,161398,1,0,0:0:0:0:
80,200,161565,70,0,B|80:248|80:248|112:288,1,90,12|0,0:2|0:0,0:0:0:0:
184,192,161898,2,0,B|184:144|184:144|152:104,1,90
56,56,162231,2,0,B|96:24|96:24|136:24,1,90,8|0,0:0|0:0,0:0:0:0:
256,56,162565,1,0,0:0:0:0:
376,24,162731,1,0,0:0:0:0:
472,96,162898,2,0,L|472:192,1,90,8|0,0:0|0:0,0:0:0:0:
368,288,163231,2,0,L|368:192,1,90
256,24,163565,2,0,L|256:120,1,90,8|0,0:0|0:0,0:0:0:0:
256,232,163898,1,0,0:0:0:0:
64,152,164065,1,0,0:0:0:0:
56,304,164231,6,0,B|104:304|104:304|144:272,1,90,8|0,0:0|0:0,0:0:0:0:
152,160,164565,2,0,B|184:128|184:128|232:112,1,90,8|0,0:0|0:0,0:0:0:0:
328,176,164898,2,0,B|368:144|368:144|384:96,1,90,8|0,0:0|0:0,0:0:0:0:
464,24,165231,2,0,B|504:48|504:48|504:112,1,90
504,208,165565,2,0,B|504:256|504:256|504:304|472:368|424:360,1,180,8|0,0:0|0:0,0:0:0:0:
328,320,166065,1,0,0:0:0:0:
208,320,166231,69,8,0:0:0:0:
168,341,166314,1,0,0:0:0:0:
124,348,166397,1,0,0:0:0:0:
83,332,166481,1,0,0:0:0:0:
54,298,166564,1,8,0:0:0:0:
41,255,166647,1,0,0:0:0:0:
46,211,166731,1,0,0:0:0:0:
71,174,166814,1,0,0:0:0:0:
111,154,166897,1,12,0:0:0:0:
224,112,167065,53,0,0:0:0:0:
200,224,167231,1,0,0:0:0:0:
320,208,167398,1,0,0:0:0:0:
320,208,167731,1,2,0:0:0:0:
400,96,167898,1,0,0:0:0:0:
480,208,168065,1,0,0:0:0:0:
424,312,168231,2,0,L|320:312,1,90,2|0,0:0|0:0,0:0:0:0:
216,312,168565,1,0,0:0:0:0:
320,208,168731,1,0,0:0:0:0:
264,104,168898,6,0,L|160:104,1,90,2|0,0:0|0:0,0:0:0:0:
48,192,169231,2,0,L|144:192,1,90,2|0,0:0|0:0,0:0:0:0:
256,192,169565,1,2,0:0:0:0:
216,312,169731,2,0,P|168:296|144:256,1,90
100,141,170065,2,0,P|208:144|256:192,1,180,2|0,0:0|0:0,0:0:0:0:
88,312,170565,1,0,0:0:0:0:
16,224,170731,1,2,0:0:0:0:
152,216,170898,69,0,0:0:0:0:
171,200,170981,1,0,0:0:0:0:
185,180,171064,1,0,0:0:0:0:
194,157,171148,1,0,0:0:0:0:
196,136,171231,1,0,0:0:0:0:
176,56,171398,1,0,0:0:0:0:
272,64,171565,1,2,0:0:0:0:
296,63,171648,1,0,0:0:0:0:
320,70,171731,1,0,0:0:0:0:
340,84,171815,1,0,0:0:0:0:
356,103,171898,1,2,0:0:0:0:
440,200,172065,1,0,0:0:0:0:
352,280,172231,6,0,P|400:312|440:312,1,90,2|0,0:0|0:0,0:0:0:0:
440,200,172565,1,0,0:0:0:0:
328,184,172731,2,0,P|272:216|256:328,1,180,2|0,0:0|0:0,0:0:0:0:
352,280,173231,1,0,0:0:0:0:
440,200,173398,1,0,0:0:0:0:
400,88,173565,70,0,P|416:40|456:32,2,90,2|0|0,0:0|0:0|0:0,0:0:0:0:
328,184,174065,1,2,0:0:0:0:
224,136,174231,2,0,B|136:176|136:112|48:156,1,180
0,272,174731,1,0,0:0:0:0:
112,328,174898,2,0,P|176:344|216:336,1,90,2|0,0:0|0:0,0:0:0:0:
344,248,175231,2,0,P|296:280|256:280,1,90
160,192,175565,2,0,P|208:216|256:208,1,90,2|0,0:0|0:0,0:0:0:0:
400,96,175898,2,0,P|352:136|312:144,1,90
160,192,176231,5,2,0:0:0:0:
160,192,176315,1,0,0:0:0:0:
160,192,176398,1,0,0:0:0:0:
160,192,176481,1,0,0:0:0:0:
160,192,176565,1,2,0:0:0:0:
160,192,176648,1,0,0:0:0:0:
160,192,176731,1,0,0:0:0:0:
160,192,176815,1,0,0:0:0:0:
160,192,176898,69,2,0:0:0:0:
163,213,176981,1,0,0:0:0:0:
169,233,177064,1,0,0:0:0:0:
179,253,177148,1,0,0:0:0:0:
191,270,177231,1,2,0:0:0:0:
206,286,177314,1,0,0:0:0:0:
223,299,177398,1,0,0:0:0:0:
242,309,177481,1,0,0:0:0:0:
263,316,177564,1,4,0:0:0:0:
352,336,177731,5,0,0:0:0:0:
424,280,177898,1,0,0:0:0:0:
336,232,178065,2,0,B|304:192|360:152|328:88,1,135.000005149842,2|0,0:0|0:0,0:0:0:0:
272,40,178565,1,0,0:0:0:0:
128,176,178731,1,0,0:0:0:0:
224,240,178898,2,0,P|192:296|112:280,1,135.000005149842,2|0,0:0|0:0,0:0:0:0:
64,240,179398,1,0,0:0:0:0:
128,176,179565,1,8,1:0:0:0:
256,56,179898,69,8,0:0:0:0:
256,56,179981,1,0,0:0:0:0:
256,56,180065,1,8,0:0:0:0:
256,56,180148,1,0,0:0:0:0:
256,56,180231,1,8,0:0:0:0:
344,72,180398,1,0,0:0:0:0:
304,152,180565,2,0,P|344:176|376:176,1,67.5000025749208,2|0,0:0|0:0,0:0:0:0:
416,248,180898,1,0,1:0:0:0:
352,312,181065,2,0,P|304:336|280:328,1,67.5000025749208,2|0,0:0|0:0,0:0:0:0:
216,296,181398,1,0,0:0:0:0:
176,216,181565,6,0,P|128:192|64:208,1,101.250003862381,2|0,0:0|0:0,0:0:0:0:
40,208,181898,2,0,P|24:168|64:104,1,101.250003862381,0|0,1:0|0:0,0:0:0:0:
80,112,182231,2,0,P|128:128|256:96,1,180,0|0,0:0|1:0,0:0:0:0:
352,48,182731,1,0,0:0:0:0:
448,120,182898,70,0,P|424:160|384:176,1,90,12|0,0:0|0:0,0:0:0:0:
280,232,183231,2,0,P|328:264|368:272,1,90,8|0,1:0|0:0,0:0:0:0:
448,120,183565,2,0,P|416:80|368:56,1,90,0|0,0:0|0:0,0:0:0:0:
256,24,183898,1,8,1:0:0:0:
160,96,184065,1,0,0:0:0:0:
240,176,184231,2,0,P|208:216|160:224,1,90
56,200,184565,1,8,1:0:0:0:
160,96,184731,1,0,0:0:0:0:
200,256,184898,2,0,P|184:304|136:320,1,90
56,200,185231,1,8,1:0:0:0:
160,96,185398,1,0,0:0:0:0:
296,64,185565,6,0,P|400:64|456:120,1,180,2|0,0:0|1:0,0:0:0:0:
216,320,186231,2,0,P|112:320|59:271,1,180,2|0,0:0|1:0,0:0:0:0:
428,224,186898,69,0,0:0:0:0:
433,203,186981,1,0,0:0:0:0:
432,181,187064,1,0,0:0:0:0:
427,160,187148,1,0,0:0:0:0:
415,142,187231,1,0,0:0:0:0:
400,127,187314,1,0,0:0:0:0:
381,116,187398,1,0,0:0:0:0:
360,111,187481,1,0,0:0:0:0:
339,112,187564,1,0,0:0:0:0:
228,148,187731,1,0,0:0:0:0:
156,240,187898,1,0,0:0:0:0:
232,336,188065,1,0,0:0:0:0:
352,304,188231,54,0,P|384:296|416:256,1,67.5000025749208,12|0,2:0|0:0,0:0:0:0:
336,200,188565,2,0,P|304:208|272:248,1,67.5000025749208,8|0,1:0|0:0,0:0:0:0:
408,272,188898,2,0,P|435:253|450:204,1,67.5000025749208
280,232,189231,2,0,P|252:250|237:299,1,67.5000025749208,8|0,1:0|0:0,0:0:0:0:
152,336,189565,2,0,P|112:328|88:296,1,67.5000025749208,8|0,0:0|0:0,0:0:0:0:
56,216,189898,1,8,1:0:0:0:
128,152,190065,2,0,P|96:132|64:128,1,67.5000025749208,8|0,0:0|0:0,0:0:0:0:
16,40,190398,1,0,0:0:0:0:
120,48,190565,2,0,P|152:64|192:56,1,67.5000025749208,8|0,1:0|0:0,0:0:0:0:
280,72,190898,6,0,L|280:160,1,67.5000025749208
360,72,191231,2,0,L|360:160,1,67.5000025749208,8|0,1:0|0:0,0:0:0:0:
440,240,191565,2,0,L|440:168,1,67.5000025749208
352,256,191898,2,0,L|352:336,1,67.5000025749208,8|0,1:0|0:0,0:0:0:0:
151,310,192231,1,0,0:0:0:0:
152,160,192398,1,0,0:0:0:0:
75,236,192565,1,8,1:0:0:0:
228,236,192732,1,0,0:0:0:0:
75,236,192898,1,8,0:0:0:0:
228,236,193065,1,0,0:0:0:0:
152,160,193231,2,0,P|160:128|192:96,1,67.5000025749208,8|0,1:0|0:0,0:0:0:0:
272,64,193565,70,0,P|304:88|344:88,1,67.5000025749208,4|0,2:0|0:0,0:0:0:0:
424,120,193898,2,0,P|392:160|368:168,1,67.5000025749208,8|0,1:0|0:0,0:0:0:0:
296,224,194231,2,0,P|320:264|344:272,1,67.5000025749208
432,312,194565,1,8,1:0:0:0:
344,360,194731,1,0,0:0:0:0:
240,360,194898,2,0,L|168:360,1,67.5000025749208
72,328,195231,1,8,1:0:0:0:
136,248,195398,2,0,P|176:224|192:200,1,67.5000025749208,0|8,0:0|0:0,0:0:0:0:
200,104,195731,1,0,0:0:0:0:
296,136,195898,2,0,B|344:108|376:168|440:128,1,135.000005149842,8|0,1:0|0:0,0:0:0:0:
496,56,196398,5,0,0:0:0:0:
392,40,196565,2,0,L|304:40,1,67.5000025749208,8|0,1:0|0:0,0:0:0:0:
296,136,196898,2,0,L|208:136,1,67.5000025749208
136,248,197231,2,0,L|224:248,1,67.5000025749208,8|0,1:0|0:0,0:0:0:0:
352,248,197565,1,0,0:0:0:0:
136,144,197731,1,2,0:0:0:0:
384,144,197898,1,0,1:0:0:0:
256,40,198065,1,0,0:0:0:0:
256,208,198231,69,2,0:0:0:0:
256,208,198315,1,0,0:0:0:0:
256,208,198398,1,2,0:0:0:0:
168,104,198565,1,0,1:0:0:0:
352,104,198732,1,0,1:0:0:0:
256,208,198898,2,0,P|256:264|272:280,1,67.5000025749208,12|0,0:0|0:0,0:0:0:0:
363,313,199231,2,0,P|368:296|360:248,1,67.5000025749208,8|0,1:0|0:0,0:0:0:0:
272,352,199565,1,0,0:0:0:0:
168,312,199731,1,0,0:0:0:0:
96,240,199898,6,0,P|64:280|56:312,1,67.5000025749208,8|0,1:0|0:0,0:0:0:0:
168,312,200231,70,0,P|200:272|208:240,1,67.5000025749208
200,120,200565,1,8,1:0:0:0:
104,56,200731,2,0,P|64:64|48:88,1,67.5000025749208
128,168,201065,1,0,0:0:0:0:
224,104,201231,2,0,B|288:80|304:152|360:136,1,135.000005149842,8|0,1:0|0:0,0:0:0:0:
448,112,201731,1,0,0:0:0:0:
424,208,201898,1,8,1:0:0:0:
424,208,202065,1,0,0:0:0:0:
472,296,202231,1,0,0:0:0:0:
472,296,202398,1,0,0:0:0:0:
376,320,202565,1,8,1:0:0:0:
376,320,202731,1,0,0:0:0:0:
328,232,202898,6,0,P|272:240|248:272,1,67.5000025749208
184,304,203231,1,8,1:0:0:0:
88,264,203398,2,0,P|72:208|112:144,1,135.000005149842
109,145,203898,1,8,1:0:0:0:
488,128,204231,70,0,B|488:160|488:160|488:184|472:208,1,67.5000025749208
392,248,204565,2,0,P|360:208|360:176,1,67.5000025749208,8|0,1:0|0:0,0:0:0:0:
416,112,204898,2,0,P|400:64|376:56,1,67.5000025749208
288,48,205231,1,8,1:0:0:0:
320,224,205398,1,0,0:0:0:0:
240,272,205565,2,0,P|200:272|160:256,1,67.5000025749208
96,200,205898,1,8,1:0:0:0:
200,184,206065,2,0,P|176:240|112:280,1,135.000005149842
115,279,206565,1,8,1:0:0:0:
472,72,206898,6,0,L|384:72,1,67.5000025749208,8|0,0:0|0:0,0:0:0:0:
200,184,207231,2,0,L|288:184,1,67.5000025749208,0|8,1:0|0:0,0:0:0:0:
392,328,207565,2,0,L|320:328,1,67.5000025749208
120,328,207898,2,0,L|216:328,1,67.5000025749208,8|0,1:0|0:0,0:0:0:0:
432,296,208231,2,0,L|344:296,1,67.5000025749208,8|0,0:0|0:0,0:0:0:0:
224,296,208565,1,8,1:0:0:0:
336,160,208731,1,0,0:0:0:0:
208,64,208898,69,8,0:0:0:0:
208,64,208981,1,0,0:0:0:0:
208,64,209065,1,8,0:0:0:0:
80,192,209231,1,0,1:0:0:0:
80,192,209398,1,0,1:0:0:0:
424,192,209565,37,8,0:0:0:0:
424,192,209731,1,8,0:0:0:0:
424,192,210398,37,8,0:0:0:0:
424,192,210565,2,0,P|360:224|336:216,1,90
80,192,210898,54,0,L|176:192,1,90,12|0,0:2|0:0,0:0:0:0:
376,96,211231,2,0,L|280:96,1,90,0|8,0:0|0:0,0:0:0:0:
48,240,211565,2,0,L|144:240,1,90
408,48,211898,2,0,L|312:48,1,90,8|0,0:0|0:0,0:0:0:0:
104,160,212231,2,0,L|208:160,1,90,8|0,0:0|0:0,0:0:0:0:
352,120,212565,2,0,L|256:120,1,90,8|0,0:0|0:0,0:0:0:0:
188,240,212898,1,0,0:0:0:0:
304,240,213065,1,0,0:0:0:0:
104,160,213231,1,8,0:0:0:0:
376,172,213398,1,8,0:0:0:0:
256,80,213565,6,0,P|208:56|160:72,1,90,12|0,0:2|0:0,0:0:0:0:
304,240,213898,2,0,P|335:283|385:290,1,90,0|8,0:0|0:0,0:0:0:0:
208,200,214231,2,0,P|154:201|119:238,1,90
401,154,214564,2,0,P|449:177|497:160,1,90,8|0,0:0|0:0,0:0:0:0:
456,56,214898,2,0,P|400:40|368:48,1,90
280,120,215231,1,8,0:0:0:0:
208,200,215398,2,0,P|168:232|120:224,1,90
32,168,215731,1,0,0:0:0:0:
64,56,215898,2,0,P|112:56|152:80,1,90,8|0,0:0|0:0,0:0:0:0:
208,200,216231,70,0,L|144:264,1,90,8|0,0:0|0:0,0:0:0:0:
280,120,216565,1,0,0:0:0:0:
400,160,216731,2,0,L|464:96,1,90,8|0,0:0|0:0,0:0:0:0:
400,288,217065,1,0,0:0:0:0:
248,304,217231,2,0,L|184:368,1,90,8|0,0:0|0:0,0:0:0:0:
72,152,217565,2,0,P|152:208|232:176,1,180
304,104,218065,1,8,0:0:0:0:
408,160,218231,2,0,L|352:232,1,90
128,224,218565,2,0,L|64:144,1,90,8|0,0:0|0:0,0:0:0:0:
255,83,218898,5,0,0:0:0:0:
364,191,219065,1,0,0:0:0:0:
147,192,219231,1,8,0:0:0:0:
256,300,219398,1,0,0:0:0:0:
255,61,219565,1,0,0:0:0:0:
386,191,219732,1,0,0:0:0:0:
125,192,219898,1,8,0:0:0:0:
256,322,220065,1,0,0:0:0:0:
197,158,220231,69,0,0:0:0:0:
314,158,220398,1,8,0:0:0:0:
255,259,220565,1,0,0:0:0:0:
256,98,220731,1,0,0:0:0:0:
336,238,220898,1,8,0:0:0:0:
175,238,221065,1,8,0:0:0:0:
352,128,221231,1,8,0:0:0:0:
160,128,221398,1,8,0:0:0:0:
256,322,221565,6,0,P|216:336|160:328,1,90,4|0,0:2|0:0,0:0:0:0:
32,240,221898,2,0,P|80:232|128:240,1,90,8|0,0:0|0:0,0:0:0:0:
232,216,222231,2,0,P|240:168|216:128,1,90
128,64,222565,2,0,P|176:32|224:32,1,90,8|0,0:0|0:0,0:0:0:0:
288,112,222898,2,0,P|336:128|384:120,1,90
480,72,223231,1,8,0:0:0:0:
368,48,223398,2,0,L|368:232,1,180
368,228,223898,1,8,0:0:0:0:
224,304,224065,1,8,0:0:0:0:
456,320,224231,70,0,P|480:272|464:224,1,90
264,216,224565,1,0,0:0:0:0:
288,64,224731,2,0,P|336:72|368:104,1,90,8|0,0:0|0:0,0:0:0:0:
368,228,225065,1,0,0:0:0:0:
302,337,225231,2,0,P|272:336|224:304,1,90,8|0,0:0|0:0,0:0:0:0:
180,191,225565,2,0,P|216:192|264:216,1,90,8|0,0:0|0:0,0:0:0:0:
64,216,225898,1,0,0:0:0:0:
48,96,226065,2,0,B|96:96|136:124|136:124|176:96|220:96,1,180,8|0,0:0|0:0,0:0:0:0:
264,216,226565,2,0,P|208:216|176:240,1,90,8|0,0:0|0:0,0:0:0:0:
256,328,226898,6,0,P|312:320|336:296,1,90,8|0,0:0|0:0,0:0:0:0:
400,200,227231,1,8,0:0:0:0:
464,96,227398,2,0,L|416:176,1,90,0|8,0:0|0:0,0:0:0:0:
256,200,227731,1,0,0:0:0:0:
48,96,227898,2,0,L|96:176,1,90,8|0,0:0|0:0,0:0:0:0:
256,328,228231,2,0,P|328:328|344:320,1,90,8|0,0:0|0:0,0:0:0:0:
256,200,228565,1,0,0:0:0:0:
256,56,228731,2,0,P|184:56|168:64,1,90,8|0,0:0|0:0,0:0:0:0:
256,200,229065,1,0,0:0:0:0:
295,333,229231,2,0,P|370:312|385:299,1,90,8|0,0:0|0:0,0:0:0:0:
214,50,229565,70,0,P|139:71|125:84,1,90,8|0,0:0|0:0,0:0:0:0:
348,307,229898,2,0,P|408:257|416:240,1,90,8|0,0:0|0:0,0:0:0:0:
162,77,230231,2,0,P|101:126|93:144,1,90,8|0,0:0|0:0,0:0:0:0:
449,285,230565,2,0,P|464:256|472:200,1,90,8|8,0:0|0:0,0:0:0:0:
40,48,230898,2,0,P|88:96|200:56,1,180,0|8,0:0|0:0,0:0:0:0:
216,56,231315,5,0,0:0:0:0:
258,69,231398,1,0,0:0:0:0:
295,95,231481,1,0,0:0:0:0:
321,131,231565,1,8,0:0:0:0:
334,174,231648,1,8,0:0:0:0:
334,219,231731,1,0,0:0:0:0:
318,261,231815,1,0,0:0:0:0:
291,296,231898,1,0,0:0:0:0:
253,320,231981,1,0,0:0:0:0:
210,332,232065,1,8,0:0:0:0:
165,329,232148,1,0,0:0:0:0:
124,312,232231,69,12,0:2:0:0:
56,216,232398,2,0,P|64:168|112:144,1,90
216,144,232731,1,0,0:0:0:0:
216,264,232898,2,0,P|168:256|136:216,1,90,8|0,0:0|0:0,0:0:0:0:
216,144,233231,2,0,P|272:152|296:184,1,90
328,288,233565,2,0,P|384:280|416:256,1,90,8|0,0:0|0:0,0:0:0:0:
336,168,233898,2,0,P|288:176|256:200,1,90,0|8,0:0|0:0,0:0:0:0:
255,200,234231,1,0,0:0:0:0:
152,248,234398,2,0,P|120:208|120:168,1,90,0|8,0:0|0:0,0:0:0:0:
119,170,234731,1,8,0:0:0:0:
168,64,234898,6,0,B|256:120|256:24|352:64,1,180
440,120,235398,2,0,P|464:168|464:208,1,90
392,296,235731,1,0,0:0:0:0:
280,256,235898,1,8,0:0:0:0:
352,160,236065,2,0,P|304:144|256:144,1,90,8|0,0:0|0:0,0:0:0:0:
193,240,236398,2,0,P|232:256|280:256,1,90,8|0,0:0|0:0,0:0:0:0:
195,135,236731,2,0,P|160:136|112:160,1,90,8|0,0:0|0:0,0:0:0:0:
108,264,237065,2,0,P|144:264|192:240,1,90,8|8,0:0|0:0,0:0:0:0:
16,200,237398,1,8,0:0:0:0:
240,56,237565,70,0,P|192:48|144:56,1,90,12|0,0:2|0:0,0:0:0:0:
112,160,237898,1,0,0:0:0:0:
208,224,238065,2,0,P|176:264|128:280,1,90,8|0,0:0|0:0,0:0:0:0:
256,344,238398,1,0,0:0:0:0:
304,224,238565,2,0,P|336:264|384:280,1,90,8|0,0:0|0:0,0:0:0:0:
424,152,238898,2,0,P|392:112|352:104,1,90,8|0,0:0|0:0,0:0:0:0:
235,175,239231,2,0,P|267:215|304:224,1,90,0|8,0:0|0:0,0:0:0:0:
232,64,239565,1,8,0:0:0:0:
344,32,239731,1,0,0:0:0:0:
448,88,239898,1,0,0:0:0:0:
327,156,240065,1,0,0:0:0:0:
144,336,240231,6,12,P|72:320|80:216,1,180,12|8,0:2|0:2,0:2:0:0:
68,227,240731,1,0,0:0:0:0:
327,156,240898,2,12,P|305:65|232:64,1,180,8|8,0:2|0:2,0:2:0:0:
231,64,241398,1,0,0:0:0:0:
240,320,241565,70,12,P|300:362|372:287,1,180,12|8,0:2|0:2,0:2:0:0:
36,164,242065,2,12,P|-8:245|44:296,1,180,12|8,0:2|0:2,0:2:0:0:
240,320,242565,1,8,0:0:0:0:
284,315,242648,1,0,0:0:0:0:
323,293,242731,1,0,0:0:0:0:
350,257,242815,1,0,0:0:0:0:
360,213,242898,5,12,0:2:0:0:
344,96,243065,1,0,0:0:0:0:
256,168,243231,2,0,P|248:216|272:248,1,90,0|8,0:0|0:0,0:0:0:0:
376,192,243565,2,0,P|392:144|360:104,1,90
256,80,243898,2,0,B|212:68|212:68|172:100,1,90
88,160,244231,2,0,P|104:208|144:224,1,90,8|0,0:0|0:0,0:0:0:0:
256,240,244565,1,8,0:0:0:0:
168,312,244731,2,0,P|96:336|32:264,1,180
32,266,245231,1,8,0:0:0:0:
256,80,245565,70,0,B|328:40|328:112|432:64,1,180,0|8,0:0|0:0,0:0:0:0:
480,176,246065,1,0,0:0:0:0:
360,184,246231,2,0,P|336:224|352:272,1,90
464,336,246565,2,0,P|473:296|449:256,1,90,8|0,0:0|0:0,0:0:0:0:
480,176,246898,1,8,0:0:0:0:
480,176,247065,1,0,0:0:0:0:
260,128,247231,1,8,0:0:0:0:
360,184,247398,1,0,0:0:0:0:
64,240,247565,1,8,0:0:0:0:
260,128,247731,1,0,0:0:0:0:
80,176,247898,1,8,0:0:0:0:
296,72,248065,1,0,0:0:0:0:
480,176,248231,6,0,P|440:216|400:224,1,90,12|0,0:2|0:0,0:0:0:0:
260,128,248565,1,0,0:0:0:0:
144,256,248731,2,0,P|192:280|240:280,1,90,8|0,0:0|0:0,0:0:0:0:
120,112,249065,1,0,0:0:0:0:
360,160,249231,2,0,P|320:192|320:240,1,90,8|0,0:0|0:0,0:0:0:0:
322,346,249565,2,0,P|360:344|400:312,1,90,8|0,0:0|0:0,0:0:0:0:
144,256,249898,1,8,0:0:0:0:
260,128,250065,2,0,P|220:96|180:88,1,90,0|8,0:0|0:0,0:0:0:0:
400,224,250398,1,0,0:0:0:0:
104,144,250565,2,0,P|72:192|80:232,1,90,8|0,0:0|0:0,0:0:0:0:
192,328,250898,69,8,0:0:0:0:
233,313,250981,1,0,0:0:0:0:
277,323,251064,1,0,0:0:0:0:
321,331,251148,1,0,0:0:0:0:
362,315,251231,1,8,0:0:0:0:
392,296,251315,1,0,0:0:0:0:
425,266,251398,1,0,0:0:0:0:
446,227,251481,1,0,0:0:0:0:
452,182,251565,5,8,0:0:0:0:
441,139,251648,1,0,0:0:0:0:
415,102,251731,1,8,0:0:0:0:
384,80,251815,1,0,0:0:0:0:
358,116,251898,1,8,0:0:0:0:
322,143,251981,1,8,0:0:0:0:
280,158,252065,1,0,0:0:0:0:
235,158,252148,1,0,0:0:0:0:
192,144,252231,53,4,2:0:0:0:
192,144,252731,1,12,2:0:0:0:
80,256,253231,1,0,0:0:0:0:
102,294,253314,1,0,0:0:0:0:
137,322,253397,1,0,0:0:0:0:
180,335,253481,1,0,0:0:0:0:
225,332,253564,1,12,0:2:0:0:
416,192,253898,6,0,B|360:192|360:192|328:216,1,90
256,296,254231,2,0,B|216:272|216:272|216:224,1,90,8|0,0:0|0:0,0:0:0:0:
216,112,254565,1,0,0:0:0:0:
96,112,254731,1,0,0:0:0:0:
176,24,254898,2,0,B|248:24|248:24|280:40,1,90,8|0,0:0|0:0,0:0:0:0:
280,152,255231,2,0,B|336:152|336:152|368:128,1,90
448,48,255565,2,0,B|488:72|488:72|488:120,1,90,8|0,0:0|0:0,0:0:0:0:
496,232,255898,1,0,0:0:0:0:
280,152,256065,1,0,0:0:0:0:
376,216,256231,6,0,B|376:264|376:264|336:296,1,90,8|0,0:0|0:0,0:0:0:0:
280,152,256565,2,0,B|280:104|280:104|240:80,1,90
128,72,256898,2,0,B|80:72|80:72|48:104,1,90,8|0,0:0|0:0,0:0:0:0:
40,216,257231,2,0,B|40:264|40:264|80:296,1,90
192,296,257565,2,0,B|248:296|248:296|264:256,1,90,8|0,0:0|0:0,0:0:0:0:
176,184,257898,2,0,B|136:160|136:160|136:112,1,90
256,104,258231,1,8,0:0:0:0:
64,104,258398,1,0,0:0:0:0:
248,240,258565,1,8,0:0:0:0:
72,312,258731,1,0,0:0:0:0:
184,352,258898,70,0,B|248:352|248:352|288:328,1,90
392,272,259231,2,0,B|424:248|424:248|424:192,1,90,8|0,0:0|0:0,0:0:0:0:
325,66,259565,2,0,B|296:96|296:96|296:144,1,90
426,197,259898,2,0,B|456:168|456:168|456:120,1,90,8|0,0:0|0:0,0:0:0:0:
248,240,260231,2,0,L|144:240,2,90
426,197,260731,1,0,0:0:0:0:
272,152,260898,2,0,L|176:152,1,90,0|8,0:0|0:0,0:0:0:0:
344,80,261231,2,0,L|440:80,1,90
464,192,261565,6,0,B|464:240|464:240|432:272,1,90,8|0,0:0|0:0,0:0:0:0:
352,352,261898,1,0,0:0:0:0:
240,176,262065,1,0,0:0:0:0:
272,280,262231,2,0,B|224:280|224:280|176:264,1,90,8|0,0:0|0:0,0:0:0:0:
96,192,262565,2,0,B|48:216|48:216|48:256,1,90
136,328,262898,2,0,B|184:304|184:304|184:264,1,90,8|0,0:0|0:0,0:0:0:0:
184,88,263231,1,8,0:0:0:0:
272,280,263398,1,0,0:0:0:0:
384,128,263565,1,8,0:0:0:0:
384,128,263648,1,8,0:0:0:0:
384,128,263731,1,8,0:0:0:0:
192,200,263898,1,0,0:0:0:0:
392,248,264065,1,0,0:0:0:0:
296,56,264231,70,0,B|336:32|336:32|392:32,1,90,12|0,0:2|0:0,0:0:0:0:
312,152,264565,2,0,B|272:176|272:176|216:176,1,90,0|0,0:2|0:0,0:0:0:0:
152,24,264898,2,0,B|96:24|96:24|64:56,1,90,8|0,0:0|0:0,0:0:0:0:
56,168,265231,2,0,L|56:264,1,90,8|8,0:0|0:0,0:0:0:0:
144,336,265565,1,0,0:0:0:0:
144,160,265731,1,0,0:0:0:0:
144,248,265898,2,0,L|248:248,1,90,8|0,0:0|0:0,0:0:0:0:
352,248,266231,1,0,0:0:0:0:
88,248,266398,1,0,0:0:0:0:
216,248,266565,2,0,B|216:200|216:200|264:176,1,90,8|0,0:0|0:0,0:0:0:0:
352,248,266898,6,0,B|389:229|389:229|389:181,1,90,8|0,0:0|0:0,0:0:0:0:
344,64,267231,2,0,B|304:88|304:88|304:136,1,90
216,248,267565,2,0,L|216:344,2,90,8|0|0,0:0|0:0|0:0,0:0:0:0:
216,128,268065,1,0,0:0:0:0:
96,72,268231,2,0,B|48:160|152:160|96:240,1,180,8|8,0:0|0:0,0:0:0:0:
32,336,268731,1,0,0:0:0:0:
152,352,268898,2,0,B|200:352|200:352|240:328,1,90,8|0,0:0|0:0,0:0:0:0:
392,168,269231,1,0,0:0:0:0:
296,280,269398,1,0,0:0:0:0:
392,168,269565,70,0,B|328:168|328:168|304:144,1,90,4|0,0:2|0:0,0:0:0:0:
384,56,269898,2,0,B|440:56|440:56|472:80,1,90
480,192,270231,2,0,B|480:248|480:248|448:272,1,90,8|0,0:0|0:0,0:0:0:0:
392,168,270565,2,0,B|392:112|392:112|416:88,1,90
512,16,270898,2,0,L|416:16,1,90,8|0,0:0|0:0,0:0:0:0:
264,112,271231,2,0,L|360:112,1,90
256,256,271565,2,0,L|160:256,1,90,8|0,0:0|0:0,0:0:0:0:
48,256,271898,1,8,0:0:0:0:
160,136,272065,1,0,0:0:0:0:
104,32,272231,6,0,L|200:32,1,90,8|0,0:0|0:0,0:0:0:0:
376,136,272565,2,0,L|280:136,1,90
168,256,272898,2,0,L|280:256,1,90,8|0,0:0|0:0,0:0:0:0:
376,256,273231,1,0,0:0:0:0:
232,136,273398,1,0,0:0:0:0:
416,80,273565,1,8,0:0:0:0:
280,224,273731,1,0,0:0:0:0:
304,64,273898,1,8,0:0:0:0:
456,184,274065,1,0,0:0:0:0:
352,320,274231,69,8,0:0:0:0:
318,349,274314,1,0,0:0:0:0:
277,367,274397,1,0,0:0:0:0:
232,369,274480,1,0,0:0:0:0:
189,356,274564,1,8,0:0:0:0:
153,330,274647,1,8,0:0:0:0:
128,293,274730,1,8,0:0:0:0:
116,250,274814,1,8,0:0:0:0:
119,206,274897,1,8,0:0:0:0:
176,216,288231,38,0,P|192:272|256:264,1,107.999996704102,12|0,0:0|0:0,0:0:0:0:
280,256,288731,1,0,0:0:0:0:
328,224,288898,2,0,P|376:216|416:272,1,107.999996704102
312,352,289565,2,0,B|208:280|208:376|104:320,1,215.999993408203
32,184,290565,1,2,0:0:0:0:
144,88,290898,70,0,L|32:88,1,107.999996704102
200,192,291565,2,0,L|312:192,1,107.999996704102,2|0,0:0|0:0,0:0:0:0:
448,192,292231,2,0,P|512:264|416:320,1,215.999993408203
304,288,293231,1,2,0:0:0:0:
168,272,293565,6,0,B|128:248|112:184|112:184|192:104,1,215.999993408203
256,0,294565,1,2,0:0:0:0:
322,106,294898,2,0,B|400:184|400:184|384:248|344:272,1,215.999993408203
256,384,295898,1,2,0:0:0:0:
256,264,296231,70,0,L|256:72,1,180
152,96,297231,1,2,0:0:0:0:
208,192,297565,2,0,L|304:192,1,90
368,104,298231,1,2,0:0:0:0:
256,32,298565,1,0,0:0:0:0:
256,192,298898,12,0,300231,0:0:0:0:
256,192,300898,5,2,2:0:0:0:
256,192,301231,1,2,2:0:0:0:
448,64,301565,38,0,P|472:112|480:152,1,90,12|0,0:2|0:0,0:0:0:0:
293,272,301898,2,0,P|280:256|256:192,1,90
168,100,302231,2,0,P|136:128|112:168,1,90,8|0,0:0|0:0,0:0:0:0:
328,80,302565,2,0,P|280:56|240:48,1,90
176,296,302898,2,0,P|216:320|272:336,1,90,8|0,0:0|0:0,0:0:0:0:
376,272,303231,2,0,P|400:240|408:192,1,90
168,100,303565,2,0,P|136:128|112:168,1,90,8|0,0:0|0:0,0:0:0:0:
272,40,303898,1,8,0:0:0:0:
216,192,304065,1,8,0:0:0:0:
328,152,304231,6,0,L|424:200,1,90,8|0,0:0|0:0,0:0:0:0:
456,304,304565,1,0,0:0:0:0:
320,368,304731,2,0,L|256:304,1,90,8|0,0:0|0:0,0:0:0:0:
216,192,305065,1,0,0:0:0:0:
272,40,305231,1,8,0:0:0:0:
400,160,305398,1,0,0:0:0:0:
216,192,305565,2,0,P|168:224|152:256,1,90,8|0,0:0|0:0,0:0:0:0:
48,152,305898,1,0,0:0:0:0:
176,96,306065,2,0,P|128:64|120:32,1,90,8|0,0:0|0:0,0:0:0:0:
240,16,306398,1,0,0:0:0:0:
48,152,306565,1,8,0:0:0:0:
200,296,306731,1,8,0:0:0:0:
312,344,306898,70,0,P|376:336|408:304,1,90,8|0,0:0|0:0,0:0:0:0:
456,224,307231,1,0,0:0:0:0:
400,120,307398,2,0,P|352:112|304:144,1,90,8|0,0:0|0:0,0:0:0:0:
248,224,307731,1,0,0:0:0:0:
128,232,307898,1,8,0:0:0:0:
72,128,308065,1,0,0:0:0:0:
152,40,308231,2,0,P|216:16|320:56,1,180,8|0,0:0|0:0,0:0:0:0:
200,184,308731,1,0,0:0:0:0:
396,296,308898,2,0,P|340:344|248:304,1,180,8|0,0:0|0:0,0:0:0:0:
320,264,309398,1,0,0:0:0:0:
448,192,309565,5,8,0:0:0:0:
336,152,309731,1,0,0:0:0:0:
472,120,309898,1,8,0:0:0:0:
272,208,310065,1,0,0:0:0:0:
432,56,310231,1,8,0:0:0:0:
272,296,310398,1,0,0:0:0:0:
360,56,310565,1,8,0:0:0:0:
328,336,310731,1,8,0:0:0:0:
336,152,310898,69,8,0:0:0:0:
313,113,310981,1,0,0:0:0:0:
277,86,311064,1,0,0:0:0:0:
234,74,311147,1,0,0:0:0:0:
190,80,311231,1,8,0:0:0:0:
151,103,311314,1,0,0:0:0:0:
124,138,311397,1,0,0:0:0:0:
112,181,311481,1,0,0:0:0:0:
117,225,311564,1,8,0:0:0:0:
152,352,311731,1,8,0:0:0:0:
240,192,311898,1,8,0:0:0:0:
16,192,312065,1,8,0:0:0:0:
128,40,312231,6,0,L|128:144,1,90,12|0,0:2|0:0,0:0:0:0:
192,240,312565,1,0,0:0:0:0:
208,48,312731,2,0,L|208:152,1,90,8|0,0:0|0:0,0:0:0:0:
272,248,313065,1,0,0:0:0:0:
288,56,313231,2,0,L|288:160,1,90,8|0,0:0|0:0,0:0:0:0:
360,248,313565,2,0,P|352:296|304:328,1,90,8|0,0:0|0:0,0:0:0:0:
192,240,313898,1,0,0:0:0:0:
56,168,314065,2,0,P|32:216|48:264,1,90,8|0,0:0|0:0,0:0:0:0:
192,240,314398,1,0,0:0:0:0:
352,360,314565,1,8,0:0:0:0:
488,240,314731,1,0,0:0:0:0:
368,120,314898,70,0,L|464:120,1,90,8|0,0:0|0:0,0:0:0:0:
320,40,315231,1,0,0:0:0:0:
320,200,315398,2,0,L|224:200,1,90,8|0,0:0|0:0,0:0:0:0:
368,280,315731,6,0,L|464:280,1,90,8|0,0:0|0:0,0:0:0:0:
320,200,316064,1,0,0:0:0:0:
320,360,316231,2,0,L|224:360,1,90,8|0,0:0|0:0,0:0:0:0:
104,352,316565,1,0,0:0:0:0:
200,272,316731,2,0,P|232:232|184:128,1,180,8|0,0:0|0:0,0:0:0:0:
56,152,317231,1,8,0:0:0:0:
200,272,317398,1,0,0:0:0:0:
296,92,317565,1,0,0:0:0:0:
392,192,317731,70,0,P|448:208|472:232,1,90,0|8,0:0|0:0,0:0:0:0:
432,352,318065,2,0,B|384:352|384:352|304:352|280:272,1,180
283,281,318565,1,0,0:0:0:0:
283,281,318731,1,8,0:0:0:0:
96,208,318898,2,0,P|80:160|96:112,1,90,8|0,0:0|0:0,0:0:0:0:
256,104,319231,1,0,0:0:0:0:
422,122,319398,2,0,P|432:160|416:208,1,90,8|0,0:0|0:0,0:0:0:0:
256,104,319731,1,0,0:0:0:0:
96,208,319898,1,8,0:0:0:0:
416,208,320065,1,0,0:0:0:0:
96,208,320231,6,0,P|104:272|128:296,1,90,8|0,0:0|0:0,0:0:0:0:
416,208,320565,2,0,P|400:160|368:136,1,90,8|0,0:0|0:0,0:0:0:0:
122,281,320898,2,0,P|159:333|191:343,1,90,8|0,0:0|0:0,0:0:0:0:
404,131,321232,2,0,P|368:96|328:89,1,90,8|0,0:0|0:0,0:0:0:0:
177,332,321565,2,0,P|234:362|267:356,1,90,8|0,0:0|0:0,0:0:0:0:
360,70,321899,2,0,P|312:55|274:68,1,90,8|0,0:0|0:0,0:0:0:0:
144,232,322231,69,8,0:0:0:0:
140,276,322314,1,0,0:0:0:0:
153,319,322397,1,0,0:0:0:0:
182,353,322480,1,0,0:0:0:0:
221,374,322564,1,8,0:0:0:0:
266,378,322647,1,0,0:0:0:0:
309,364,322730,1,0,0:0:0:0:
343,336,322814,1,0,0:0:0:0:
364,296,322897,1,8,0:0:0:0:
416,184,323065,5,0,0:0:0:0:
416,184,323231,1,8,0:0:0:0:
360,72,323398,2,0,B|272:120|272:24|184:72,1,180
189,68,323898,1,8,0:0:0:0:
48,176,324065,1,0,0:0:0:0:
104,304,324231,2,0,L|200:304,1,90,8|0,0:0|0:0,0:0:0:0:
280,184,324565,2,0,L|184:184,1,90,0|8,0:0|0:0,0:0:0:0:
48,176,324898,1,0,0:0:0:0:
189,68,325065,1,0,0:0:0:0:
280,184,325231,2,0,L|376:184,1,90,8|0,0:0|0:0,0:0:0:0:
472,264,325565,70,0,P|448:304|400:320,1,90,8|0,0:0|0:0,0:0:0:0:
288,296,325898,1,0,0:0:0:0:
280,168,326065,2,0,L|384:168,1,90,8|0,0:0|0:0,0:0:0:0:
480,112,326398,1,0,0:0:0:0:
368,56,326565,2,0,L|264:56,1,90,8|0,0:0|0:0,0:0:0:0:
160,104,326898,2,0,P|128:152|120:192,1,90,8|0,0:0|0:0,0:0:0:0:
368,240,327231,2,0,P|392:192|392:152,1,90,8|0,0:0|0:0,0:0:0:0:
96,272,327565,2,0,P|120:320|160:328,1,90,8|0,0:0|0:0,0:0:0:0:
416,112,327898,2,0,P|392:64|352:56,1,90,8|0,0:0|0:0,0:0:0:0:
200,304,328231,6,0,P|256:368|344:312,1,180,12|0,0:2|0:0,0:0:0:0:
400,224,328731,2,0,P|416:176|400:136,1,90,8|0,0:0|0:0,0:0:0:0:
320,48,329065,1,0,0:0:0:0:
288,168,329231,2,0,P|264:216|224:232,1,90,8|0,0:0|0:0,0:0:0:0:
136,144,329565,2,0,P|160:80|184:64,1,90,8|0,0:0|0:0,0:0:0:0:
320,90,329898,2,0,P|320:128|288:168,1,90,8|0,0:0|0:0,0:0:0:0:
256,296,330231,2,0,P|288:336|328:352,1,90,8|0,0:0|0:0,0:0:0:0:
488,312,330565,1,8,0:0:0:0:
80,56,330898,70,0,P|48:120|88:224,1,180,4|0,0:2|0:0,0:0:0:0:
184,288,331398,1,8,0:0:0:0:
496,120,331565,2,0,P|472:56|368:48,1,180,0|0,0:2|0:0,0:0:0:0:
280,136,332065,1,8,0:0:0:0:
96,336,332231,2,0,P|48:320|48:200,1,180,4|0,0:2|0:0,0:0:0:0:
280,136,332731,2,0,P|368:200|280:304,1,270,4|0,0:2|0:0,0:0:0:0:
256,304,333315,1,0,0:0:0:0:
211,298,333398,1,0,0:0:0:0:
174,273,333481,1,0,0:0:0:0:
152,234,333564,1,12,0:2:0:0:
144,112,333731,5,0,0:0:0:0:
280,136,333898,2,0,L|376:136,1,90,0|8,0:0|0:0,0:0:0:0:
480,200,334231,1,0,0:0:0:0:
376,264,334398,2,0,L|280:264,1,90,0|8,0:0|0:0,0:0:0:0:
152,234,334731,1,0,0:0:0:0:
144,112,334898,2,0,P|96:128|64:160,1,90,8|0,0:0|0:0,0:0:0:0:
40,280,335231,1,0,0:0:0:0:
152,234,335398,2,0,B|224:288|224:184|320:232,1,180,8|0,0:0|0:0,0:0:0:0:
432,288,335898,1,8,0:0:0:0:
144,56,336231,70,0,P|232:32|320:64,1,180
405,146,336731,2,0,P|312:184|240:160,1,180
504,64,337231,1,8,0:0:0:0:
504,192,337398,1,0,0:0:0:0:
416,280,337565,2,0,B|368:280|368:280|328:264,1,90,8|0,0:0|0:0,0:0:0:0:
248,152,337898,2,0,B|296:152|296:152|336:168,1,90,8|0,0:0|0:0,0:0:0:0:
256,296,338231,2,0,L|160:296,1,90,8|0,0:0|0:0,0:0:0:0:
48,128,338565,2,0,L|144:128,1,90,8|0,0:0|0:0,0:0:0:0:
448,136,338898,6,0,L|352:136,1,90,4|0,0:2|0:0,0:0:0:0:
248,152,339231,1,0,0:0:0:0:
328,248,339398,2,0,P|296:280|248:296,1,90,8|0,0:0|0:0,0:0:0:0:
128,296,339731,1,0,0:0:0:0:
24,216,339898,2,0,P|56:176|96:176,1,90,8|0,0:0|0:0,0:0:0:0:
195,254,340231,2,0,P|163:294|128:296,1,90,8|0,0:0|0:0,0:0:0:0:
224,120,340565,1,0,0:0:0:0:
328,56,340731,2,0,P|384:56|416:80,1,90,8|0,0:0|0:0,0:0:0:0:
480,184,341065,1,0,0:0:0:0:
400,280,341231,1,8,0:0:0:0:
328,56,341398,1,0,0:0:0:0:
256,192,341565,69,8,0:0:0:0:
256,192,341648,1,0,0:0:0:0:
256,192,341731,1,0,0:0:0:0:
256,192,341815,1,0,0:0:0:0:
256,192,341898,1,8,0:0:0:0:
256,192,341981,1,0,0:0:0:0:
256,192,342065,1,0,0:0:0:0:
256,192,342148,1,0,0:0:0:0:
256,192,342231,5,8,0:0:0:0:
256,192,342315,1,8,0:0:0:0:
256,192,342398,1,8,0:0:0:0:
256,192,342481,1,8,0:0:0:0:
256,192,342565,1,8,0:0:0:0:
256,192,342648,1,0,0:0:0:0:
256,192,342731,1,0,0:0:0:0:
256,192,342815,1,0,0:0:0:0:
256,192,342898,69,8,0:0:0:0:
246,235,342981,1,8,0:0:0:0:
217,268,343065,1,8,0:0:0:0:
175,283,343147,1,0,0:0:0:0:
131,274,343231,1,0,0:0:0:0:
97,245,343314,1,0,0:0:0:0:
82,204,343397,1,0,0:0:0:0:
90,160,343481,1,0,0:0:0:0:
112,128,343565,2,0,L|80:96,3,45,8|0|0|0,0:0|0:0|0:0|0:0,0:0:0:0:
144,104,343898,5,8,0:0:0:0:
176,73,343981,1,0,0:0:0:0:
217,54,344064,1,0,0:0:0:0:
261,50,344147,1,0,0:0:0:0:
305,60,344231,1,12,0:2:0:0:
416,128,344398,37,0,0:0:0:0:
448,248,344565,1,0,0:0:0:0:
344,320,344731,1,0,0:0:0:0:
216,328,344898,2,0,L|120:328,1,90,8|0,0:0|0:0,0:0:0:0:
256,224,345231,2,0,L|352:224,1,90
416,128,345565,2,0,L|512:128,2,90,8|0|0,0:0|0:0|0:0,0:0:0:0:
256,64,346065,1,0,0:0:0:0:
96,128,346231,2,0,L|0:128,2,90,8|0|0,0:0|0:0|0:0,0:0:0:0:
256,224,346731,1,0,0:0:0:0:
352,328,346898,6,0,B|312:352|312:352|264:352,1,90,8|0,0:0|0:0,0:0:0:0:
152,296,347231,2,0,B|200:272|200:272|240:272,1,90,0|8,0:0|0:0,0:0:0:0:
344,208,347565,2,0,B|304:176|304:176|264:176,1,90
144,200,347898,2,0,B|96:200|96:200|48:176,1,90,8|0,0:0|0:0,0:0:0:0:
136,80,348231,2,0,B|192:80|192:80|232:96,1,90,8|0,0:0|0:0,0:0:0:0:
336,152,348565,1,8,0:0:0:0:
144,200,348731,1,0,0:0:0:0:
240,288,348898,2,0,B|208:328|208:328|160:328,1,90,8|0,0:0|0:0,0:0:0:0:
144,200,349231,2,0,B|176:160|176:160|224:160,1,90,8|0,0:0|0:0,0:0:0:0:
360,312,349565,70,0,B|408:312|408:312|448:280,1,90,8|0,0:0|0:0,0:0:0:0:
464,160,349898,2,0,L|360:160,1,90
136,112,350231,2,0,L|226:112,1,90,8|0,0:0|0:0,0:0:0:0:
400,16,350565,2,0,L|288:16,1,90
184,16,350898,1,8,0:0:0:0:
288,136,351065,1,8,0:0:0:0:
128,216,351231,1,0,0:0:0:0:
264,320,351398,1,0,0:0:0:0:
136,336,351565,2,0,L|40:336,1,90,8|0,0:0|0:0,0:0:0:0:
128,216,351898,2,0,L|224:216,1,90
384,136,352231,6,0,L|288:136,1,90,8|0,0:0|0:0,0:0:0:0:
192,64,352565,1,0,0:0:0:0:
312,32,352731,2,0,B|368:32|368:32|456:32|480:96,1,180,8|0,0:0|0:0,0:0:0:0:
480,208,353231,2,0,B|480:256|480:256|440:288,1,90,8|0,0:0|0:0,0:0:0:0:
308,348,353565,69,0,0:0:0:0:
166,245,353731,1,0,0:0:0:0:
341,245,353898,1,0,0:0:0:0:
199,347,354065,1,0,0:0:0:0:
254,181,354231,1,0,0:0:0:0:
254,181,354315,1,0,0:0:0:0:
254,181,354398,1,0,0:0:0:0:
256,276,354565,1,0,0:0:0:0:
256,56,354731,1,0,0:0:0:0:
352,208,354898,6,0,P|424:208|448:192,1,90,12|0,0:2|0:0,0:0:0:0:
368,96,355231,2,0,P|320:96|280:120,1,90
256,272,355565,1,0,0:0:0:0:
134,223,355731,1,0,0:0:0:0:
256,144,355898,2,0,P|192:112|168:112,1,90
72,168,356231,2,0,P|96:208|144:224,1,90,8|0,0:0|0:0,0:0:0:0:
256,272,356565,2,0,P|216:304|176:320,1,90
72,168,356898,2,0,P|112:136|160:120,1,90,8|0,0:0|0:0,0:0:0:0:
256,184,357231,2,0,P|312:192|360:184,1,90
392,72,357565,70,0,P|448:64|480:72,2,90,8|0|0,0:0|0:0|0:0,0:0:0:0:
256,184,358065,2,0,P|312:224|400:176,1,180,8|0,0:0|0:0,0:0:0:0:
312,80,358565,2,0,P|256:72|224:80,1,90,8|0,0:0|0:0,0:0:0:0:
120,144,358898,2,0,L|120:240,1,90,8|0,0:0|0:0,0:0:0:0:
208,360,359231,2,0,L|208:264,1,90,8|0,0:0|0:0,0:0:0:0:
208,144,359565,1,8,0:0:0:0:
352,288,359731,1,0,0:0:0:0:
64,288,359898,1,8,0:0:0:0:
208,240,360065,1,8,0:0:0:0:
208,112,360231,6,0,B|208:80|208:56|248:32,1,90,0|0,0:0|0:0,0:0:0:0:
368,32,360565,2,0,P|416:40|448:80,1,90,0|8,0:0|0:0,0:0:0:0:
472,192,360898,2,0,P|448:240|416:256,1,90
208,240,361231,1,8,0:0:0:0:
264,352,361398,1,0,0:0:0:0:
136,328,361565,2,0,P|96:304|80:256,1,90,8|0,0:0|0:0,0:0:0:0:
154,176,361898,2,0,P|176:184|208:240,1,90
40,128,362231,2,0,P|72:88|112:72,1,90,8|0,0:0|0:0,0:0:0:0:
232,48,362565,1,0,0:0:0:0:
208,240,362731,1,0,0:0:0:0:
304,144,362898,70,0,P|344:168|368:208,1,90,8|0,0:0|0:0,0:0:0:0:
398,339,363231,2,0,P|368:344|312:328,1,90,8|0,0:0|0:0,0:0:0:0:
448,160,363565,2,0,P|480:184|488:232,1,90,8|0,0:0|0:0,0:0:0:0:
352,72,363898,1,8,0:0:0:0:
352,220,364065,1,8,0:0:0:0:
216,96,364231,2,0,L|216:192,1,90,8|0,0:0|0:0,0:0:0:0:
104,312,364565,2,0,L|104:216,1,90,0|8,0:0|0:0,0:0:0:0:
112,88,364898,5,8,0:0:0:0:
137,52,364981,1,0,0:0:0:0:
179,38,365064,1,0,0:0:0:0:
221,52,365147,1,0,0:0:0:0:
247,87,365231,1,8,0:0:0:0:
272,120,365315,1,0,0:0:0:0:
302,152,365398,1,0,0:0:0:0:
345,159,365481,1,0,0:0:0:0:
384,137,365564,69,12,0:2:0:0:
496,64,365731,1,0,0:0:0:0:
496,200,365898,2,0,L|496:296,1,90,0|0,0:0|0:0,0:0:0:0:
368,336,366231,2,0,L|264:336,1,90,8|0,0:0|0:0,0:0:0:0:
128,208,366565,2,0,L|224:208,1,90
352,208,366898,5,8,0:0:0:0:
256,72,367065,1,0,0:0:0:0:
432,72,367231,1,0,0:0:0:0:
432,72,367398,1,0,0:0:0:0:
352,208,367565,1,8,0:0:0:0:
352,208,367731,1,0,0:0:0:0:
256,72,367898,1,0,0:0:0:0:
256,72,368065,1,0,0:0:0:0:
200,192,368231,70,0,L|200:288,1,90,8|0,0:0|0:0,0:0:0:0:
96,192,368565,2,0,L|96:288,1,90,8|0,0:0|0:0,0:0:0:0:
96,104,368898,2,0,L|96:8,1,90
200,104,369231,2,0,L|200:8,1,90
328,64,369565,2,0,B|384:64|384:64|416:88,1,90,8|0,0:0|0:0,0:0:0:0:
464,208,369898,2,0,B|408:208|408:208|376:184,1,90,8|0,0:0|0:0,0:0:0:0:
200,104,370231,1,0,0:0:0:0:
264,272,370398,1,0,0:0:0:0:
96,248,370565,1,8,0:0:0:0:
56,80,370731,1,8,0:0:0:0:
264,272,370898,6,0,B|320:272|320:272|352:256,1,90,8|0,0:0|0:0,0:0:0:0:
363,120,371231,2,0,B|320:120|320:120|280:144,1,90
385,184,371565,2,0,B|416:200|416:200|472:200,1,90,8|0,0:0|0:0,0:0:0:0:
456,72,371898,2,0,B|416:48|416:48|368:48,1,90
240,48,372231,1,8,0:0:0:0:
240,48,372398,1,0,0:0:0:0:
256,240,372565,1,0,0:0:0:0:
256,240,372731,1,0,0:0:0:0:
104,152,372898,69,8,0:0:0:0:
104,152,373065,1,0,0:0:0:0:
144,328,373231,1,0,0:0:0:0:
144,328,373398,1,0,0:0:0:0:
280,336,373565,2,0,B|336:336|336:336|368:312,1,90,8|0,0:0|0:0,0:0:0:0:
472,240,373898,2,0,B|440:208|440:208|392:208,1,90,8|0,0:0|0:0,0:0:0:0:
256,208,374231,2,0,B|256:160|256:160|216:128,1,90,8|0,0:0|0:0,0:0:0:0:
104,88,374565,2,0,B|144:48|144:48|184:48,1,90,8|0,0:0|0:0,0:0:0:0:
312,48,374898,5,8,0:0:0:0:
200,184,375065,1,0,0:0:0:0:
392,176,375231,1,8,0:0:0:0:
288,312,375398,1,0,0:0:0:0:
288,144,375565,1,8,0:0:0:0:
288,144,375648,1,8,0:0:0:0:
288,144,375731,1,0,0:0:0:0:
104,88,375898,1,8,0:0:0:0:
288,144,376065,1,0,0:0:0:0:
200,248,376231,70,0,B|200:304|200:304|224:328,1,90,12|0,0:2|0:0,0:0:0:0:
352,296,376565,2,0,B|392:272|392:272|392:216,1,90
392,96,376898,2,0,B|392:48|392:48|352:24,1,90,8|0,0:0|0:0,0:0:0:0:
288,144,377231,2,0,B|288:192|288:192|256:232,1,90
168,128,377565,2,0,L|168:32,1,90,8|0,0:0|0:0,0:0:0:0:
64,128,377898,2,0,L|64:224,1,90
64,352,378231,1,8,0:0:0:0:
168,128,378398,1,0,0:0:0:0:
248,240,378565,1,0,0:0:0:0:
344,48,378731,1,0,0:0:0:0:
456,120,378898,6,0,B|456:176|456:176|432:208,1,90,8|8,0:0|0:0,0:0:0:0:
248,240,379231,2,0,B|248:192|248:192|272:152,1,90,0|8,0:0|0:0,0:0:0:0:
376,248,379565,2,0,B|376:296|376:296|344:336,1,90
248,240,379898,2,0,B|248:192|248:192|216:152,1,90,8|0,0:0|0:0,0:0:0:0:
88,192,380231,2,0,B|88:144|88:144|120:112,1,90,8|0,0:0|0:0,0:0:0:0:
256,56,380565,2,0,L|352:56,1,90,8|0,0:0|0:0,0:0:0:0:
480,176,380898,2,0,L|384:176,1,90,8|0,0:0|0:0,0:0:0:0:
256,296,381231,2,0,L|352:296,1,90,8|0,0:0|0:0,0:0:0:0:
480,176,381565,70,0,B|480:128|480:128|440:96,1,90,8|0,0:0|0:0,0:0:0:0:
256,56,381898,2,0,L|160:56,1,90
48,176,382231,2,0,L|144:176,1,90,8|0,0:0|0:0,0:0:0:0:
272,176,382565,2,0,B|320:200|320:200|320:240,1,90
216,328,382898,5,8,0:0:0:0:
48,176,383065,1,0,0:0:0:0:
176,208,383231,1,8,0:0:0:0:
240,48,383398,1,0,0:0:0:0:
112,80,383565,1,8,0:0:0:0:
272,176,383731,1,8,0:0:0:0:
360,72,383898,1,8,0:0:0:0:
368,264,384065,1,8,0:0:0:0:
216,328,384231,69,8,0:0:0:0:
171,324,384314,1,0,0:0:0:0:
133,301,384397,1,0,0:0:0:0:
109,263,384480,1,0,0:0:0:0:
104,219,384564,5,8,0:0:0:0:
120,177,384647,1,0,0:0:0:0:
153,147,384730,1,0,0:0:0:0:
184,136,384815,1,0,0:0:0:0:
224,128,384898,2,0,L|216:80,7,45,8|0|0|0|8|8|0|0,0:0|0:0|0:0|0:0|0:0|0:0|0:0|0:0,0:0:0:0:
264,128,385565,5,8,0:0:0:0:
304,146,385648,1,8,0:0:0:0:
330,182,385731,1,0,0:0:0:0:
356,212,385814,1,0,0:0:0:0:
388,228,385898,1,0,0:0:0:0:
422,199,385981,1,0,0:0:0:0:
444,160,386064,1,0,0:0:0:0:
448,116,386147,1,0,0:0:0:0:
432,80,386231,6,0,L|392:48,1,45,8|8,0:0|0:0,0:0:0:0:
360,48,386398,2,0,L|304:40,1,45,8|8,0:0|0:0,0:0:0:0:
280,40,386565,2,0,L|232:48,1,45,8|8,0:0|0:0,0:0:0:0:
200,56,386731,2,0,L|144:72,1,45,8|12,0:0|2:0,0:0:0:0:
