osu file format v6

[General]
AudioFilename: Yousei Teikoku - Valkyrja.mp3
AudioLeadIn: 3000
PreviewTime: -1
Countdown: 1
SampleSet: Normal
StackLeniency: 0.2
Mode: 0
LetterboxInBreaks: 1
StoryFireInFront: 0

[Editor]
Bookmarks: 15114,21811,37069,47735,57735,65068,69068,71956
DistanceSpacing: 0.800000011920929
BeatDivisor: 3
GridSize: 32

[Metadata]
Title:Valkyrja
Artist:Yousei Teikoku
Creator:Nightfall91
Version:Normal
Source:
Tags:yousei teikoku valkyrja

[Difficulty]
HPDrainRate:5
CircleSize:5
OverallDifficulty:5
SliderMultiplier:1.3
SliderTickRate:2

[Events]
//Background and Video events
//Break Periods
2,47269,57868
2,74601,101421
//Storyboard Layer 0 (Background)
//Storyboard Layer 1 (Fail)
//Storyboard Layer 2 (Pass)
//Storyboard Layer 3 (Foreground)
//Storyboard Sound Samples
//Background Colour Transformations
3,100,163,162,255

[TimingPoints]
5737.85186635696,666.633858767304,4,1,0,100,1,0

[HitObjects]
32,192,5737,5,0
96,192,6404,1,0
160,192,7071,1,0
224,192,7737,1,0
288,192,8404,1,0
352,192,9071,1,0
416,192,9737,1,0
480,192,10404,1,0
480,192,11070,1,0
416,192,11737,1,0
352,192,12404,1,0
288,192,13070,1,0
224,192,13737,1,0
160,192,14404,1,0
96,192,15070,1,0
288,32,16403,5,0
224,96,17070,1,0
288,160,17737,1,0
224,224,18403,1,0
288,224,19070,1,0
224,160,19737,1,0
288,96,20403,1,0
224,32,21070,1,0
160,64,21737,5,0
64,64,22403,1,0
64,160,23070,1,0
160,160,23736,1,0
160,256,24403,1,0
64,256,25070,1,0
64,160,25736,1,0
128,64,27070,5,0
128,64,27736,1,0
192,128,28403,1,0
256,192,29070,1,0
320,128,29736,1,0
384,64,30403,1,0
384,320,31069,5,0
320,256,31736,1,0
256,192,32403,1,0
192,256,33069,1,0
128,320,33736,1,0
64,384,34403,1,0
64,384,35069,1,0
384,224,37736,1,0
480,128,38402,1,0
480,224,39069,1,0
384,128,39736,1,0
320,64,40402,1,0
256,128,41069,1,0
192,64,41736,1,0
128,128,42402,1,0
32,224,43069,1,0
32,128,43735,1,0
128,224,44402,1,0
192,288,45069,1,0
320,288,45735,1,0
256,224,46402,1,0
192,288,47069,1,0
64,64,59068,5,0
128,128,59512,1,0
192,192,59957,1,0
256,192,60401,2,0,B,1,130
448,128,61735,1,0
448,256,62179,1,0
384,192,62623,1,0
288,192,63512,1,0
288,192,63734,1,0
192,256,65734,1,0
288,256,66401,1,0
64,192,67068,1,0
128,160,67734,2,0,B|224:96,1,86.6666666666667
256,64,68401,1,0
320,96,69734,6,0,B|224:160,1,86.6666666666667
192,192,71067,1,0
256,192,71290,1,0
320,192,71734,1,0
320,192,72401,1,0
256,192,72623,1,0
192,192,73067,1,0
192,192,73734,5,0
192,192,73956,1,0
192,192,74401,1,0
96,128,102621,5,0
