osu file format v9

[General]
AudioFilename: 01 - Valkyrja.mp3
AudioLeadIn: 2000
PreviewTime: 37545
Countdown: 2
SampleSet: Normal
StackLeniency: 0.7
Mode: 0
LetterboxInBreaks: 1

[Editor]
Bookmarks: 37545,58879,69545,124212,144879,145212
DistanceSpacing: 1
BeatDivisor: 4
GridSize: 8

[Metadata]
Title:Valkyrja (Full Version)
Artist:Yousei Teikoku
Creator:Danzai
Version:CXu
Source:
Tags:

[Difficulty]
HPDrainRate:8
CircleSize:4
OverallDifficulty:8
ApproachRate:8
SliderMultiplier:1.5
SliderTickRate:1

[Events]
//Background and Video events
0,0,"danzai1.jpg"
//Break Periods
2,27079,36795
//Storyboard Layer 0 (Background)
//Storyboard Layer 1 (Fail)
//Storyboard Layer 2 (Pass)
//Storyboard Layer 3 (Foreground)
//Storyboard Sound Samples
//Background Colour Transformations
3,100,163,162,255

[TimingPoints]
5546,333.333333333333,4,1,2,70,1,0
88629,-100,4,1,2,45,0,0
89129,-100,4,1,2,50,0,0
89462,-100,4,1,2,55,0,0
89795,-100,4,1,2,60,0,0
90129,-100,4,1,2,65,0,0
90462,-100,4,1,2,70,0,0
103795,-100,4,1,2,50,0,0
105129,-100,4,1,2,70,0,0
106462,-100,4,1,2,50,0,0
107795,-100,4,1,2,70,0,0
114379,-100,4,1,2,50,0,0
115712,-100,4,1,2,70,0,0
117129,-100,4,1,2,50,0,0
118462,-100,4,1,2,70,0,0
132087,-100,4,1,2,5,0,0
132170,-100,4,1,2,70,0,0

[Colours]
Combo1 : 128,0,128
Combo2 : 128,128,255

[HitObjects]
144,80,16212,5,4
32,192,16545,1,0
144,304,16879,1,0
256,192,17212,1,0
368,80,17545,5,0
480,192,17878,1,0
368,304,18212,1,0
256,192,18545,1,0
256,296,18879,6,0,B|168:296|104:240,1,150
256,296,19545,2,0,B|344:296|408:240,1,150
256,88,20212,6,0,B|168:88|104:144,1,150
256,88,20878,2,0,B|344:88|408:144,1,150
440,264,21545,5,4
384,120,21879,1,0
336,264,22212,1,0
280,120,22546,1,0
232,264,22879,5,0
176,120,23213,1,0
128,264,23546,1,0
72,120,23880,1,0
136,33,24212,6,0,B|160:104|256:136|352:104|376:32,1,300
448,112,25212,1,0
384,152,25379,1,0
320,192,25545,1,0
256,232,25712,1,0
256,336,25879,5,0
256,336,26045,1,0
184,320,26212,1,0
152,296,26295,1,0
128,264,26379,1,0
112,232,26462,1,0
104,192,26545,1,0
112,152,26629,1,0
128,120,26712,1,0
152,88,26796,1,0
184,64,26879,1,4
380,299,37545,6,0,B|460:243,1,75,4|0
468,187,37879,2,0,B|436:99|340:83,1,150,8|0
292,83,38379,1,0
220,83,38545,1,8
132,299,38879,6,0,B|52:243,1,75
44,187,39213,2,0,B|76:99|172:83,1,150,8|0
220,83,39713,1,0
292,83,39879,1,8
208,256,40212,6,0,B|208:344,1,75
304,224,40545,2,0,B|304:136,1,75,8|0
240,192,40879,2,0,B|152:192,1,75
272,288,41212,2,0,B|360:288,1,75,8|0
286,338,41545,6,0,B|232:284,1,75
225,141,41878,2,0,B|278:194,1,75,8|0
354,209,42212,2,0,B|300:262,1,75
157,270,42545,2,0,B|210:216,1,75,8|0
304,56,42879,5,4
368,96,43045,1,0
432,56,43212,1,8
208,56,43545,5,0
144,96,43711,1,0
80,56,43878,1,8
208,128,44212,6,0,B|176:176|240:224|208:272,1,150,0|8
256,336,44712,1,0
304,272,44879,2,0,B|336:224|272:176|304:128,1,150,0|8
336,64,45379,1,0
408,48,45545,6,0,B|456:64|464:128,1,75
392,136,45879,2,0,B|392:216,1,75,8|0
320,232,46212,2,0,B|321:268|369:284,1,75
440,288,46545,1,8
496,336,46712,1,0
424,360,46879,2,0,B|256:328|96:368,1,300
96,344,47629,1,0
64,328,47712,1,0
64,328,47879,1,8
80,184,48212,6,0,B|80:104,1,75,4|0
144,72,48545,2,0,B|144:168,1,75,8|0
216,112,48879,2,0,B|304:112,1,75
344,168,49212,2,0,B|248:168,1,75,8|0
256,240,49545,5,0
304,304,49712,1,0
376,336,49879,1,8
304,304,50045,1,0
256,240,50212,1,0
208,304,50379,1,0
136,336,50546,1,8
208,304,50712,1,0
256,240,50879,6,0,B|200:168,1,75
256,240,51212,2,0,B|312:168,1,75,8|0
256,160,51545,2,0,B|200:88,1,75
256,160,51878,2,0,B|312:88,1,75,8|0
256,40,52212,2,0,B|80:40,1,150,0|8
256,40,52879,2,0,B|432:40,1,150,0|8
472,176,53545,6,0,B|496:256|448:336,2,150,4|8|0
368,240,54545,1,8
263,303,54879,2,0,B|240:224|279:158,2,150,0|8|0
368,240,55879,1,8
279,158,56212,6,0,B|112:160,1,150,0|8
8,248,56879,2,0,B|192:248,1,150,0|8
288,328,57545,5,0
352,296,57712,1,0
400,240,57879,1,8
256,192,58212,2,0,B|256:248,2,37.5
216,128,58545,1,8
168,64,58712,1,0
128,56,58795,1,0
88,64,58879,1,6
128,144,59045,5,0
128,216,59212,1,10
128,288,59379,1,0
264,328,59712,5,0
312,264,59879,1,10
336,192,60045,1,0
336,120,60212,2,0,B|424:120,1,75,2|0
488,120,60545,2,0,B|504:152|488:200,1,75,10|0
424,232,60879,2,2,B|352:264|312:360,1,150,2|8
322,337,61545,5,2
248,344,61712,1,0
176,352,61879,1,10
128,296,62045,2,0,B|32:160,1,150
64,104,62545,5,10
128,64,62712,1,0
200,56,62879,2,0,B|200:120,4,37.5,0|0|0|0|8
312,56,63545,2,0,B|312:120,4,37.5,0|0|0|0|8
384,64,64045,1,0
448,104,64212,1,6
384,144,64379,5,0
384,216,64545,1,10
384,288,64713,1,0
240,312,65045,5,0
200,248,65212,1,10
216,176,65378,1,0
144,176,65545,2,0,B|56:176,1,75,2|0
104,112,65879,2,0,B|200:112,1,75,10|0
256,112,66212,2,0,B|328:144|368:240,1,150,2|8
358,307,66712,1,0
288,336,66879,5,2
424,272,67212,1,10
424,112,67545,1,2
288,48,67878,1,10
400,200,68212,6,0,B|336:173,3,37.5
328,192,68545,2,0,B|264:208,3,37.5,8|0|0|0
264,176,68879,2,0,B|224:152,3,37.5
240,120,69212,2,0,B|200:72,3,37.5,8|0|0|0
192,64,69545,6,0,B|96:96|136:208,1,150,6|10
128,181,70045,1,0
320,64,70379,1,0
320,64,70545,2,0,B|416:96|376:208,1,150,10|2
320,224,71045,2,0,B|360:296,1,75,0|10
256,264,71379,2,0,B|256:344,1,75,0|2
192,224,71712,2,0,B|152:296,1,75,0|8
256,176,72045,1,0
344,96,72212,5,2
344,96,72379,2,0,B|280:40|184:64,1,150
136,88,72879,1,0
72,128,73045,2,0,B|24:216,1,75,0|10
32,272,73379,1,0
80,328,73545,2,0,B|152:272,1,75,2|0
176,344,73879,2,0,B|264:344,1,75,10|0
320,368,74212,2,0,B|368:296|320:216,1,150,2|8
184,56,74879,5,6
111,35,75046,1,0
55,79,75213,1,10
57,154,75379,1,0
200,192,75712,2,0,B|304:192,2,75,0|10|0
160,256,76212,2,0,B|120:288|144:344,1,75,2|0
223,302,76545,2,0,B|213:352|267:380,1,75,10|0
304,312,76879,1,2
472,168,77212,5,8
440,104,77379,1,0
400,40,77545,1,2
184,104,77879,5,10
256,328,78212,1,2
328,104,78545,1,10
256,248,78879,6,0,B|304:248,6,37.5,0|0|0|0|8|0|0
184,248,79545,1,2
152,224,79629,1,0
128,192,79712,1,0
112,120,79879,1,10
136,48,80045,1,0
200,16,80212,1,6
256,192,80295,12,0,81212
256,328,81545,6,0,B|168:328|120:248,1,150,2|8
240,240,82045,2,0,B|328:240|376:320,1,150,2|0
367,306,82545,1,8
440,176,82879,6,0,B|416:96,1,75
360,152,83212,2,0,B|304:104,1,75,8|0
208,103,83545,2,0,B|152:152,1,75
93,104,83878,2,0,B|72:176,1,75,8|0
184,224,84212,2,0,B|352:224,1,150,2|8
334,299,84712,2,0,B|166:299,1,150,2|0
184,299,85212,1,8
256,48,85545,5,4
256,192,85629,12,8,86545
96,72,86879,5,2
96,72,87045,1,0
104,144,87212,2,0,B|112:224,1,75,8|2
184,104,87545,1,0
184,104,87711,1,0
192,176,87878,2,0,B|200:256,1,75,8|0
248,304,88212,6,0,B|280:336|344:328,2,75,0|0|8
200,248,88712,1,0
184,176,88879,1,2
200,104,89045,1,0
248,48,89212,2,0,B|344:48,1,75,2|0
368,104,89545,2,0,B|272:104,1,75,2|0
336,160,89879,2,0,B|432:160,1,75,2|0
456,216,90212,2,0,B|360:216,1,75,2|0
424,272,90545,2,0,B|520:272,1,75,2|0
392,344,90879,6,0,B|320:360|232:344,2,150,4|8|0
242,345,91879,1,8
104,288,92212,2,0,B|64:224|80:120,1,150,2|8
120,80,92712,2,0,B|184:48|288:40,1,150,2|0
336,56,93212,2,0,B|416:80|464:160,1,150,10|0
480,216,93712,5,0
440,280,93879,1,8
400,216,94045,1,0
360,280,94212,1,0
320,216,94379,1,0
280,280,94545,1,8
240,216,94712,1,0
200,280,94879,6,0,B|104:264|88:184,1,150,2|8
96,120,95379,2,0,B|110:48|206:32,1,150,2|0
280,32,95879,1,8
432,144,96212,6,0,B|432:248,1,75,4|0
368,176,96545,2,0,B|368:256,1,75,8|0
304,208,96879,2,0,B|304:312,1,75
240,240,97212,2,0,B|240:336,1,75,8|0
176,352,97545,6,0,B|72:376|56:264,1,150,2|8
136,280,98045,1,2
136,104,98379,1,0
60,96,98546,2,0,B|72:8|176:32,1,150,10|0
248,32,99045,1,0
320,64,99212,1,8
376,120,99379,1,0
400,192,99545,1,0
376,264,99712,1,0
320,320,99879,1,8
248,352,100046,1,0
144,264,100212,5,0
112,192,100379,1,0
144,120,100545,1,8
184,192,100712,1,0
256,192,100879,2,0,B|296:192,2,37.5
256,192,101212,1,8
392,120,101545,5,4
392,264,101712,1,0
256,192,102379,5,0
312,136,102545,1,2
288,112,102629,1,0
256,104,102712,1,0
216,112,102795,1,0
192,136,102879,1,6
256,192,103045,1,0
320,232,103212,6,0,B|344:312,1,75,8|2
192,232,103546,2,0,B|168:312,1,75,0|0
96,352,103879,1,10
56,272,104045,1,0
48,184,104212,2,0,B|32:96|120:48,1,150,0|8
128,144,104712,2,0,B|272:208,1,150,2|0
320,104,105212,5,10
400,64,105379,1,0
400,152,105545,2,0,B|456:208|456:304,1,150,6|8
480,200,106045,2,0,B|472:272|384:328,1,150,2|0
360,240,106545,1,10
272,208,106712,1,0
184,184,106879,2,0,B|80:184,2,75,2|0|8
192,96,107379,2,0,B|280:120|272:232,1,150,2|0
176,328,107879,6,0,B|272:328,2,75,10|0|6
96,280,108379,1,0
64,192,108545,1,8
96,104,108712,2,0,B|160:56|240:48,1,150,2|0
360,48,109212,5,8
416,120,109379,1,0
432,208,109545,2,0,B|432:368,1,150,6|8
352,312,110045,2,0,B|352:152,1,150,2|0
288,96,110545,2,0,B|208:48|128:112,2,150,10|6|8
220,151,111379,2,0,B|220:303,1,150,2|0
220,301,111879,1,10
352,328,112212,6,0,B|432:368,1,75,0|0
392,286,112545,2,0,B|481:297,1,75,8|0
416,234,112879,2,0,B|503:213,1,75,8|8
421,176,113212,2,0,B|496:127,1,75,10|8
376,56,113545,5,6
312,120,113712,1,0
256,56,113879,1,8
200,120,114045,1,2
136,56,114212,1,0
56,184,114545,5,10
96,264,114712,1,0
168,328,114879,1,2
256,352,115046,1,0
344,328,115212,1,8
416,264,115379,1,2
456,184,115546,1,0
296,128,115879,6,0,B|208:96,1,75,10|0
144,144,116212,2,0,B|40:144,2,75,6|0|8
144,232,116712,2,0,B|240:264|304:192,1,150,2|0
216,152,117212,5,10
248,72,117379,1,0
336,64,117545,2,0,B|416:80|456:168,1,150,2|8
449,229,118045,2,0,B|416:304|336:320,1,150,2|0
248,320,118545,6,0,B|144:320,1,75,10|0
112,256,118879,2,0,B|208:256,1,75,6|0
240,184,119212,2,0,B|232:128|288:96,1,75,8|2
352,88,119545,2,0,B|360:144|304:176,1,75
312,248,119879,1,8
216,144,120212,6,0,B|152:96|48:144,1,150,6|8
234,250,120712,2,0,B|224:330|318:396,1,150,2|0
317,181,121212,2,0,B|391:149|401:35,1,150,10|4
256,192,121629,12,4,122879
194,174,123045,5,0
273,130,123212,1,8
317,209,123379,1,0
238,253,123546,1,4
238,253,123629,1,0
238,253,123712,1,0
194,174,123879,1,8
273,130,124045,1,0
344,64,124212,6,4,B|416:112,1,75,2|0
406,278,124545,2,0,B|344:320,1,75,8|2
256,248,124879,1,0
256,144,125045,1,0
168,192,125212,1,8
168,192,125379,1,0
152,88,125545,2,0,B|72:104|56:208,1,150,2|8
176,296,126045,2,0,B|256:280|272:176,1,150,2|0
280,88,126545,1,8
360,328,126879,6,0,B|360:144,1,150,6|8
360,72,127379,2,0,B|448:80|440:192,1,150,2|0
504,264,127879,2,0,B|416:264,1,75,8|0
344,232,128212,1,2
264,184,128379,1,0
192,240,128545,1,8
120,184,128712,1,0
192,136,128879,2,0,B|184:48|80:48,1,150,2|8
90,48,129545,5,6
180,48,129712,1,0
268,48,129879,1,8
180,48,130045,2,0,B|132:120|180:200,1,150,2|0
236,128,130545,2,0,B|284:200|236:280,1,150,8|2
196,344,131045,1,0
148,272,131212,1,8
241,269,131379,1,2
376,88,131712,1,0
376,88,131879,2,0,B|376:224,1,112.5,8|0
360,240,132212,6,0,B|304:304,1,75,6|0
311,245,132545,2,0,B|226:258,1,75,8|0
270,218,132879,2,0,B|197:173,1,75,2|0
256,171,133211,2,0,B|228:90,1,75,8|0
276,126,133545,2,0,B|306:46,1,75,2|0
319,104,133878,2,0,B|393:63,1,75,10|0
367,116,134211,2,2,B|450:132,1,75
396,155,134544,2,2,B|449:221,1,75,10|2
456,328,134879,6,0,B|296:328,1,150,4|8
216,256,135379,2,0,B|376:256,1,150,2|0
424,208,135879,1,8
248,72,136212,2,0,B|232:16|168:8,1,75,2|0
176,128,136545,2,0,B|192:184|256:192,1,75,8|2
376,128,136879,2,0,B|280:128,1,75
176,128,137212,1,8
64,320,137545,6,0,B|24:160,1,150,6|8
120,240,138045,2,0,B|128:64,1,150,2|0
219,26,138545,2,0,B|307:26,1,75,8|0
384,88,138879,5,6
384,88,139545,1,2
432,168,139712,6,0,B|456:216,2,37.5,0|0|8
352,208,140045,1,0
272,176,140212,2,0,B|192:136|120:184,1,150,6|8
200,232,140712,2,0,B|200:72,1,150,2|0
256,16,141212,1,8
432,192,141545,1,2
256,368,141879,1,8
80,192,142212,1,2
256,192,142545,1,8
216,232,142879,6,0,B|216:272,3,37.5
271,246,143212,2,0,B|306:266,3,37.5,8|0|0|0
311,206,143545,2,0,B|346:186,3,37.5
296,152,143879,2,0,B|297:111,3,37.5,8|0|0|0
242,137,144212,2,0,B|207:117,3,37.5,0|0|0|0
202,177,144545,2,0,B|167:197,3,37.5,8|0|0|0
264,200,144879,5,8
264,200,144962,1,8
264,200,145045,1,8
264,200,145129,1,8
264,200,145545,1,4
