osu file format v11

[General]
AudioFilename: 02. The Creator.mp3
AudioLeadIn: 0
PreviewTime: 107886
Countdown: 0
SampleSet: Normal
StackLeniency: 1
Mode: 0
LetterboxInBreaks: 1

[Editor]
DistanceSpacing: 0.8
BeatDivisor: 4
GridSize: 4

[Metadata]
Title:The Creator
TitleUnicode:The Creator
Artist:Yousei Teikoku
ArtistUnicode:妖精帝國
Creator:meiikyuu
Version:Level 6
Source:Mirai Nikki
Tags:saten saten-san lunarsakuya
BeatmapID:149310
BeatmapSetID:41242

[Difficulty]
HPDrainRate:6
CircleSize:4
OverallDifficulty:6
ApproachRate:8
SliderMultiplier:1.1
SliderTickRate:1

[Events]
//Background and Video events
0,0,"creatorbg2.png"
//Break Periods
2,29714,35622
2,74286,80194
2,139429,145336
//Storyboard Layer 0 (Background)
//Storyboard Layer 1 (Fail)
//Storyboard Layer 2 (Pass)
//Storyboard Layer 3 (Foreground)
//Storyboard Sound Samples
//Background Colour Transformations
3,100,163,162,255

[TimingPoints]
2087,214.285714285714,4,1,1,60,1,0
43229,214.285714285714,5,1,1,60,1,0
51801,214.285714285714,4,1,1,60,1,0
53515,-100,4,1,1,60,0,1
74086,-100,4,1,1,60,0,0
108372,214.285714285714,5,1,1,60,1,0
116944,214.285714285714,4,1,1,60,1,0
118658,-100,4,1,1,60,0,1
139229,-100,4,1,1,60,0,0
161515,214.285714285714,5,1,1,60,1,0
170086,214.285714285714,4,1,1,60,1,0
171801,-125,4,2,1,45,0,0
178229,-100,4,1,1,60,0,0
178658,-100,4,1,1,60,0,1
184979,-100,4,1,1,60,0,0
185515,-100,4,1,1,60,0,1
206086,-100,4,1,1,60,0,0
219801,-100,4,2,1,60,0,0
222158,-100,4,2,1,30,0,0

[Colours]
Combo1 : 158,62,255
Combo2 : 0,225,225
Combo3 : 255,0,0
Combo4 : 0,128,192

[HitObjects]
145,74,8944,2,0,B|85:107|100:174,1,110,4|8,0:0|0:0,0:0:0
152,260,9372,2,0,B|211:226|200:159,1,110,0|8,0:0|0:0,0:0:0
220,116,9694,2,0,B|336:160,1,110
376,140,10015,2,0,B|428:168|436:228,2,110,8|0|8,0:0|0:0|0:0,0:0:0
256,256,10658,6,0,B|368:256,1,110,0|8,0:0|0:0,0:0:0
448,152,11086,2,0,B|404:44,1,110,0|8,0:0|0:0,0:0:0
352,40,11408,2,0,B|304:64|304:64|244:56,1,110
192,48,11729,1,8,0:0:0
192,48,11944,2,0,B|148:72|156:120|156:120|132:128,1,110,8|8,0:0|0:0,0:0:0
208,236,12372,6,0,B|244:196|239:124,1,110,4|0,0:0|0:0,0:0:0
116,264,12801,1,0,0:0:0
200,332,13015,1,8,0:0:0
296,280,13229,2,0,B|348:308,2,55,0|0|8,0:0|0:0|0:0,0:0:0
356,188,13658,2,0,B|466:188,1,110,0|8,0:0|0:0,0:0:0
352,84,14086,5,0,0:0:0
252,132,14301,1,8,0:0:0
256,240,14515,1,0,0:0:0
356,288,14729,1,8,0:0:0
356,288,14836,2,0,B|387:274|412:222|412:222|394:173|420:134,1,165,0|8,0:0|0:0,0:0:0
304,124,15372,6,0,B|320:92|320:48|256:8|192:52|192:96|212:128,1,220,0|4,0:0|0:0,0:0:0
256,224,16015,5,8,0:0:0
256,332,16229,2,0,B|144:332,1,110,0|8,0:0|0:0,0:0:0
132,280,16551,2,0,B|40:268|28:168,1,165,0|8,0:0|0:0,0:0:0
140,172,17086,1,0,0:0:0
216,92,17301,1,8,0:0:0
372,172,17515,5,0,0:0:0
296,92,17730,1,8,0:0:0
256,196,17944,1,8,0:0:0
256,212,18051,1,0,0:0:0
256,228,18158,1,8,0:0:0
256,244,18265,2,0,B|256:356,1,110,0|0,0:0|0:0,0:0:0
312,356,18586,1,8,0:0:0
364,228,18801,1,0,0:0:0
256,140,19015,1,0,0:0:0
152,228,19229,6,0,B|120:192|120:192|100:200|100:200|64:172|64:172,2,110,4|8|0,0:0|0:0|0:0,0:0:0
192,124,19872,1,8,0:0:0
216,76,19979,2,0,B|268:48|320:76,1,110
332,132,20301,2,0,B|233:181,2,110,8|0|8,0:0|0:0|0:0,0:0:0
144,176,20944,6,0,P|160:232|160:232|208:280,1,110,0|8,0:0|0:0,0:0:0
368,176,21372,2,0,P|352:232|352:232|304:280,1,110,0|8,0:0|0:0,0:0:0
272,268,21694,2,0,P|232:184|264:112,1,165,0|8,0:0|0:0,0:0:0
344,116,22229,6,0,B|370:122|370:122|364:144|364:144|384:140|384:140|380:160|380:160|400:160|400:160|400:176|400:176|416:176|416:176|416:188|416:188|428:188|428:188|428:200|428:200|440:200|440:200|440:212|440:212|456:220,1,220,0|4,0:0|0:0,0:0:0
412,296,22872,5,0,0:0:0
324,296,23086,2,0,B|273:266|212:280,1,110,8|0,0:0|0:0,0:0:0
176,293,23408,2,0,B|126:187,1,110
90,171,23729,1,0,0:0:0
142,100,23944,2,0,B|104:57,2,55
219,58,24372,6,0,B|275:80|328:72,1,110,4|0,0:0|0:0,0:0:0
413,54,24801,2,0,B|443:165,1,110,8|0,0:0|0:0,0:0:0
464,197,25122,2,0,B|416:223|398:287,1,110
356,293,25444,1,0,0:0:0
256,136,25658,6,0,B|257:247,1,110,0|0,0:0|0:0,0:0:0
156,293,26086,6,0,B|139:233|91:207,1,110,4|0,0:0|0:0,0:0:0
128,100,26515,2,0,B|144:159|192:185,1,110,8|0,0:0|0:0,0:0:0
232,172,26836,2,0,B|288:152|340:164,1,110
384,152,27158,2,0,B|428:184,1,55
412,224,27372,2,0,B|444:272,1,55
404,292,27586,2,0,B|408:348,1,55
364,360,27801,6,0,B|252:336,1,110,4|0,0:0|0:0,0:0:0
188,232,28229,2,0,B|300:256,1,110,8|0,0:0|0:0,0:0:0
332,232,28551,1,0,0:0:0
324,144,28765,2,0,B|300:96,1,55
184,120,29086,6,0,B|136:128|112:120|112:120|80:88,2,110,0|0|4,0:0|0:0|0:0,0:0:0
232,36,36372,5,4,0:0:0
156,84,36586,1,0,0:0:0
200,160,36801,2,0,B|244:212|188:272,1,110,8|0,0:0|0:0,0:0:0
176,296,37122,2,0,B|300:296,1,110
312,260,37444,2,0,B|332:304|332:304|348:308|348:308|368:360,2,110
396,236,38086,2,0,B|348:128,1,110,4|0,0:0|0:0,0:0:0
300,64,38515,2,0,B|236:48|184:84,1,110,8|0,0:0|0:0,0:0:0
192,120,38836,2,0,B|168:176|104:196,1,110
92,232,39158,1,0,0:0:0
148,300,39372,5,0,0:0:0
76,348,39586,1,0,0:0:0
148,300,39801,2,0,P|200:316|268:316,1,110,4|0,0:0|0:0,0:0:0
276,232,40229,2,0,B|312:184|256:128|256:128|272:80|328:52,2,220,8|0|8,0:0|0:0|0:0,0:0:0
276,232,41301,1,0,0:0:0
376,188,41515,2,0,B|376:260|328:300,1,110,4|0,0:0|0:0,0:0:0
216,288,41944,2,0,B|179:259|179:187,1,110,8|0,0:0|0:0,0:0:0
136,172,42265,2,0,B|76:168|24:200,1,110,0|8,0:0|0:0,0:0:0
12,236,42586,1,0,0:0:0
52,316,42801,6,0,B|112:292|168:320,1,110,0|0,0:0|0:0,0:0:0
256,344,43229,5,0,0:0:0
256,256,43444,2,0,B|256:136,2,110,4|0|0,0:0|0:0|0:0,0:0:0
340,224,44086,1,0,0:0:0
360,140,44301,1,4,0:0:0
308,68,44515,1,0,0:0:0
204,68,44729,1,0,0:0:0
152,140,44943,1,0,0:0:0
172,224,45158,1,0,0:0:0
256,292,45372,1,0,0:0:0
256,292,45586,6,0,B|256:360,2,55,4|0|0,0:0|0:0|0:0,0:0:0
340,236,46015,1,0,0:0:0
380,156,46229,2,0,B|496:156,2,110,0|4|4,0:0|0:0|0:0,0:0:0
292,156,46872,1,0,0:0:0
212,192,47086,2,0,B|156:208|96:192,1,110,4|0,0:0|0:0,0:0:0
44,128,47515,1,0,0:0:0
104,64,47729,5,12,0:0:0
180,104,47944,1,0,0:0:0
256,148,48158,1,0,0:0:0
332,104,48372,1,0,0:0:0
408,64,48587,1,12,0:0:0
408,152,48801,2,0,B|408:264,1,110
324,346,49229,2,0,B|324:236,1,110
228,288,49658,1,0,0:0:0
164,200,49872,6,0,B|132:151|132:151|77:134,1,110,4|0,0:0|0:0,0:0:0
108,264,50301,1,0,0:0:0
216,264,50515,1,0,0:0:0
260,164,50729,1,4,0:0:0
208,52,50944,2,0,B|160:88|184:152,1,110,4|0,0:0|0:0,0:0:0
336,152,51372,2,0,B|360:88|312:52,1,110,4|0,0:0|0:0,0:0:0
256,192,51801,12,0,53086,0:0:0
264,120,53515,6,0,B|320:132|376:100,1,110,4|0,0:0|0:0,0:0:0
376,152,53836,2,0,B|429:201|411:251|411:251|364:287,1,165,0|8,0:0|0:0,0:0:0
272,308,54372,2,0,B|216:280|216:280|108:280,2,165
312,216,55229,6,0,B|305:176|260:155|260:155|295:121|288:82,2,165,4|0|8,0:0|0:0|0:0,0:0:0
224,236,56086,1,0,0:0:0
156,164,56301,1,8,0:0:0
208,80,56515,2,0,B|144:48|144:48|100:68,1,110,0|8,0:0|0:0,0:0:0
100,252,56944,6,0,B|148:228|156:164,1,110,4|8,0:0|0:0,0:0:0
204,156,57265,2,0,B|192:240|252:312,1,165,0|8,0:0|0:0,0:0:0
332,252,57801,2,0,B|392:180|368:92,2,165,0|0|8,0:0|0:0|0:0,0:0:0
284,164,58658,2,0,B|228:232|140:260,2,165,4|0|8,0:0|0:0|0:0,0:0:0
92,88,59944,5,0,0:0:0
92,88,60158,1,0,0:0:0
144,176,60372,2,0,B|184:228|184:260|184:260|156:296|188:340,2,165,4|0|0,0:0|0:0|0:0,0:0:0
216,124,61229,2,0,B|296:176|296:272,2,165,4|0|0,0:0|0:0|0:0,0:0:0
296,88,62086,2,0,B|364:136|460:132,2,165,4|0|0,0:0|0:0|0:0,0:0:0
300,212,62944,2,0,B|464:212,2,165,4|0|0,0:0|0:0|0:0,0:0:0
380,296,63801,6,0,B|208:364|48:264,1,330,4|8,0:0|0:0,0:0:0
116,200,64658,2,0,B|184:244|292:240,2,165,0|0|8,0:0|0:0|0:0,0:0:0
116,200,65515,1,4,0:0:0
208,84,65836,1,0,0:0:0
344,144,66158,1,4,0:0:0
360,344,66801,5,0,0:0:0
424,284,67015,1,0,0:0:0
460,204,67229,2,0,B|412:160|404:108,1,110,4|8,0:0|0:0,0:0:0
336,224,67658,2,0,B|308:176|312:104,1,110,0|8,0:0|0:0,0:0:0
210,148,68086,2,0,B|192:204|211:256,1,110,0|8,0:0|0:0,0:0:0
276,316,68515,1,0,0:0:0
196,348,68729,1,8,0:0:0
112,316,68944,2,0,B|104:268|104:268|56:228|64:160|64:160|88:112,1,220,4|0,0:0|0:0,0:0:0
160,184,69586,5,8,0:0:0
200,92,69801,1,4,0:0:0
344,128,70122,1,0,0:0:0
256,248,70444,2,0,B|256:364,1,110,0|4,0:0|0:0,0:0:0
256,192,70711,12,0,72372,0:0:0
256,192,72426,12,4,74086,0:0:0
168,84,80944,6,0,B|136:140|172:200,1,110,4|8,0:0|0:0,0:0:0
345,189,81372,2,0,B|376:140|344:84,1,110,0|8,0:0|0:0,0:0:0
256,152,81801,2,0,B|256:216,3,55
256,228,82229,2,0,B|256:292,3,55
256,304,82658,6,0,B|324:312|344:240,1,110,0|8,0:0|0:0,0:0:0
256,304,83086,2,0,B|188:312|168:240,1,110,0|8,0:0|0:0,0:0:0
256,80,83729,1,8,0:0:0
256,80,83944,1,4,0:0:0
448,244,84372,6,0,B|404:184|404:184|360:184,1,110,4|0,0:0|0:0,0:0:0
308,248,84801,2,0,B|256:248|256:248|228:192,1,110,0|8,0:0|0:0,0:0:0
192,164,85122,2,0,B|96:228,1,110
52,212,85444,2,0,B|69:334,2,110,8|0|8,0:0|0:0|0:0,0:0:0
148,296,86086,6,0,B|256:320,1,110,0|8,0:0|0:0,0:0:0
356,320,86515,2,0,B|464:296,2,110,0|8|0,0:0|0:0|0:0,0:0:0
304,236,87158,1,8,0:0:0
356,152,87372,2,0,B|316:108,3,55
276,84,87801,6,0,B|188:84|188:84|148:100,1,110,4|0,0:0|0:0,0:0:0
100,152,88229,2,0,B|100:264,1,110
56,248,88551,2,0,B|176:212,1,110,8|0,0:0|0:0,0:0:0
204,216,88872,2,0,B|256:264|304:212,2,110
244,136,89515,2,0,B|292:96|344:136,1,110,4|0,0:0|0:0,0:0:0
388,60,89944,2,0,B|448:100|444:140|444:140|420:172|424:216,2,165,8|0|0,0:0|0:0|0:0,0:0:0
300,60,90801,6,0,B|188:60,1,110
116,108,91229,6,0,B|68:224|68:224|112:328,1,220,4|8,0:0|0:0,0:0:0
192,316,91872,2,0,B|168:256,1,55,0|8,0:0|0:0,0:0:0
252,160,92194,1,0,0:0:0
252,160,92301,2,0,B|296:260,2,110
316,100,92944,2,0,B|368:124|428:112,1,110,4|0,0:0|0:0,0:0:0
376,184,93372,2,0,B|460:256,1,110,8|0,0:0|0:0,0:0:0
416,260,93694,2,0,B|368:264|348:288|344:344,1,110,0|8,0:0|0:0,0:0:0
256,232,94229,1,0,0:0:0
192,64,94658,6,0,B|132:88|136:160,1,110,4|8,0:0|0:0,0:0:0
228,196,95086,2,0,B|279:161|262:99,1,110,0|8,0:0|0:0,0:0:0
112,252,95515,2,0,B|58:287|77:357,1,110,0|8,0:0|0:0,0:0:0
180,320,95943,2,0,B|231:285|214:223,1,110,0|8,0:0|0:0,0:0:0
300,304,96372,2,0,B|328:356|328:356|380:356,1,110,0|8,0:0|0:0,0:0:0
380,264,96801,2,0,B|380:208,2,55
468,208,97229,2,0,B|468:96,1,110,0|8,0:0|0:0,0:0:0
372,116,97658,2,0,B|344:120|312:108|312:108|280:120|248:112,1,110
192,60,98086,6,0,B|156:112|188:164|188:164|148:216|196:276,1,220,4|0,0:0|0:0,0:0:0
272,216,98729,1,8,0:0:0
244,312,98944,2,0,B|283:312|283:312|300:320|300:320|315:308|315:308|328:320|328:320|343:312,1,110,0|8,0:0|0:0,0:0:0
368,216,99372,2,0,B|407:214|407:214|423:206|423:206|440:217|440:217|451:205|451:205|467:212,2,110,0|8|0,0:0|0:0|0:0,0:0:0
364,116,100015,1,0,0:0:0
364,116,100229,2,0,B|296:108|268:172,1,110,0|8,0:0|0:0,0:0:0
172,156,100658,2,0,B|48:156,1,110,0|8,0:0|0:0,0:0:0
108,240,101086,2,0,B|84:264|84:264|96:272|96:272|84:296|84:296|112:312|112:312|116:328|116:328|144:320|156:320|168:328|176:332|196:332|200:288,1,220,0|4,0:0|0:0,0:0:0
198,302,101729,5,8,0:0:0
284,324,101944,2,0,B|336:348|404:340,1,110
420,308,102265,2,0,B|452:252|432:188,1,110
416,160,102586,1,0,0:0:0
372,84,102801,2,0,B|312:88|264:128,1,110
292,208,103229,2,0,B|236:244|184:200,2,110,4|0|8,0:0|0:0|0:0,0:0:0
200,112,103872,1,0,0:0:0
200,112,103979,2,0,B|108:120|88:220,1,165
188,264,104515,2,0,B|188:376,1,110
264,328,104944,6,0,B|264:208,1,110,4|0,0:0|0:0,0:0:0
352,208,105372,2,0,B|392:156|360:92,1,110,8|0,0:0|0:0,0:0:0
365,104,105694,2,0,B|248:104,1,110
212,104,106015,1,0,0:0:0
144,172,106229,2,0,B|104:184|136:208|88:272,1,110,0|8,0:0|0:0,0:0:0
180,264,106658,6,0,B|216:208|216:208|268:208,1,110,4|0,0:0|0:0,0:0:0
296,288,107086,2,0,B|356:288|356:288|380:236,1,110
392,200,107408,1,8,0:0:0
376,112,107622,2,0,P|328:68,1,55
156,144,107944,2,0,B|212:112|264:144,2,110
204,220,108586,6,0,B|148:248|96:212,2,110,4|0|0,0:0|0:0|0:0,0:0:0
240,300,109229,2,0,B|292:276|348:300,1,110,0|4,0:0|0:0,0:0:0
432,284,109658,1,0,0:0:0
484,212,109872,1,0,0:0:0
428,136,110086,1,4,0:0:0
336,96,110301,2,0,B|292:112|256:40|256:40|224:112|172:96,1,220,0|4,0:0|0:0,0:0:0
256,176,110944,6,0,B|256:288,1,110
204,352,111372,2,0,B|256:380|320:348,2,110,0|4|4,0:0|0:0|0:0,0:0:0
168,272,112015,1,0,0:0:0
88,236,112229,2,0,B|24:256|32:328,2,110,4|0|0,0:0|0:0|0:0,0:0:0
84,148,112872,5,4,0:0:0
144,84,113086,1,0,0:0:0
204,148,113301,1,0,0:0:0
264,84,113515,1,0,0:0:0
324,148,113729,1,4,0:0:0
384,84,113943,1,0,0:0:0
444,148,114158,1,0,0:0:0
444,236,114371,2,0,B|444:352,1,110
368,300,114801,1,0,0:0:0
368,300,115015,6,0,B|348:340|304:332|304:332|268:352,1,110,4|0,0:0|0:0,0:0:0
204,276,115444,2,0,B|189:246|189:246|149:226|156:182,1,110
256,180,115872,1,4,0:0:0
328,120,116086,2,0,B|368:172|333:237,1,110,4|0,0:0|0:0,0:0:0
184,120,116515,2,0,B|144:172|179:237,1,110,4|0,0:0|0:0,0:0:0
256,192,116944,12,0,118229,0:0:0
128,124,118658,6,0,B|188:144|184:212,1,110,4|8,0:0|0:0,0:0:0
140,212,118979,2,0,B|100:264|100:264|120:320|188:312,1,165,0|8,0:0|0:0,0:0:0
256,268,119515,2,0,B|256:152,1,110,0|8,0:0|0:0,0:0:0
256,116,119836,1,0,0:0:0
368,48,120158,1,8,0:0:0
256,116,120372,6,0,B|200:140|176:192,1,110,4|8,0:0|0:0,0:0:0
176,232,120694,2,0,B|198:281|254:305,1,110
300,304,121015,1,8,0:0:0
416,208,121229,2,0,B|360:192|304:204,1,110,0|8,0:0|0:0,0:0:0
244,140,121658,2,0,B|296:108|356:116,2,110,0|0|4,0:0|0:0|0:0,0:0:0
112,164,122408,2,0,B|108:228|160:272|220:272,1,165
256,348,122944,2,0,B|324:312|312:240|276:208,2,165,0|8|0,0:0|0:0|0:0,0:0:0
212,272,123801,6,0,B|124:280|52:336,1,165,4|0,0:0|0:0,0:0:0
16,204,124444,1,0,0:0:0
256,92,125086,1,0,0:0:0
256,92,125301,1,0,0:0:0
256,180,125515,5,4,0:0:0
256,180,125836,2,0,B|256:348,1,165
336,308,126372,2,0,B|396:288|388:224|388:224|448:188,2,165,4|0|0,0:0|0:0|0:0,0:0:0
176,308,127229,2,0,B|116:288|124:224|124:224|64:188,2,165,4|0|0,0:0|0:0|0:0,0:0:0
256,348,128086,2,0,B|256:172,2,165,4|0|0,0:0|0:0|0:0,0:0:0
360,316,128944,6,0,B|256:264|144:316,1,220,4|0,0:0|0:0,0:0:0
147,314,129586,1,8,0:0:0
104,236,129801,2,0,B|68:196|96:152|96:152|116:112|92:80,2,165
180,192,130658,1,4,0:0:0
256,84,130979,1,0,0:0:0
332,192,131301,1,4,0:0:0
180,192,131515,2,0,P|84:252,1,110
112,336,131944,1,0,0:0:0
196,304,132158,1,0,0:0:0
284,304,132372,6,0,B|392:340,1,110,4|8,0:0|0:0,0:0:0
475,290,132801,2,0,B|368:252,1,110,0|8,0:0|0:0,0:0:0
288,224,133229,1,0,0:0:0
204,192,133444,1,8,0:0:0
132,144,133658,2,0,B|92:192|132:248|132:248|92:300|156:364,1,220
52,348,134301,5,8,0:0:0
28,264,134515,1,0,0:0:0
52,180,134729,1,0,0:0:0
140,196,134944,2,0,B|236:188|256:96,1,165,8|0,0:0|0:0,0:0:0
255,97,135586,1,0,0:0:0
184,49,135801,6,0,B|97:96|89:192|121:303|256:358|390:303|422:192|414:96|327:49,1,660,4|0,0:0|0:0,0:0:0
256,192,137515,12,4,139229,0:0:0
124,84,146086,6,0,B|80:192|116:300,1,220,4|0,0:0|0:0,0:0:0
212,240,146729,2,0,B|248:132|204:24,2,220,8|0|0,0:0|0:0|0:0,0:0:0
292,304,147801,2,0,B|352:240|348:148|348:148|396:184|456:180|496:128,1,330,0|8,0:0|0:0,0:0:0
416,88,148658,2,0,B|304:20|208:100,1,220
124,96,149301,1,8,0:0:0
56,152,149515,6,0,B|68:280|68:280|148:336,1,220,4|0,0:0|0:0,0:0:0
188,256,150158,2,0,B|228:268|256:340|256:340|284:268|332:256,2,220,8|8|8,0:0|0:0|0:0,0:0:0
124,316,151229,2,0,B|68:248|124:144|224:176,1,220
256,260,151872,1,8,0:0:0
305,171,152086,2,0,B|388:144|444:248|388:316,2,220,0|8|4,0:0|0:0|0:0,0:0:0
288,44,153265,6,0,B|148:136,1,165
108,56,153801,1,4,0:0:0
108,56,154122,2,0,B|56:216,1,165
108,288,154658,1,4,0:0:0
108,288,154979,2,0,B|212:144,1,165
280,196,155515,2,4,B|248:252|276:312|344:328,2,165,4|0|0,0:0|0:0|0:0,0:0:0
256,192,156372,12,4,159801,0:0:0
128,216,161729,6,0,B|128:284|192:312,1,110,4|0,0:0|0:0,0:0:0
224,216,162158,1,0,0:0:0
256,124,162372,1,0,0:0:0
256,24,162586,1,12,0:0:0
256,124,162801,1,0,0:0:0
348,160,163015,1,0,0:0:0
448,164,163229,2,0,B|448:96|384:68,1,110,0|8,0:0|0:0,0:0:0
296,64,163658,5,0,0:0:0
232,140,163872,1,4,0:0:0
256,236,164086,1,0,0:0:0
332,300,164301,1,0,0:0:0
256,236,164515,1,0,0:0:0
172,288,164729,2,4,B|68:328,1,110
200,368,165158,2,0,B|316:368,2,110,0|4|0,0:0|0:0|0:0,0:0:0
250,288,165801,2,0,B|250:172,1,110,0|12,0:0|0:0,0:0:0
327,219,166229,5,0,0:0:0
340,120,166444,1,0,0:0:0
256,68,166658,1,0,0:0:0
172,120,166872,1,4,0:0:0
185,219,167087,1,0,0:0:0
250,288,167301,2,0,B|302:312|374:300,2,110,0|4|0,0:0|0:0|0:0,0:0:0
185,219,167943,1,0,0:0:0
156,120,168158,6,0,B|184:72|248:56,2,110,4|0|0,0:0|0:0|0:0,0:0:0
156,208,168801,1,0,0:0:0
156,296,169014,2,0,B|184:344|248:360,2,110,4|0|0,0:0|0:0|0:0,0:0:0
156,208,169657,2,0,B|268:208,1,110,4|0,0:0|0:0,0:0:0
352,208,170086,6,0,B|376:156,1,55
444,212,170408,2,0,B|468:156,1,55
375,158,170729,6,0,B|355:106,1,55
288,160,171051,2,0,B|268:108,1,55
172,136,171372,5,0,0:0:0
104,192,171586,1,0,0:0:0
124,276,171801,6,2,B|208:304|308:296,1,176,4|10,0:0|0:0,0:0:0
433,139,172658,2,0,B|344:132|260:160,1,176,0|10,0:0|0:0,0:0:0
128,108,173515,2,0,B|144:152|116:192|116:192|140:228|128:280,2,176,4|10|0,0:0|0:0|0:0,0:0:0
48,144,174586,2,0,B|24:188|48:244,1,88,0|8,0:0|0:0,0:0:0
36,328,175015,1,0,0:0:0
136,356,175229,6,0,B|228:364|320:352,1,176,6|8,0:0|0:0,0:0:0
180,116,176086,2,0,B|140:172|136:256,2,132,2|0|0,0:0|0:0|0:0,0:0:0
116,52,176944,2,0,B|168:0|272:24|288:108|256:168,1,264,6|0,0:0|0:0,0:0:0
152,308,178229,5,0,0:0:0
256,348,178444,1,0,0:0:0
360,308,178658,2,0,B|400:232|384:140,2,165,4|0|0,0:0|0:0|0:0,0:0:0
256,272,179515,2,0,B|256:104,2,165,4|0|0,0:0|0:0|0:0,0:0:0
152,308,180372,2,0,B|112:232|128:140,2,165,4|0|0,0:0|0:0|0:0,0:0:0
200,236,181229,2,0,B|208:144|272:84,2,165,4|0|0,0:0|0:0|0:0,0:0:0
284,208,182086,6,0,B|296:152|352:120,1,110,4|8,0:0|0:0,0:0:0
436,120,182515,1,0,0:0:0
468,204,182729,1,8,0:0:0
436,288,182944,2,0,B|360:204,1,110
312,200,183265,2,0,B|294:250|326:282|326:282|334:318|306:354,1,165,0|8,0:0|0:0,0:0:0
224,300,183801,2,4,B|200:244|208:180|244:128,2,165
180,80,185086,1,0,0:0:0
272,44,185301,1,0,0:0:0
336,116,185515,6,0,B|360:176|312:224,1,110,4|8,0:0|0:0,0:0:0
276,232,185836,2,0,B|252:292|300:340,1,110,0|0,0:0|0:0,0:0:0
328,364,186158,1,8,0:0:0
396,308,186372,2,0,B|424:256|416:196,1,110,0|8,0:0|0:0,0:0:0
372,204,186694,2,0,B|344:152|352:92,1,110
356,56,187015,1,8,0:0:0
272,80,187229,2,0,B|248:140|200:160|200:160|144:156,2,165,4|0|8,0:0|0:0|0:0,0:0:0
180,328,188515,1,0,0:0:0
256,280,188729,1,8,0:0:0
332,328,188944,6,0,B|332:216,1,110,4|8,0:0|0:0,0:0:0
180,218,189372,2,0,B|180:328,1,110,0|8,0:0|0:0,0:0:0
256,280,189801,2,0,B|256:112,2,165
328,232,190658,2,0,B|392:248|392:248|416:296|388:352,2,165,4|0|8,0:0|0:0|0:0,0:0:0
120,292,191944,1,0,0:0:0
120,204,192158,1,0,0:0:0
120,116,192372,5,4,0:0:0
228,192,192694,2,0,B|288:247|288:247|351:190,1,165
288,132,193229,1,4,0:0:0
208,308,193551,2,0,B|288:336|372:308,1,165
340,224,194086,1,4,0:0:0
164,144,194408,2,0,B|136:224|164:308,1,165
76,304,194944,2,4,B|48:220|76:140,2,165,4|4|0,0:0|0:0|0:0,0:0:0
148,256,195801,6,0,B|280:172|476:184,1,330,4|8,0:0|0:0,0:0:0
416,256,196658,2,0,B|332:256|244:288,2,165
464,184,197515,1,4,0:0:0
360,100,197836,1,0,0:0:0
244,164,198158,1,4,0:0:0
52,348,198801,5,0,0:0:0
140,348,199015,1,0,0:0:0
228,348,199229,2,0,B|260:292|264:236,1,110,4|8,0:0|0:0,0:0:0
344,191,199658,2,0,B|348:240|332:300,1,110,0|8,0:0|0:0,0:0:0
424,260,200086,2,0,B|437:194|424:139,1,110,0|8,0:0|0:0,0:0:0
420,52,200515,1,0,0:0:0
324,36,200729,1,8,0:0:0
256,108,200944,2,0,B|216:144|220:212|220:212|156:212|120:260,1,220,4|0,0:0|0:0,0:0:0
125,253,201586,1,8,0:0:0
124,164,201801,5,4,0:0:0
204,300,202122,1,0,0:0:0
324,196,202444,1,0,0:0:0
380,128,202658,5,4,0:0:0
292,112,202872,1,0,0:0:0
324,196,203086,2,0,B|356:240|352:296|352:296|296:344,2,165,8|12|8,0:0|0:0|0:0,0:0:0
236,192,203944,2,0,B|120:192,1,110,8|0,0:0|0:0,0:0:0
140,104,204372,5,4,0:0:0
140,104,204586,1,0,0:0:0
228,104,204801,2,0,B|344:104|344:104|388:72,2,165,8|12|8,0:0|0:0|0:0,0:0:0
128,124,205658,2,0,B|104:128|104:128|116:152|116:152|92:152|92:152|104:176|104:176|84:176|84:176|96:196|96:196|76:196|76:196|88:216|88:216|56:228,1,220,0|4,0:0|0:0,0:0:0
84,308,206301,5,0,0:0:0
164,348,206515,2,0,B|220:316|212:252,1,110,0|8,0:0|0:0,0:0:0
224,208,206836,2,0,B|168:176|168:176|144:136,1,110
104,108,207158,2,0,B|100:52|164:12,2,110,8|0|8,0:0|0:0|0:0,0:0:0
204,100,207801,1,0,0:0:0
320,56,208015,6,0,B|340:112|400:128,1,110
460,208,208444,1,8,0:0:0
444,256,208551,2,0,B|412:328|412:328|328:352,1,165,0|8,0:0|0:0,0:0:0
256,256,209086,1,0,0:0:0
184,352,209301,1,0,0:0:0
256,256,209515,1,4,0:0:0
184,96,209729,5,0,0:0:0
256,168,209944,1,0,0:0:0
256,24,210158,1,0,0:0:0
328,96,210372,2,0,B|380:136|388:200,2,110,0|8|0,0:0|0:0|0:0,0:0:0
256,168,211015,1,0,0:0:0
184,96,211229,6,0,B|132:136|124:200,1,110,4|8,0:0|0:0,0:0:0
28,204,211658,2,0,B|32:264|88:304,1,110,0|8,0:0|0:0,0:0:0
108,336,211979,2,0,B|180:280|264:284,1,165,0|8,0:0|0:0,0:0:0
368,344,212515,2,0,B|428:244,1,110
408,92,212944,6,0,B|351:97|328:159,1,110,4|8,0:0|0:0,0:0:0
184,160,213372,2,0,B|161:97|104:92,1,110,0|8,0:0|0:0,0:0:0
76,132,213694,2,0,B|48:184|48:184|52:240,1,110,0|0,0:0|0:0,0:0:0
28,280,214015,2,0,B|128:336,2,110,8|0|8,0:0|0:0|0:0,0:0:0
212,160,214658,6,0,B|204:216|160:260,2,110,0|8|0,0:0|0:0|0:0,0:0:0
124,116,215301,1,8,0:0:0
100,72,215408,2,0,B|20:124|48:220,1,165,0|8,0:0|0:0,0:0:0
212,160,215944,2,0,B|251:120|223:56,1,110,0|8,0:0|0:0,0:0:0
124,116,216372,6,0,B|124:228,1,110,4|8,0:0|0:0,0:0:0
152,320,216801,2,0,B|260:284,1,110,0|8,0:0|0:0,0:0:0
300,308,217122,2,0,B|336:204,1,110,0|0,0:0|0:0,0:0:0
376,176,217444,2,0,B|316:80,2,110,8|0|8,0:0|0:0|0:0,0:0:0
256,216,218086,1,0,0:0:0
317,82,218301,6,0,B|424:40,2,110,8|0|8,0:0|0:0|0:0,0:0:0
272,100,218836,2,0,B|192:128|160:216,1,165,0|8,0:0|0:0,0:0:0
204,356,219372,2,0,B|257:342|285:278,1,110,0|8,0:0|0:0,0:0:0
112,324,219801,5,6,0:0:0
60,252,220015,1,0,0:0:0
60,164,220229,1,0,0:0:0
112,92,220444,1,0,0:0:0
400,92,221515,5,2,0:0:0
452,164,221728,1,0,0:0:0
452,252,221944,1,2,0:0:0
400,324,222158,1,0,0:0:0
