osu file format v11

[General]
AudioFilename: 02. The Creator.mp3
AudioLeadIn: 0
PreviewTime: 107886
Countdown: 0
SampleSet: Normal
StackLeniency: 1
Mode: 0
LetterboxInBreaks: 1

[Editor]
DistanceSpacing: 0.8
BeatDivisor: 4
GridSize: 4

[Metadata]
Title:The Creator
TitleUnicode:The Creator
Artist:Yousei Teikoku
ArtistUnicode:妖精帝國
Creator:meiikyuu
Version:Level 3
Source:Mirai Nikki
Tags:saten saten-san lunarsakuya
BeatmapID:137870
BeatmapSetID:41242

[Difficulty]
HPDrainRate:4
CircleSize:3
OverallDifficulty:4
ApproachRate:5
SliderMultiplier:0.700000005960464
SliderTickRate:1

[Events]
//Background and Video events
0,0,"creatorbg2.png"
//Break Periods
2,74286,79743
2,139428,144885
2,171999,177456
//Storyboard Layer 0 (Background)
//Storyboard Layer 1 (Fail)
//Storyboard Layer 2 (Pass)
//Storyboard Layer 3 (Foreground)
//Storyboard Sound Samples
//Background Colour Transformations
3,100,163,162,255

[TimingPoints]
2087,214.285714285714,4,1,1,60,1,0
43229,214.285714285714,5,1,1,60,1,0
51801,214.285714285714,4,1,1,60,1,0
53515,-100,4,1,1,60,0,1
74086,-100,4,1,1,60,0,0
108372,214.285714285714,5,1,1,60,1,0
116944,214.285714285714,4,1,1,60,1,0
118658,-100,4,1,1,60,0,1
139229,-100,4,1,1,60,0,0
161515,214.285714285714,5,1,1,60,1,0
170086,214.285714285714,4,1,1,60,1,0
171801,-100,4,2,1,45,0,0
178658,-100,4,1,1,60,0,1
184979,-100,4,1,1,60,0,0
185515,-100,4,1,1,60,0,1
206086,-100,4,1,1,60,0,0
219801,-100,4,2,1,60,0,0
222158,-100,4,2,1,30,0,0

[Colours]
Combo1 : 158,62,255
Combo2 : 0,225,225
Combo3 : 255,0,0
Combo4 : 0,128,192

[HitObjects]
356,284,8944,2,0,B|364:240|404:216|404:216|412:156,2,140.000001192093,4|0|0,0:0|0:0|0:0,0:0:0
256,336,10229,1,0,0:0:0
156,284,10658,2,0,B|148:240|108:216|108:216|100:156,2,140.000001192093,0|0|0,0:0|0:0|0:0,0:0:0
256,236,11944,1,0,0:0:0
332,156,12372,6,0,B|360:128|360:92,2,70.0000005960464,4|8|0,0:0|0:0|0:0,0:0:0
248,80,13229,2,0,B|192:44|108:40,1,140.000001192093
44,128,14087,2,0,B|24:168|44:208,2,70.0000005960464,0|8|0,0:0|0:0|0:0,0:0:0
152,164,14944,2,0,B|208:204|240:272,1,140.000001192093
356,256,15801,6,0,B|424:236|460:164,2,140.000001192093,4|0|0,0:0|0:0|0:0,0:0:0
260,196,17087,2,0,B|240:120,1,70.0000005960464,0|8,0:0|0:0,0:0:0
272,80,17515,2,0,B|331:40|409:59,2,140.000001192093
160,64,18801,1,0,0:0:0
132,172,19229,6,0,B|128:244|72:296,2,140.000001192093,4|0|0,0:0|0:0|0:0,0:0:0
240,204,20515,1,0,0:0:0
328,276,20944,2,0,B|380:332,2,70.0000005960464,0|8|0,0:0|0:0|0:0,0:0:0
348,164,21801,1,0,0:0:0
424,80,22229,2,0,B|360:40,1,70.0000005960464,0|8,0:0|0:0,0:0:0
308,32,22658,6,0,B|260:24|212:68|216:116,2,140.000001192093,4|8|0,0:0|0:0|0:0,0:0:0
320,144,23944,2,0,B|320:184|292:212,1,70.0000005960464,0|0,0:0|0:0,0:0:0
260,248,24372,2,0,B|222:279|159:266|137:223,2,140.000001192093,4|8|0,0:0|0:0|0:0,0:0:0
372,256,25658,2,0,B|372:332,2,70.0000005960464,0|0|4,0:0|0:0|0:0,0:0:0
372,144,26515,5,8,0:0:0
352,92,26729,2,0,B|284:60|284:60|216:56,2,140.000001192093
372,144,27801,2,0,B|344:216|268:240,1,140.000001192093,4|8,0:0|0:0,0:0:0
200,196,28551,2,0,B|145:209|116:255,1,105.00000089407
132,308,29086,2,0,B|208:328,1,70.0000005960464
256,324,29515,6,0,B|288:288|356:304|384:264,2,140.000001192093,4|0|0,0:0|0:0|0:0,0:0:0
256,212,30801,1,0,0:0:0
256,100,31229,2,0,B|224:136|156:120|128:160,2,140.000001192093,0|0|0,0:0|0:0|0:0,0:0:0
368,80,32515,1,0,0:0:0
440,164,32944,6,0,B|444:208|424:240,2,70.0000005960464,4|8|0,0:0|0:0|0:0,0:0:0
332,192,33801,2,0,B|280:236|264:320,1,140.000001192093
176,248,34658,2,0,B|104:272,2,70.0000005960464,0|8|0,0:0|0:0|0:0,0:0:0
284,224,35515,2,0,B|280:176|252:152,1,70.0000005960464,0|8,0:0|0:0,0:0:0
204,148,35944,2,0,B|172:108|184:32|232:16,1,140.000001192093,0|4,0:0|0:0,0:0:0
316,96,36801,5,8,0:0:0
388,136,37122,2,0,B|416:184|380:264|316:272,1,175.000001490116
212,300,38086,2,0,B|156:332|108:308|108:308|76:312,2,140.000001192093,4|8|0,0:0|0:0|0:0,0:0:0
152,204,39372,1,0,0:0:0
156,92,39801,6,0,B|84:68,2,70.0000005960464,4|0|8,0:0|0:0|0:0,0:0:0
240,80,40551,2,0,B|300:72|360:120|364:180,1,175.000001490116
284,256,41515,2,0,B|304:304|368:324|432:304,2,140.000001192093,4|8|0,0:0|0:0|0:0,0:0:0
192,320,42801,2,0,B|128:280,1,70.0000005960464,0|0,0:0|0:0,0:0:0
88,248,43229,5,0,0:0:0
104,136,43658,1,4,0:0:0
196,68,44086,1,0,0:0:0
256,164,44515,2,0,B|256:244,1,70.0000005960464
256,292,44943,5,4,0:0:0
348,224,45372,1,0,0:0:0
364,112,45801,1,0,0:0:0
268,56,46229,2,0,B|192:56,2,70.0000005960464,0|4|4,0:0|0:0|0:0,0:0:0
212,152,47086,2,0,B|136:156|108:240,1,140.000001192093,4|0,0:0|0:0,0:0:0
164,332,47943,5,0,0:0:0
276,344,48372,1,0,0:0:0
356,264,48801,1,0,0:0:0
308,164,49229,6,0,B|300:120|316:88,1,70.0000005960464,4|0,0:0|0:0,0:0:0
200,96,49872,2,4,B|212:120|204:164,1,70.0000005960464
100,204,50515,6,0,B|112:284|112:284|152:336,1,140.000001192093,0|4,0:0|0:0,0:0:0
256,308,51371,1,4,0:0:0
256,196,51801,2,0,P|292:76|428:84,1,280.000002384186,4|0,0:0|0:0,0:0:0
440,192,53086,5,0,0:0:0
328,192,53515,2,0,B|172:192,2,140.000001192093,4|0|0,0:0|0:0|0:0,0:0:0
304,84,54800,1,0,0:0:0
192,64,55229,2,0,B|136:68|88:32,2,105.00000089407,4|0|0,0:0|0:0|0:0,0:0:0
140,224,56515,5,0,0:0:0
240,276,56943,2,0,B|288:292|328:344,2,105.00000089407,4|0|0,0:0|0:0|0:0,0:0:0
240,220,57800,2,0,B|228:164|176:136,2,105.00000089407
196,252,58658,2,0,B|136:256|92:296,2,105.00000089407,4|0|0,0:0|0:0|0:0,0:0:0
364,248,59943,5,0,0:0:0
312,148,60372,2,0,B|344:112|404:104,2,105.00000089407,4|0|0,0:0|0:0|0:0,0:0:0
256,132,61229,2,0,B|256:24,2,105.00000089407,4|0|0,0:0|0:0|0:0,0:0:0
200,148,62086,2,0,B|168:112|108:104,2,105.00000089407,4|0|0,0:0|0:0|0:0,0:0:0
200,204,62943,2,0,B|168:248|112:280,2,105.00000089407,4|0|0,0:0|0:0|0:0,0:0:0
256,212,63800,6,0,B|256:360,1,140.000001192093,4|0,0:0|0:0,0:0:0
356,300,64658,2,0,B|408:280|464:288,2,105.00000089407
340,248,65515,2,0,B|352:188|400:144,2,105.00000089407,4|0|0,0:0|0:0|0:0,0:0:0
312,80,66800,1,0,0:0:0
256,72,67015,1,8,0:0:0
200,72,67229,6,0,B|152:80|112:132|116:180,2,140.000001192093,4|0|0,0:0|0:0|0:0,0:0:0
236,180,68515,1,0,0:0:0
272,288,68943,2,0,B|320:280|360:228|356:180,1,140.000001192093,4|0,0:0|0:0,0:0:0
376,80,69801,2,0,B|432:92|460:148,2,105.00000089407
320,80,70658,6,0,B|268:28,2,70.0000005960464,4|8|0,0:0|0:0|0:0,0:0:0
232,152,71515,2,0,B|156:136,2,70.0000005960464,0|8|0,0:0|0:0|0:0,0:0:0
256,192,72372,12,4,74086,0:0:0
256,268,80943,6,0,B|256:344,2,70.0000005960464,4|8|0,0:0|0:0|0:0,0:0:0
144,280,81801,2,0,B|104:224|104:224|92:152,1,140.000001192093
192,104,82658,2,0,B|164:36,2,70.0000005960464,0|8|0,0:0|0:0|0:0,0:0:0
300,132,83515,2,0,B|376:136|376:136|424:184,1,140.000001192093
380,284,84372,5,4,0:0:0
276,332,84801,1,0,0:0:0
172,288,85229,2,0,B|100:288,2,70.0000005960464,0|8|0,0:0|0:0|0:0,0:0:0
268,232,86086,2,0,B|224:168|144:180,1,140.000001192093
116,72,86943,1,0,0:0:0
224,36,87372,2,0,B|264:24|320:52|364:36,1,140.000001192093,0|4,0:0|0:0,0:0:0
380,148,88229,6,0,B|396:224|396:224|452:280,2,140.000001192093,8|0|0,0:0|0:0|0:0,0:0:0
292,216,89515,1,4,0:0:0
196,272,89943,2,0,B|120:264|120:264|52:288,1,140.000001192093,8|0,0:0|0:0,0:0:0
64,172,90801,2,0,B|28:104,2,70.0000005960464,0|0|4,0:0|0:0|0:0,0:0:0
176,156,91658,6,0,B|236:124|184:52|256:0|332:48|280:124|344:156,1,280.000002384186,8|0,0:0|0:0,0:0:0
256,228,92943,2,0,B|256:308,2,70.0000005960464,4|0|8,0:0|0:0|0:0,0:0:0
340,244,93693,2,0,B|444:272|480:164,1,175.000001490116
416,80,94658,6,0,B|472:40,2,70.0000005960464,4|0|0,0:0|0:0|0:0,0:0:0
304,72,95515,2,0,B|236:88|164:72,1,140.000001192093
56,100,96372,2,0,B|36:176|56:240,2,140.000001192093
160,136,97658,1,0,0:0:0
220,228,98086,6,0,B|192:248|180:284,2,70.0000005960464,4|8|0,0:0|0:0|0:0,0:0:0
312,296,98943,2,0,B|364:236|440:236,1,140.000001192093
400,128,99801,2,0,B|440:60,2,70.0000005960464,0|8|0,0:0|0:0|0:0,0:0:0
288,140,100658,1,0,0:0:0
232,44,101086,2,0,B|184:88|100:84,1,140.000001192093,0|4,0:0|0:0,0:0:0
160,180,101943,6,0,B|232:160|308:188,2,140.000001192093
224,272,103229,2,0,B|300:296|368:260,1,140.000001192093,4|0,0:0|0:0,0:0:0
416,200,103979,2,0,B|412:140|440:88,1,105.00000089407
400,52,104515,2,0,B|328:36,1,70.0000005960464
276,48,104943,6,0,B|200:64|168:136,1,140.000001192093,4|0,0:0|0:0,0:0:0
160,244,105801,1,0,0:0:0
244,316,106229,2,0,B|320:316,2,70.0000005960464,0|8|4,0:0|0:0|0:0,0:0:0
308,224,107086,2,0,B|380:192|456:208,1,140.000001192093
412,312,107943,2,0,B|480:324,2,70.0000005960464,0|8|0,0:0|0:0|0:0,0:0:0
300,300,108800,6,0,B|228:324|156:280,2,140.000001192093,0|0|0,0:0|0:0|0:0,0:0:0
240,208,110086,2,0,B|212:136|132:108|64:144,1,210.000001788139,0|4,0:0|0:0,0:0:0
56,200,110943,2,0,B|76:276|76:276|80:344,2,140.000001192093,0|0|4,0:0|0:0|0:0,0:0:0
96,96,112228,1,4,0:0:0
204,124,112657,1,0,0:0:0
316,104,113086,6,0,B|396:88|432:160,1,140.000001192093
336,216,113943,1,0,0:0:0
408,304,114371,2,0,B|356:356|244:328|236:252,2,210.000001788139,0|4|0,0:0|0:0|0:0,0:0:0
336,216,116086,6,0,B|324:148|280:88,1,140.000001192093,4|4,0:0|0:0,0:0:0
176,48,116943,2,0,B|140:112|68:152,2,140.000001192093
256,132,118228,2,0,B|256:204,1,70.0000005960464
256,260,118657,6,0,B|296:292|372:304|372:304|388:264|416:228,1,210.000001788139,4|8,0:0|0:0,0:0:0
416,172,119514,2,0,B|360:116|368:44,1,140.000001192093
256,56,120371,2,0,B|160:96,2,105.00000089407,4|0|0,0:0|0:0|0:0,0:0:0
220,220,121657,1,0,0:0:0
256,324,122085,6,0,B|352:284,2,105.00000089407,4|0|8,0:0|0:0|0:0,0:0:0
204,308,122943,2,0,B|100:352,2,105.00000089407,0|0|8,0:0|0:0|0:0,0:0:0
192,252,123800,2,0,B|136:200|148:116,2,140.000001192093,4|0|0,0:0|0:0|0:0,0:0:0
256,160,125085,1,0,0:0:0
336,240,125514,6,0,B|380:196|368:140|368:140|404:116,2,140.000001192093,4|0|4,0:0|0:0|0:0,0:0:0
256,316,126800,1,0,0:0:0
180,236,127228,2,0,B|136:192|148:136|148:136|112:112,2,140.000001192093,4|0|4,0:0|0:0|0:0,0:0:0
256,316,128514,1,0,0:0:0
344,244,128943,6,0,B|296:164|212:148|136:216|148:304,2,280.000002384186,4|0|4,0:0|0:0|0:0,0:0:0
416,156,131085,2,0,B|368:96|296:80,1,140.000001192093
188,96,131943,1,0,0:0:0
100,164,132371,6,0,B|48:228|100:304,2,140.000001192093,4|0|0,0:0|0:0|0:0,0:0:0
188,232,133657,1,0,0:0:0
292,276,134085,2,0,B|360:300|432:272,1,140.000001192093,4|0,0:0|0:0,0:0:0
384,172,134943,2,0,B|432:152|452:96,2,105.00000089407,0|0|8,0:0|0:0|0:0,0:0:0
328,156,135800,6,0,B|296:96|180:96|148:155,2,210.000001788139,4|0|0,0:0|0:0|0:0,0:0:0
256,192,137514,12,4,139228,0:0:0
256,168,146085,6,0,B|244:92|192:48|192:48|112:48|64:112,1,280.000002384186,4|0,0:0|0:0,0:0:0
88,220,147371,1,0,0:0:0
144,320,147800,2,0,B|212:368|276:312|336:268|412:324,1,280.000002384186
452,220,149085,2,0,B|440:148,1,70.0000005960464,0|8,0:0|0:0,0:0:0
432,96,149514,6,0,B|384:32|304:32|228:80|232:164,1,280.000002384186,4|0,0:0|0:0,0:0:0
312,240,150800,1,0,0:0:0
216,300,151228,2,0,B|144:336|72:301|25:224|66:151,1,280.000002384186,0|0,0:0|0:0,0:0:0
164,96,152514,1,0,0:0:0
236,180,152942,6,0,B|186:220|131:206,2,105.00000089407,4|0|0,0:0|0:0|0:0,0:0:0
290,189,153800,2,0,B|300:251|260:291,2,105.00000089407,4|0|0,0:0|0:0|0:0,0:0:0
345,175,154657,2,0,B|405:197|419:251,2,105.00000089407,4|0|0,0:0|0:0|0:0,0:0:0
360,120,155514,2,0,B|409:78|463:93,2,105.00000089407,4|0|0,0:0|0:0|0:0,0:0:0
316,84,156371,6,0,B|272:32|172:20|100:88|104:160,1,280.000002384186,4|0,0:0|0:0,0:0:0
120,264,157657,1,0,0:0:0
220,312,158085,2,0,B|296:312|352:268,1,140.000001192093,4|0,0:0|0:0,0:0:0
440,200,158942,2,0,B|392:144|304:144,1,140.000001192093,0|0,0:0|0:0,0:0:0
256,192,159800,12,0,161515,0:0:0
248,352,162371,6,0,P|276:276|336:248,1,140.000001192093
432,212,163229,2,0,B|436:152|388:88|388:88|428:12,2,210.000001788139,0|4|0,0:0|0:0|0:0,0:0:0
324,164,164942,2,0,B|256:128|188:164,1,140.000001192093,4|4,0:0|0:0,0:0:0
256,252,165799,1,0,0:0:0
220,360,166229,6,0,B|256:372|288:360,2,70.0000005960464,0|8|0,0:0|0:0|0:0,0:0:0
116,316,167085,1,0,0:0:0
84,208,167515,2,0,B|80:148|128:84|128:84|88:8,2,210.000001788139,0|4|0,0:0|0:0|0:0,0:0:0
192,176,169229,2,0,B|228:148|244:112,1,70.0000005960464,4|0,0:0|0:0,0:0:0
280,88,169656,2,0,B|360:72|420:132,1,140.000001192093,4|0,0:0|0:0,0:0:0
256,192,170192,12,4,171799,0:0:0
256,260,178656,6,0,B|208:288|152:288,2,105.00000089407,4|0|0,0:0|0:0|0:0,0:0:0
256,204,179513,2,0,B|304:232|360:232,2,105.00000089407,4|0|0,0:0|0:0|0:0,0:0:0
256,148,180370,2,0,B|208:120|152:120,2,105.00000089407,4|0|0,0:0|0:0|0:0,0:0:0
256,92,181227,2,0,B|304:64|360:64,2,105.00000089407,4|0|0,0:0|0:0|0:0,0:0:0
200,84,182084,6,0,B|132:88|72:156|80:256|132:304,1,280.000002384186,4|0,0:0|0:0,0:0:0
240,312,183370,1,0,0:0:0
348,280,183799,2,0,B|392:244|388:184,2,105.00000089407,4|0|4,0:0|0:0|0:0,0:0:0
244,148,185084,2,0,B|220:124|212:84,1,70.0000005960464
164,60,185513,6,0,B|92:64|60:140,2,140.000001192093,4|0|0,0:0|0:0|0:0,0:0:0
256,124,186799,1,0,0:0:0
348,60,187227,2,0,B|408:72|440:124,2,105.00000089407,4|0|0,0:0|0:0|0:0,0:0:0
356,228,188513,2,0,B|348:264|316:288,1,70.0000005960464
268,304,188942,6,0,B|196:320|132:272,2,140.000001192093,4|0|0,0:0|0:0|0:0,0:0:0
220,204,190227,1,0,0:0:0
124,148,190656,2,0,B|80:112|20:116,2,105.00000089407,4|0|0,0:0|0:0|0:0,0:0:0
256,44,191942,1,0,0:0:0
328,128,192370,6,0,B|368:188|364:268,2,140.000001192093,4|0|4,0:0|0:0|0:0,0:0:0
256,44,193656,1,0,0:0:0
184,128,194084,2,0,B|144:188|148:268,2,140.000001192093,4|0|4,0:0|0:0|0:0,0:0:0
124,32,195370,1,0,0:0:0
76,136,195799,6,0,B|16:220|20:340,2,210.000001788139,4|0|0,0:0|0:0|0:0,0:0:0
148,220,197513,2,0,B|164:276|152:328,2,105.00000089407,4|4|4,0:0|0:0|0:0,0:0:0
296,300,198799,1,0,0:0:0
380,224,199227,6,0,B|416:160|388:88,1,140.000001192093,4|0,0:0|0:0,0:0:0
276,84,200084,2,0,B|240:152|269:220,1,140.000001192093
160,236,200942,2,0,B|164:304|232:348|232:348|296:320|376:336,1,280.000002384186
416,232,202227,1,0,0:0:0
388,124,202656,6,0,B|332:80|284:88|284:88|232:100|188:64,2,210.000001788139,4|0|0,0:0|0:0|0:0,0:0:0
256,192,204370,12,4,206085,0:0:0
336,272,206942,6,0,B|392:200|348:124,2,140.000001192093
256,352,208227,1,0,0:0:0
176,272,208656,2,0,B|120:200|164:124,1,140.000001192093
256,92,209513,6,0,B|324:48,2,70.0000005960464,4|0|0,0:0|0:0|0:0,0:0:0
348,156,210370,2,0,B|424:180|420:264,1,140.000001192093
324,320,211227,2,0,B|240:328|240:328|176:296|176:296|112:308,2,210.000001788139
256,228,212942,6,0,B|184:192|184:192|124:204,2,140.000001192093,4|0|0,0:0|0:0|0:0,0:0:0
256,116,214227,1,0,0:0:0
352,172,214656,2,0,B|424:136|424:136|484:148,2,140.000001192093,0|0|0,0:0|0:0|0:0,0:0:0
440,240,215942,1,0,0:0:0
340,292,216370,6,0,B|280:332|208:336,1,140.000001192093,4|0,0:0|0:0,0:0:0
164,232,217227,2,0,B|80:212,2,70.0000005960464
212,132,218084,2,0,B|172:60,2,70.0000005960464
308,192,218942,2,0,B|368:252|348:328|348:328|280:352,1,210.000001788139
232,348,219799,6,0,B|156:344,1,70.0000005960464,6|0,0:0|0:0,0:0:0
180,292,220227,2,0,B|112:260,1,70.0000005960464,2|0,0:0|0:0,0:0:0
340,92,221513,6,0,B|400:144,1,70.0000005960464,2|0,0:0|0:0,0:0:0
348,168,221942,2,0,B|372:240,1,70.0000005960464,2|0,0:0|0:0,0:0:0
