osu file format v13

[General]
AudioFilename: Solutide- Yousei.mp3
AudioLeadIn: 0
PreviewTime: 129066
Countdown: 0
SampleSet: Soft
StackLeniency: 0.7
Mode: 0
LetterboxInBreaks: 1
WidescreenStoryboard: 0

[Editor]
Bookmarks: 2462,6268,8618,9514,15782,16678,18469,25633,32797,39962,47238,50708,61454,65036,75894,82947,96379,97275,104439,111603,118768,126044,129514,140148,143842,154700,161753,176081,177872,185036,192312,197573,208320,211902,222760,244253
DistanceSpacing: 1
BeatDivisor: 8
GridSize: 4
TimelineZoom: 2.4

[Metadata]
Title:Solitude
TitleUnicode:Solitude
Artist:Yousei Teikoku
ArtistUnicode:Yousei Teikoku
Creator:Shinobu Oshino
Version:Insane
Source:
Tags:
BeatmapID:530819
BeatmapSetID:227848

[Difficulty]
HPDrainRate:6
CircleSize:4
OverallDifficulty:8
ApproachRate:9.3
SliderMultiplier:1.8
SliderTickRate:2

[Events]
//Background and Video events
0,0,"bg.jpg",0,0
//Break Periods
//Storyboard Layer 0 (Background)
//Storyboard Layer 1 (Fail)
//Storyboard Layer 2 (Pass)
//Storyboard Layer 3 (Foreground)
//Storyboard Sound Samples

[TimingPoints]
671,223.880597014925,4,2,1,80,1,0
50708,-100,4,2,1,80,0,1
75894,-100,4,2,1,80,0,0
129514,-100,4,2,1,80,0,1
154700,-100,4,2,1,80,0,0
197573,-100,4,2,1,80,0,1
222760,-100,4,2,1,80,0,0

[HitObjects]
172,336,2238,5,0,0:0:0:0:
172,336,2350,6,0,P|82:296|80:187,1,180,4|4,0:0|0:0,0:0:0:0:
158,242,2685,2,0,P|201:251|237:279,1,90,8|0,0:0|0:0,0:0:0:0:
256,367,2909,2,0,P|306:342|335:293,1,90,4|4,0:0|0:0,0:0:0:0:
372,236,3133,1,8,0:0:0:0:
326,145,3245,2,0,P|375:75|462:80,1,180,4|4,0:0|0:0,0:0:0:0:
416,156,3581,5,8,0:0:0:0:
336,4,3693,1,0,0:0:0:0:
280,68,3805,2,0,P|258:108|222:133,1,90,4|4,0:0|0:0,0:0:0:0:
197,53,4029,1,8,0:0:0:0:
363,85,4141,2,0,P|325:155|231:218,1,180,4|4,0:0|0:0,0:0:0:0:
197,53,4476,5,8,0:0:0:0:
197,53,4588,2,0,L|100:32,2,90,0|4|4,0:0|0:0|0:0,0:0:0:0:
279,68,4924,1,8,0:0:0:0:
133,116,5036,2,0,P|96:200|148:266,1,180,4|4,0:0|0:0,0:0:0:0:
179,188,5372,5,8,0:0:0:0:
234,115,5484,1,0,0:0:0:0:
318,147,5596,1,4,0:0:0:0:
315,237,5708,1,4,0:0:0:0:
229,261,5820,1,8,0:0:0:0:
255,189,5932,2,2,B|323:189|323:189|355:157|355:157|431:157,1,180,6|4,0:0|0:0,0:0:0:0:
388,241,6268,6,0,P|425:266|445:306,1,90,8|0,0:0|0:0,0:0:0:0:
280,108,6491,2,0,P|317:82|337:42,1,90,4|4,0:0|0:0,0:0:0:0:
253,28,6715,1,8,0:0:0:0:
98,121,6827,2,0,P|91:215|186:256,1,180,4|4,0:0|0:0,0:0:0:0:
166,173,7163,5,8,0:0:0:0:
29,69,7275,2,0,P|65:40|122:38,2,90,0|4|4,0:0|0:0|0:0,0:0:0:0:
98,121,7611,1,8,0:0:0:0:
232,223,7723,2,0,P|331:219|364:135,1,180,4|4,0:0|0:0,0:0:0:0:
280,153,8059,5,8,0:0:0:0:
232,224,8170,1,0,0:0:0:0:
182,290,8282,2,0,L|80:348,2,90,4|4|8,0:0|0:0|0:0,0:0:0:0:
280,153,8618,6,0,P|263:86|181:53,1,135,6|0,0:0|0:0,0:0:0:0:
188,48,8842,2,0,P|171:115|89:148,1,135,6|0,0:0|0:0,0:0:0:0:
96,152,9066,2,0,P|113:219|195:252,1,135,6|0,0:0|0:0,0:0:0:0:
188,256,9290,2,0,P|255:273|288:355,1,135,6|0,0:0|0:0,0:0:0:0:
292,348,9514,6,0,P|363:324|382:228,1,180,4|4,0:0|0:0,0:0:0:0:
305,264,9850,1,8,0:0:0:0:
252,192,9962,1,0,0:0:0:0:
188,256,10073,1,4,0:0:0:0:
128,188,10185,1,4,0:0:0:0:
60,248,10297,1,8,0:0:0:0:
0,180,10409,2,0,P|4:81|99:52,1,180,4|4,0:0|0:0,0:0:0:0:
158,47,10745,5,8,0:0:0:0:
247,53,10857,1,0,0:0:0:0:
332,80,10969,1,4,0:0:0:0:
403,135,11081,1,4,0:0:0:0:
443,215,11193,1,8,0:0:0:0:
455,304,11305,2,0,B|363:304|363:304|333:342|275:332,1,180,4|4,0:0|0:0,0:0:0:0:
104,336,11641,6,0,P|63:292|46:255,2,90,8|0|4,0:0|0:0|0:0,0:0:0:0:
196,336,11976,2,0,P|232:284|232:240,1,90,4|8,0:0|0:0,0:0:0:0:
150,265,12200,2,0,P|117:214|98:84,1,180,4|4,0:0|0:0,0:0:0:0:
272,52,12536,6,0,P|333:65|363:97,1,90,8|0,0:0|0:0,0:0:0:0:
404,156,12760,2,0,P|342:169|312:201,1,90,4|4,0:0|0:0,0:0:0:0:
308,270,12984,1,8,0:0:0:0:
388,240,13096,2,0,P|355:340|272:347,1,180,6|4,0:0|0:0,0:0:0:0:
109,343,13432,6,0,L|66:245,1,90,8|0,0:0|0:0,0:0:0:0:
156,220,13656,2,0,L|194:120,1,90,4|4,0:0|0:0,0:0:0:0:
276,164,13879,1,8,0:0:0:0:
351,106,13991,2,0,P|364:195|272:260,1,180,4|4,0:0|0:0,0:0:0:0:
188,136,14327,5,8,0:0:0:0:
97,136,14439,1,0,0:0:0:0:
57,215,14551,2,0,P|78:263|139:294,2,90,4|4|8,0:0|0:0|0:0,0:0:0:0:
142,208,14887,2,0,P|226:209|270:113,1,180,4|4,0:0|0:0,0:0:0:0:
188,136,15223,5,8,0:0:0:0:
188,136,15335,1,0,0:0:0:0:
188,136,15447,1,4,0:0:0:0:
188,136,15559,1,4,0:0:0:0:
188,136,15670,1,8,0:0:0:0:
188,136,15782,6,0,P|253:160|327:129,1,135,6|0,0:0|0:0,0:0:0:0:
328,160,16006,2,0,P|304:225|335:299,1,135,6|0,0:0|0:0,0:0:0:0:
308,304,16230,2,0,P|243:280|169:311,1,135,6|0,0:0|0:0,0:0:0:0:
164,284,16454,2,0,P|188:219|157:145,1,135,6|0,0:0|0:0,0:0:0:0:
188,136,16678,5,4,0:0:0:0:
357,75,16902,1,4,0:0:0:0:
357,75,17014,2,0,P|344:124|368:182,1,90,8|4,0:0|0:0,0:0:0:0:
461,222,17238,2,0,P|424:186|362:178,1,90,8|4,0:0|0:0,0:0:0:0:
283,238,17462,2,0,P|332:224|370:174,1,90,8|4,0:0|0:0,0:0:0:0:
357,75,17685,2,0,L|320:64,7,22.5,0|0|0|0|0|4|0|0,0:0|0:0|0:0|0:0|0:0|0:0|0:0|0:0,0:0:0:0:
312,60,17909,2,0,L|275:71,7,22.5,4|0|0|0|0|4|0|4,0:0|0:0|0:0|0:0|0:0|0:0|0:0|0:0,0:0:0:0:
268,72,18133,1,8,0:0:0:0:
180,96,18245,1,8,0:0:0:0:
96,60,18357,1,8,0:0:0:0:
8,84,18469,6,0,P|8:168|84:228,1,180,6|4,0:0|0:0,0:0:0:0:
77,226,18805,1,8,0:0:0:0:
77,226,19029,1,8,0:0:0:0:
77,226,19253,2,0,B|116:249|116:249|161:241,1,90,8|4,0:0|0:0,0:0:0:0:
229,184,19476,2,0,B|268:161|268:161|313:169,1,90,8|4,0:0|0:0,0:0:0:0:
312,169,19700,1,8,0:0:0:0:
312,169,19924,1,8,0:0:0:0:
312,169,20148,1,8,0:0:0:0:
312,169,20260,6,0,B|353:187|353:187|333:226|333:226|373:260|354:331,1,180,6|4,0:0|0:0,0:0:0:0:
359,309,20596,1,8,0:0:0:0:
359,309,20820,1,8,0:0:0:0:
359,309,21044,2,0,B|320:332|320:332|275:324,1,90,8|4,0:0|0:0,0:0:0:0:
193,285,21268,2,0,B|170:246|170:246|178:201,1,90,8|4,0:0|0:0,0:0:0:0:
178,202,21491,1,8,0:0:0:0:
178,202,21715,1,8,0:0:0:0:
178,202,21939,1,8,0:0:0:0:
178,202,22051,6,0,B|161:160|161:160|203:146|203:146|199:94|262:57,1,180,4|4,0:0|0:0,0:0:0:0:
334,50,22387,2,0,P|384:68|415:119,1,90,8|0,0:0|0:0,0:0:0:0:
328,140,22611,5,4,0:0:0:0:
280,216,22723,1,4,0:0:0:0:
276,304,22835,2,0,P|193:335|158:328,1,90,8|0,0:0|0:0,0:0:0:0:
44,232,23059,5,4,0:0:0:0:
6,150,23170,1,4,0:0:0:0:
95,158,23282,2,0,P|128:201|129:255,1,90,8|0,0:0|0:0,0:0:0:0:
248,96,23506,5,4,0:0:0:0:
328,140,23618,1,4,0:0:0:0:
416,160,23730,1,8,0:0:0:0:
280,216,23842,6,0,P|189:209|144:286,1,180,6|4,0:0|0:0,0:0:0:0:
229,284,24178,2,0,P|279:301|337:278,1,90,8|0,0:0|0:0,0:0:0:0:
364,224,24402,2,0,B|364:156|364:156|396:124|396:124|396:48,1,180,8|4,0:0|0:0,0:0:0:0:
396,57,24738,1,8,0:0:0:0:
304,60,24850,2,0,B|276:48|276:48|254:72|196:64,1,90,4|8,0:0|0:0,0:0:0:0:
131,67,25073,6,0,L|57:85,2,45,4|4|4,0:0|0:0|0:0,0:0:0:0:
133,107,25269,2,0,L|53:163,1,90,4|4,0:0|0:0,0:0:0:0:
87,188,25465,2,0,L|162:222,1,45,4|8,0:0|0:0,0:0:0:0:
212,244,25633,2,0,P|298:254|349:176,1,180,4|4,0:0|0:0,0:0:0:0:
264,177,25969,5,8,0:0:0:0:
174,168,26081,1,0,0:0:0:0:
127,245,26193,1,4,0:0:0:0:
175,320,26305,1,4,0:0:0:0:
263,336,26417,1,8,0:0:0:0:
351,321,26529,2,0,B|430:277|430:277|446:176,1,180,4|4,0:0|0:0,0:0:0:0:
444,188,26865,5,8,0:0:0:0:
264,177,27088,1,4,0:0:0:0:
174,168,27200,1,4,0:0:0:0:
127,91,27312,1,8,0:0:0:0:
175,16,27424,2,0,B|243:16|243:16|279:43|279:43|357:43,1,180,4|4,0:0|0:0,0:0:0:0:
339,224,27760,6,0,L|317:314,1,90,8|0,0:0|0:0,0:0:0:0:
224,312,27984,2,0,L|153:256,1,90,4|4,0:0|0:0,0:0:0:0:
80,304,28208,1,8,0:0:0:0:
0,256,28320,2,0,P|-3:172|82:126,1,180,4|4,0:0|0:0,0:0:0:0:
252,106,28656,6,0,L|331:60,1,90,8|0,0:0|0:0,0:0:0:0:
346,149,28879,2,0,L|267:195,1,90,4|4,0:0|0:0,0:0:0:0:
336,253,29103,1,8,0:0:0:0:
413,207,29215,2,0,P|423:268|348:343,1,168.75,6|4,0:0|0:0,0:0:0:0:
260,308,29551,2,0,P|215:297|169:317,1,90,8|0,0:0|0:0,0:0:0:0:
48,180,29775,5,4,0:0:0:0:
84,97,29887,1,4,0:0:0:0:
166,61,29999,1,8,0:0:0:0:
256,56,30111,1,0,0:0:0:0:
360,204,30223,5,4,0:0:0:0:
371,294,30335,1,4,0:0:0:0:
289,259,30447,2,0,P|246:287|205:289,1,90,8|0,0:0|0:0,0:0:0:0:
36,268,30670,1,4,0:0:0:0:
36,268,30782,1,4,0:0:0:0:
36,268,30894,1,8,0:0:0:0:
36,268,31006,2,0,B|80:256|80:256|63:215|63:215|113:203|142:153,1,180,4|4,0:0|0:0,0:0:0:0:
174,82,31342,5,8,0:0:0:0:
348,32,31566,1,4,0:0:0:0:
396,108,31678,1,4,0:0:0:0:
376,196,31790,2,0,P|395:251|386:288,1,90,8|0,0:0|0:0,0:0:0:0:
328,348,32014,2,0,P|283:331|214:356,1,90,4|0,0:0|0:0,0:0:0:0:
112,304,32238,5,8,0:0:0:0:
109,295,32350,1,8,0:0:0:0:
106,286,32462,1,4,0:0:0:0:
103,277,32573,1,4,0:0:0:0:
100,268,32685,1,4,0:0:0:0:
96,260,32797,2,0,P|65:178|124:112,1,180,14|0,0:0|0:0,0:0:0:0:
119,113,33133,5,4,0:0:0:0:
119,113,33245,1,0,0:0:0:0:
119,113,33357,1,8,0:0:0:0:
119,113,33469,1,0,0:0:0:0:
119,113,33581,1,4,0:0:0:0:
119,113,33693,1,0,0:0:0:0:
118,113,33805,6,0,P|184:118|248:56,1,157.5,12|4,0:0|0:0,0:0:0:0:
247,58,34029,2,0,B|291:46|291:46|331:71,1,90
403,120,34253,2,0,P|411:215|294:250,1,225,8|4,0:0|0:0,0:0:0:0:
336,174,34588,2,0,P|252:187|219:269,1,180
218,290,34868,5,4,0:0:0:0:
83,304,35036,1,0,0:0:0:0:
67,285,35092,1,4,0:0:0:0:
67,261,35148,1,8,0:0:0:0:
51,245,35204,1,0,0:0:0:0:
6,146,35372,2,0,P|34:106|87:89,1,90,4|0,0:0|0:0,0:0:0:0:
213,61,35596,6,0,P|302:55|391:113,2,180,4|4|8,0:0|0:0|0:0,0:0:0:0:
213,61,36156,1,0,0:0:0:0:
213,61,36268,1,0,0:0:0:0:
213,61,36379,2,0,P|207:150|265:239,1,180,6|0,0:0|0:0,0:0:0:0:
250,226,36715,5,4,0:0:0:0:
250,226,36827,1,0,0:0:0:0:
250,226,36939,1,8,0:0:0:0:
250,226,37051,1,0,0:0:0:0:
250,226,37163,1,4,0:0:0:0:
250,226,37275,1,0,0:0:0:0:
250,226,37387,6,0,B|296:232|296:232|318:271|318:271|351:286|390:269,1,157.5,8|4,0:0|0:0,0:0:0:0:
383,271,37611,2,0,B|414:237|414:237|427:183,1,90
408,104,37835,1,8,0:0:0:0:
408,104,37947,2,0,L|316:72,1,90
236,44,38170,2,0,P|146:52|112:131,1,180,4|0,0:0|0:0,0:0:0:0:
198,121,38506,6,0,L|256:192,1,90,8|0,0:0|0:0,0:0:0:0:
340,156,38730,2,0,L|320:260,1,90,4|4,0:0|0:0,0:0:0:0:
240,276,38954,2,0,L|316:340,2,90,8|0|0,0:0|0:0|0:0,0:0:0:0:
120,172,39374,6,0,L|44:108,3,90,8|0|0|0,0:0|0:0|0:0|0:0,0:0:0:0:
132,68,39822,2,0,P|182:44|242:59,1,112.5,8|0,0:0|0:0,0:0:0:0:
