osu file format v12

[General]
AudioFilename: Yousei Teikoku - Solitude.mp3
AudioLeadIn: 0
PreviewTime: 50589
Countdown: 1
SampleSet: Normal
StackLeniency: 0.7
Mode: 0
LetterboxInBreaks: 1
WidescreenStoryboard: 1

[Editor]
DistanceSpacing: 1.2
BeatDivisor: 4
GridSize: 4
TimelineZoom: 1

[Metadata]
Title:Solitude
TitleUnicode:Solitude
Artist:Yousei Teikoku
ArtistUnicode:Yousei Teikoku
Creator:Asia Senpai
Version:fogsfles`s hard
Source:yousei Teikoku
Tags:Yousei Teikoku damnjelly fogsfles
BeatmapID:427967
BeatmapSetID:177760

[Difficulty]
HPDrainRate:7
CircleSize:3
OverallDifficulty:6
ApproachRate:7
SliderMultiplier:1
SliderTickRate:1

[Events]
//Background and Video events
0,0,"bg.jpg",0,0
//Break Periods
2,18998,21480
//Storyboard Layer 0 (Background)
//Storyboard Layer 1 (Fail)
//Storyboard Layer 2 (Pass)
//Storyboard Layer 3 (Foreground)
//Storyboard Sound Samples
//Background Colour Transformations
3,100,163,162,255

[TimingPoints]
888,223.880597014925,4,1,0,100,1,0

[HitObjects]
256,192,832,12,0,2231,0:0:0:0:
128,216,2455,5,0,0:0:0:0:
120,120,2902,2,0,B|149:78|204:64|204:64,1,100
304,63,3350,1,0,0:0:0:0:
379,124,3574,1,0,0:0:0:0:
282,177,3798,2,0,P|232:184|197:225,1,100
136,288,4246,5,0,0:0:0:0:
144,312,4358,1,0,0:0:0:0:
234,312,4693,1,0,0:0:0:0:
345,330,4917,1,0,0:0:0:0:
381,223,5141,1,0,0:0:0:0:
276,177,5365,1,0,0:0:0:0:
96,129,6037,1,0,0:0:0:0:
96,129,6149,5,0,0:0:0:0:
57,229,6485,2,0,B|95:271|95:271|143:265,1,100
234,251,6932,1,0,0:0:0:0:
234,251,7044,1,0,0:0:0:0:
368,307,7380,1,0,0:0:0:0:
403,220,7604,2,0,P|423:169|410:124,1,100
389,95,7940,1,0,0:0:0:0:
216,80,8276,2,0,P|140:132|136:152,1,100
140,300,8723,1,0,0:0:0:0:
156,308,8779,5,0,0:0:0:0:
345,311,8947,1,0,0:0:0:0:
256,188,9171,1,0,0:0:0:0:
256,280,9395,1,0,0:0:0:0:
76,72,10067,1,0,0:0:0:0:
164,140,10290,1,0,0:0:0:0:
56,196,10514,1,0,0:0:0:0:
152,264,10738,1,0,0:0:0:0:
436,72,10962,5,0,0:0:0:0:
348,140,11186,1,0,0:0:0:0:
456,196,11410,1,0,0:0:0:0:
360,264,11634,1,0,0:0:0:0:
216,320,11858,2,0,P|192:264|156:256,1,100
296,320,12305,2,0,P|320:264|356:256,1,100
216,208,12753,2,0,B|196:184|196:184|124:180,1,100
312,176,13201,1,0,0:0:0:0:
320,168,13313,1,0,0:0:0:0:
124,128,13649,1,0,0:0:0:0:
208,104,13873,2,0,P|236:68|288:56,1,100
324,68,14208,5,0,0:0:0:0:
416,156,14544,1,0,0:0:0:0:
336,200,14768,2,0,P|272:188|224:200,1,100
208,208,15104,1,0,0:0:0:0:
136,288,15440,1,0,0:0:0:0:
48,188,15664,1,0,0:0:0:0:
152,136,15887,1,0,0:0:0:0:
168,172,15999,2,0,L|224:260,1,100
344,172,16447,2,0,L|288:260,1,100
256,192,17007,44,0,18798,0:0:0:0:
152,92,22380,6,0,L|96:184,1,100
128,284,22828,6,0,L|184:184,5,100
360,292,24171,6,0,L|416:200,1,100
384,100,24619,6,0,L|328:200,5,100
136,176,26186,1,0,0:0:0:0:
400,312,26634,1,0,0:0:0:0:
256,252,27082,1,0,0:0:0:0:
356,72,27529,1,0,0:0:0:0:
116,68,27977,1,0,0:0:0:0:
104,276,28425,1,0,0:0:0:0:
188,204,28649,2,0,P|232:144|268:132,1,100
340,128,29096,2,0,B|392:136|392:136|396:204,1,100
400,204,29432,5,0,0:0:0:0:
324,296,29768,2,0,B|276:312|276:312|240:272,1,100
144,192,30216,1,0,0:0:0:0:
132,104,30440,2,0,B|184:40|240:184|288:32|340:68,1,200
384,180,31335,1,0,0:0:0:0:
204,260,31783,1,0,0:0:0:0:
200,92,32231,1,0,0:0:0:0:
368,320,32679,1,0,0:0:0:0:
