osu file format v13

[General]
AudioFilename: Shinteki Souzou.mp3
AudioLeadIn: 0
PreviewTime: 58715
Countdown: 0
SampleSet: Soft
StackLeniency: 0.7
Mode: 0
LetterboxInBreaks: 0
WidescreenStoryboard: 1

[Editor]
DistanceSpacing: 1.3
BeatDivisor: 4
GridSize: 4
TimelineZoom: 3.699999

[Metadata]
Title:Shinteki Souzou (Short Ver.)
TitleUnicode:神的創造 (Short Ver.)
Artist:Yousei Teikoku
ArtistUnicode:妖精帝國
Creator:Saten
Version:Insane
Source:fortissimo FA//Akkord:nächsten Phase
Tags:Saten-san
BeatmapID:453855
BeatmapSetID:144069

[Difficulty]
HPDrainRate:7
CircleSize:4
OverallDifficulty:7
ApproachRate:9
SliderMultiplier:1.5
SliderTickRate:2

[Events]
//Background and Video events
Video,0,"fortissimo.avi"
0,0,"guishen_0686ff_cg_momiji_17a.jpg",0,0
//Break Periods
//Storyboard Layer 0 (Background)
//Storyboard Layer 1 (Fail)
//Storyboard Layer 2 (Pass)
//Storyboard Layer 3 (Foreground)
//Storyboard Sound Samples
//Background Colour Transformations
3,100,0,0,0

[TimingPoints]
1740,434.782608695652,4,2,1,80,1,0
11305,452.830188679245,4,2,1,80,1,8
12210,458.015267175573,4,2,1,80,1,0
14042,491.803278688525,4,2,1,80,1,0
15025,402.684563758389,4,2,1,80,1,8
15427,201.342281879195,4,1,1,80,1,0
32943,-117.647058823529,4,1,1,70,0,0
33145,-117.647058823529,4,1,1,70,0,0
57306,-111.111111111111,4,1,1,70,0,0
57608,-105.263157894737,4,1,1,70,0,0
57910,-100,4,1,1,70,0,0
58212,-95.2380952380952,4,1,1,70,0,0
58916,-90.9090909090909,4,1,1,80,0,1
87507,-90.9090909090909,4,1,1,50,0,1
87910,-90.9090909090909,4,1,1,80,0,1
90729,-90.9090909090909,4,1,1,60,0,1
91131,-100,4,1,1,80,0,0
91232,-100,4,2,1,5,0,0

[Colours]
Combo1 : 255,255,62
Combo2 : 255,163,70
Combo3 : 108,255,108
Combo4 : 177,100,255

[HitObjects]
256,154,15025,6,0,L|256:192,3,37.5,8|8|8|8,1:0|1:0|1:0|1:0,0:0:0:0:
256,223,15427,6,0,P|190:256|119:235,1,150,4|8,0:0|0:0,0:0:0:0:
120,236,15729,1,0,0:0:0:0:
120,236,15829,1,0,0:0:0:0:
120,84,16031,1,8,0:0:0:0:
256,20,16232,2,0,P|332:32|380:84,1,150,0|8,0:0|0:0,0:0:0:0:
312,116,16534,2,0,P|236:136|196:192,1,150
256,236,16836,2,0,L|400:280,1,150,8|0,0:0|0:0,0:0:0:0:
476,152,17239,6,0,L|460:76,1,75,8|0,0:0|0:0,0:0:0:0:
392,112,17440,2,0,L|348:52,1,75
300,108,17641,2,0,L|228:84,1,75,8|0,0:0|0:0,0:0:0:0:
172,136,17843,1,0,0:0:0:0:
176,172,17943,1,0,0:0:0:0:
188,208,18044,1,8,0:0:0:0:
220,228,18145,1,0,0:0:0:0:
256,236,18245,2,0,L|328:216,1,75
372,280,18447,2,0,L|300:300,1,75,8|0,0:0|0:0,0:0:0:0:
256,360,18648,6,0,P|328:376|396:348,1,150,4|8,0:0|0:0,0:0:0:0:
396,347,18950,1,0,0:0:0:0:
396,347,19051,1,0,0:0:0:0:
332,212,19252,1,8,0:0:0:0:
424,92,19453,2,0,P|468:152|456:224,1,150,0|8,0:0|0:0,0:0:0:0:
396,176,19755,2,0,P|332:128|264:132,1,150
220,192,20057,1,8,0:0:0:0:
292,324,20259,6,0,L|352:276,1,75
220,284,20460,2,0,L|160:236,1,75,12|0,1:2|0:0,0:0:0:0:
292,244,20661,2,0,L|352:196,1,75
220,204,20863,2,0,L|160:156,1,75,12|0,1:2|0:0,0:0:0:0:
224,40,21064,2,0,P|282:83|284:156,1,150,0|12,0:0|1:2,0:0:0:0:
284,155,21366,1,0,0:0:0:0:
284,155,21467,1,0,0:0:0:0:
140,192,21668,1,8,0:0:0:0:
44,76,21869,6,0,P|115:62|176:104,1,150,4|8,0:0|0:0,0:0:0:0:
175,103,22171,1,0,0:0:0:0:
175,103,22272,1,0,0:0:0:0:
200,252,22473,1,8,0:0:0:0:
48,260,22675,2,0,P|48:188|100:136,1,150,0|8,0:0|0:0,0:0:0:0:
164,180,22977,2,0,P|232:156|248:80,1,150
175,103,23279,2,0,L|284:205,1,150,8|0,0:0|0:0,0:0:0:0:
220,340,23682,6,0,L|148:360,1,75,8|0,0:0|0:0,0:0:0:0:
140,284,23883,2,0,L|68:264,1,75
104,196,24084,2,0,L|52:140,1,75,8|0,0:0|0:0,0:0:0:0:
96,76,24286,1,0,0:0:0:0:
132,84,24386,1,0,0:0:0:0:
168,92,24487,1,8,0:0:0:0:
204,100,24588,1,0,0:0:0:0:
240,108,24688,2,0,P|280:96|308:76,1,75
384,80,24890,2,0,P|388:120|380:156,1,75,8|0,0:0|0:0,0:0:0:0:
308,176,25091,6,0,P|256:228|256:300,1,150,4|8,0:0|0:0,0:0:0:0:
256,300,25393,1,0,0:0:0:0:
256,300,25494,1,0,0:0:0:0:
404,332,25695,1,8,0:0:0:0:
464,196,25896,2,0,P|444:128|384:80,1,150,0|8,0:0|0:0,0:0:0:0:
48,196,26198,2,0,P|68:128|128:80,1,150,0|0,0:0|0:0,0:0:0:0:
256,115,26500,1,8,0:0:0:0:
256,115,26702,6,0,P|233:145|203:168,1,75,0|0,0:0|0:0,0:0:0:0:
255,268,26903,2,0,P|277:237|308:215,1,75,12|0,1:2|0:0,0:0:0:0:
240,104,27104,6,0,P|222:137|197:164,1,75,0|0,0:0|0:0,0:0:0:0:
272,280,27306,2,0,P|289:246|314:219,1,75,12|0,1:2|0:0,0:0:0:0:
220,88,27507,6,0,P|208:123|188:155,1,75,0|0,0:0|0:0,0:0:0:0:
292,296,27708,2,0,P|304:261|324:229,1,75,12|0,1:2|0:0,0:0:0:0:
191,79,27910,6,0,P|186:116|171:150,1,75,0|0,0:0|0:0,0:0:0:0:
321,305,28111,2,0,P|325:267|340:233,1,75,12|0,1:2|0:0,0:0:0:0:
256,192,28312,5,8,0:0:0:0:
224,208,28413,1,0,0:0:0:0:
200,236,28514,1,8,0:0:0:0:
188,272,28614,1,0,0:0:0:0:
192,308,28715,1,8,0:0:0:0:
216,336,28816,1,0,0:0:0:0:
252,348,28916,1,8,0:0:0:0:
288,348,29017,1,0,0:0:0:0:
320,332,29118,6,0,L|372:276,1,75,8|0,0:0|0:0,0:0:0:0:
308,240,29319,2,0,L|256:184,1,75,8|0,0:0|0:0,0:0:0:0:
320,148,29520,2,0,L|372:92,1,75,8|0,0:0|0:0,0:0:0:0:
312,48,29722,2,0,L|264:36,3,50,8|0|0|4,0:0|0:0|0:0|0:0,0:0:0:0:
256,192,30024,12,2,31131,2:0:0:0:
256,48,31534,5,0,0:0:0:0:
256,84,31635,1,0,0:0:0:0:
256,120,31735,1,0,0:0:0:0:
256,156,31836,1,0,0:0:0:0:
256,192,31937,1,0,0:0:0:0:
256,228,32037,1,0,0:0:0:0:
256,264,32138,1,0,0:0:0:0:
256,300,32239,1,0,0:0:0:0:
256,336,32339,1,0,0:0:0:0:
404,368,32541,1,8,0:0:0:0:
488,244,32742,1,0,0:0:0:0:
360,256,32943,6,0,L|332:288,2,42.5000008106232,0|0|0,0:0|0:0|0:0,0:0:0:0:
380,220,33145,2,0,P|376:160|328:116,1,127.50000243187
132,220,34554,6,0,P|136:160|184:116,1,127.50000243187
256,192,35561,6,0,L|256:236,3,42.5000008106232,0|0|0|0,0:0|0:0|0:0|0:0,0:0:0:0:
196,348,35963,2,0,P|164:343|133:336,1,63.7500012159348
108,264,36165,2,0,P|139:259|170:252,1,63.7500012159348
176,176,36366,2,0,P|116:136|60:136,1,127.50000243187,4|8,0:0|0:0,0:0:0:0:
28,300,36769,1,0,0:0:0:0:
28,300,36869,1,0,0:0:0:0:
28,300,36970,2,0,P|52:240|104:208,1,127.50000243187,8|0,0:0|0:0,0:0:0:0:
256,276,37373,1,8,0:0:0:0:
256,276,37473,2,0,P|296:224|296:164,1,127.50000243187
228,116,37775,1,8,0:0:0:0:
120,244,37977,5,0,0:0:0:0:
276,192,38178,1,8,0:0:0:0:
308,168,38279,1,0,0:0:0:0:
324,132,38380,1,0,0:0:0:0:
324,96,38480,1,0,0:0:0:0:
308,60,38581,2,0,L|180:60,1,127.50000243187,8|0,0:0|0:0,0:0:0:0:
60,176,38984,1,8,0:0:0:0:
220,136,39185,1,0,0:0:0:0:
248,160,39286,1,0,0:0:0:0:
260,196,39386,1,8,0:0:0:0:
248,232,39487,1,0,0:0:0:0:
220,256,39588,6,0,L|92:256,1,127.50000243187,4|8,0:0|0:0,0:0:0:0:
28,104,39990,2,0,L|92:112,1,63.7500012159348
140,180,40192,2,0,L|76:188,1,63.7500012159348,8|0,0:0|0:0,0:0:0:0:
28,256,40393,2,0,L|92:264,1,63.7500012159348
140,332,40594,2,0,L|76:340,1,63.7500012159348,8|0,0:0|0:0,0:0:0:0:
32,268,40796,1,0,0:0:0:0:
32,268,40896,1,0,0:0:0:0:
32,268,40997,2,0,P|52:208|100:168,1,127.50000243187,8|0,0:0|0:0,0:0:0:0:
224,280,41400,6,0,L|288:288,1,63.7500012159348,8|0,0:0|0:0,0:0:0:0:
268,208,41601,2,0,L|204:200,1,63.7500012159348,0|0,0:0|0:0,0:0:0:0:
184,120,41802,2,0,L|248:128,1,63.7500012159348,8|0,0:0|0:0,0:0:0:0:
328,104,42004,1,0,0:0:0:0:
328,104,42104,1,0,0:0:0:0:
328,104,42205,2,0,P|288:48|232:32,1,127.50000243187,8|0,0:0|0:0,0:0:0:0:
100,128,42608,5,8,0:0:0:0:
100,128,42708,1,0,0:0:0:0:
100,128,42809,2,0,P|168:148|220:128,1,127.50000243187,4|8,0:0|0:0,0:0:0:0:
356,32,43212,1,0,0:0:0:0:
388,60,43312,1,0,0:0:0:0:
396,100,43413,1,8,0:0:0:0:
384,140,43514,1,0,0:0:0:0:
352,168,43614,2,0,P|368:232|416:268,1,127.50000243187,0|8,0:0|0:0,0:0:0:0:
396,348,43916,2,0,P|328:340|288:300,1,127.50000243187
256,224,44218,6,0,L|280:164,1,63.7500012159348,8|0,0:0|0:0,0:0:0:0:
216,112,44420,2,0,P|158:135|132:192,1,127.50000243187,0|8,0:0|0:0,0:0:0:0:
48,200,44722,2,0,P|20:143|31:81,1,127.50000243187
30,81,45024,1,8,0:0:0:0:
216,112,45225,6,0,L|196:172,1,63.7500012159348,4|0,0:0|0:0,0:0:0:0:
304,128,45427,2,0,L|324:68,1,63.7500012159348,8|0,0:0|0:0,0:0:0:0:
436,56,45628,2,0,L|480:64,2,42.5000008106232,0|0|0,0:0|0:0|0:0,0:0:0:0:
424,112,45829,2,0,L|380:120,2,42.5000008106232,8|0|0,0:0|0:0|0:0,0:0:0:0:
460,156,46031,6,0,P|428:208|368:228,1,127.50000243187,4|8,0:0|0:0,0:0:0:0:
256,108,46433,1,0,0:0:0:0:
212,92,46534,1,0,0:0:0:0:
168,96,46635,1,8,0:0:0:0:
132,120,46735,1,0,0:0:0:0:
116,164,46836,6,0,L|128:228,1,63.7500012159348,0|0,0:0|0:0,0:0:0:0:
212,236,47037,2,0,L|200:172,1,63.7500012159348,8|0,0:0|0:0,0:0:0:0:
284,182,47239,2,0,L|296:245,1,63.7500012159348,0|0,0:0|0:0,0:0:0:0:
379,252,47440,2,0,L|368:190,1,63.7500012159348,8|0,0:0|0:0,0:0:0:0:
404,116,47641,2,0,P|464:152|484:204,1,127.50000243187,0|12,0:0|0:0,0:0:0:0:
384,336,48044,5,0,0:0:0:0:
340,328,48145,1,0,0:0:0:0:
308,300,48245,1,8,0:0:0:0:
296,256,48346,1,0,0:0:0:0:
308,212,48447,2,0,L|368:184,2,63.7500012159348,4|0|8,0:0|0:0|0:0,0:0:0:0:
240,164,48749,2,0,L|180:136,2,63.7500012159348,0|0|0,0:0|0:0|0:0,0:0:0:0:
308,116,49051,2,0,L|368:88,1,63.7500012159348,12|0,0:0|0:0,0:0:0:0:
240,68,49252,6,0,L|124:14,1,127.50000243187,4|8,0:0|0:0,0:0:0:0:
28,148,49655,1,0,0:0:0:0:
36,192,49755,1,0,0:0:0:0:
68,224,49856,1,8,0:0:0:0:
112,236,49957,1,0,0:0:0:0:
156,228,50057,2,0,P|140:160|160:108,1,127.50000243187,0|8,0:0|0:0,0:0:0:0:
228,156,50359,2,0,P|292:168|348:144,1,127.50000243187
347,144,50661,1,8,0:0:0:0:
347,144,50762,1,0,0:0:0:0:
347,144,50863,1,0,0:0:0:0:
436,284,51064,5,12,0:0:0:0:
272,292,51265,1,0,0:0:0:0:
240,260,51366,1,0,0:0:0:0:
224,216,51467,1,8,0:0:0:0:
232,172,51567,1,0,0:0:0:0:
260,136,51668,2,0,L|304:88,1,63.7500012159348,4|0,0:0|0:0,0:0:0:0:
336,164,51869,2,0,L|400:148,1,63.7500012159348,8|0,0:0|0:0,0:0:0:0:
384,228,52071,2,0,L|448:236,1,63.7500012159348
400,304,52272,2,0,L|456:336,1,63.7500012159348,12|0,0:0|0:0,0:0:0:0:
384,380,52473,6,0,P|336:348|328:280,1,127.50000243187,4|8,0:0|0:0,0:0:0:0:
424,148,52876,1,0,0:0:0:0:
424,148,52977,1,0,0:0:0:0:
424,148,53078,2,0,P|392:96|332:76,1,127.50000243187,8|0,0:0|0:0,0:0:0:0:
292,96,53380,1,0,0:0:0:0:
264,132,53480,2,0,P|196:120|156:80,1,127.50000243187,8|0,0:0|0:0,0:0:0:0:
156,80,53782,1,0,0:0:0:0:
156,80,53883,1,8,0:0:0:0:
32,192,54084,1,4,0:0:0:0:
200,192,54286,5,8,0:0:0:0:
240,208,54386,1,0,0:0:0:0:
272,240,54487,1,0,0:0:0:0:
316,244,54588,1,0,0:0:0:0:
356,228,54688,1,8,0:0:0:0:
388,196,54789,1,0,0:0:0:0:
396,152,54890,2,0,L|380:88,2,63.7500012159348,4|0|8,0:0|0:0|0:0,0:0:0:0:
312,156,55192,2,0,L|272:104,2,63.7500012159348,0|0|0,0:0|0:0|0:0,0:0:0:0:
284,236,55494,2,0,L|220:212,1,63.7500012159348,12|0,0:0|0:0,0:0:0:0:
228,296,55695,6,0,P|288:316|344:288,1,127.50000243187,4|8,0:0|0:0,0:0:0:0:
232,164,56098,1,0,0:0:0:0:
216,124,56198,1,0,0:0:0:0:
220,80,56299,1,8,0:0:0:0:
252,48,56400,1,0,0:0:0:0:
296,36,56500,2,0,L|360:52,1,63.7500012159348
472,108,56702,2,0,L|408:124,1,63.7500012159348,8|0,0:0|0:0,0:0:0:0:
296,180,56903,2,0,L|360:196,1,63.7500012159348
472,252,57104,2,0,L|408:268,1,63.7500012159348,8|0,0:0|0:0,0:0:0:0:
280,308,57306,6,0,L|336:264,1,67.4999979400635,0|8,0:0|0:0,0:0:0:0:
232,308,57608,6,0,L|288:264,1,71.2499980974198,0|8,0:0|0:0,0:0:0:0:
184,308,57910,6,0,L|244:260,1,75,0|8,0:0|0:0,0:0:0:0:
136,308,58212,6,0,L|199:258,1,78.7499975967408,0|8,0:0|0:0,0:0:0:0:
316,92,58514,5,8,0:0:0:0:
316,92,58614,1,8,0:0:0:0:
316,92,58715,1,8,0:0:0:0:
316,92,58816,1,8,0:0:0:0:
316,92,58916,6,0,P|240:56|164:76,1,165.000005035401,4|8,0:0|0:0,0:0:0:0:
108,232,59319,1,0,0:0:0:0:
157,235,59420,1,0,0:0:0:0:
203,223,59520,1,8,0:0:0:0:
229,182,59621,1,0,0:0:0:0:
228,133,59722,2,0,P|296:88|376:100,1,165.000005035401,0|8,0:0|0:0,0:0:0:0:
420,256,60124,1,0,0:0:0:0:
420,256,60225,1,0,0:0:0:0:
420,256,60326,2,0,P|342:232|312:160,1,165.000005035401,8|0,0:0|0:0,0:0:0:0:
440,60,60729,5,8,0:0:0:0:
312,160,60930,2,0,P|268:152|236:132,1,82.5000025177003
284,64,61131,2,0,P|328:56|360:36,1,82.5000025177003,8|0,0:0|0:0,0:0:0:0:
440,60,61333,2,0,L|440:228,1,165.000005035401,0|8,0:0|0:0,0:0:0:0:
296,304,61735,1,0,0:0:0:0:
256,276,61836,1,0,0:0:0:0:
240,228,61937,1,8,0:0:0:0:
248,180,62037,1,0,0:0:0:0:
284,148,62138,6,0,P|348:104|344:24,1,165.000005035401,4|8,0:0|0:0,0:0:0:0:
180,32,62541,1,0,0:0:0:0:
164,80,62641,1,0,0:0:0:0:
148,128,62742,1,8,0:0:0:0:
132,176,62843,1,0,0:0:0:0:
116,224,62943,2,0,P|44:188|20:112,1,165.000005035401,0|8,0:0|0:0,0:0:0:0:
20,111,63245,1,0,0:0:0:0:
20,111,63346,1,0,0:0:0:0:
164,28,63547,1,8,0:0:0:0:
219,183,63749,6,0,P|266:250|344:267,1,165.000005035401,0|8,0:0|0:0,0:0:0:0:
324,188,64051,2,0,P|307:109|348:39,1,165.000005035401
348,39,64353,1,8,0:0:0:0:
348,39,64453,1,0,0:0:0:0:
348,39,64554,2,0,L|428:64,1,82.5000025177003,4|0,0:0|0:0,0:0:0:0:
360,168,64755,2,0,L|280:193,1,82.5000025177003,8|0,0:0|0:0,0:0:0:0:
224,264,64957,1,0,0:0:0:0:
224,264,65057,1,0,0:0:0:0:
224,264,65158,1,8,0:0:0:0:
224,264,65259,1,0,0:0:0:0:
224,264,65359,6,0,P|280:196|280:120,1,165.000005035401,4|8,0:0|0:0,0:0:0:0:
140,32,65762,1,0,0:0:0:0:
140,32,65863,1,0,0:0:0:0:
140,32,65963,2,0,P|132:112|192:164,1,165.000005035401,8|0,0:0|0:0,0:0:0:0:
348,108,66366,1,8,0:0:0:0:
348,108,66467,2,0,P|404:145|408:236,1,165.000005035401
336,192,66769,6,0,P|256:220|224:288,1,165.000005035401,8|0,0:0|0:0,0:0:0:0:
372,364,67171,1,8,0:0:0:0:
272,232,67373,1,0,0:0:0:0:
272,232,67473,1,0,0:0:0:0:
272,232,67574,2,0,L|256:152,1,82.5000025177003,8|0,0:0|0:0,0:0:0:0:
152,80,67775,2,0,L|152:164,1,82.5000025177003,0|0,0:0|0:0,0:0:0:0:
32,232,67977,2,0,L|48:152,1,82.5000025177003,8|0,0:0|0:0,0:0:0:0:
76,72,68178,1,0,0:0:0:0:
120,48,68279,1,0,0:0:0:0:
168,52,68380,1,8,0:0:0:0:
204,88,68480,1,0,0:0:0:0:
208,136,68581,6,0,P|266:191|347:192,1,165.000005035401,4|8,0:0|0:0,0:0:0:0:
424,44,68984,1,0,0:0:0:0:
424,44,69084,1,0,0:0:0:0:
424,44,69185,2,0,P|344:49|296:112,1,165.000005035401,8|0,0:0|0:0,0:0:0:0:
380,256,69588,1,8,0:0:0:0:
380,256,69688,2,0,P|415:185|380:112,1,165.000005035401
336,184,69990,6,0,P|301:113|336:40,1,165.000005035401,8|4,0:0|0:0,0:0:0:0:
384,40,70292,1,0,0:0:0:0:
428,60,70393,1,8,0:0:0:0:
452,104,70494,1,0,0:0:0:0:
440,152,70594,1,0,0:0:0:0:
404,188,70695,1,0,0:0:0:0:
356,192,70796,1,8,0:0:0:0:
312,168,70896,1,0,0:0:0:0:
288,124,70997,6,0,P|244:120|204:124,1,82.5000025177003
180,204,71198,2,0,P|224:200|264:204,1,82.5000025177003,8|0,0:0|0:0,0:0:0:0:
288,284,71400,2,0,P|244:280|204:284,1,82.5000025177003
180,364,71601,2,0,P|224:360|264:364,1,82.5000025177003,8|0,0:0|0:0,0:0:0:0:
344,352,71802,6,0,P|380:280|340:212,1,165.000005035401,4|8,0:0|0:0,0:0:0:0:
176,204,72205,1,0,0:0:0:0:
132,180,72306,1,0,0:0:0:0:
112,136,72406,1,8,0:0:0:0:
120,88,72507,1,0,0:0:0:0:
160,60,72608,2,0,L|325:60,1,165.000005035401,0|8,0:0|0:0,0:0:0:0:
348,140,72910,2,0,L|183:140,1,165.000005035401,0|0,0:0|0:0,0:0:0:0:
160,220,73212,2,0,L|325:220,1,165.000005035401,8|0,0:0|0:0,0:0:0:0:
404,76,73614,5,8,0:0:0:0:
256,148,73816,1,0,0:0:0:0:
256,148,73916,1,0,0:0:0:0:
256,148,74017,2,0,P|176:132|128:68,1,165.000005035401,8|0,0:0|0:0,0:0:0:0:
128,68,74319,1,0,0:0:0:0:
128,68,74420,2,0,P|65:126|68:200,1,165.000005035401,8|0,0:0|0:0,0:0:0:0:
68,200,74722,1,0,0:0:0:0:
68,200,74822,1,8,0:0:0:0:
256,313,75024,6,0,L|256:148,1,165.000005035401,4|8,0:0|0:0,0:0:0:0:
368,28,75427,1,0,0:0:0:0:
408,56,75527,1,0,0:0:0:0:
416,104,75628,1,8,0:0:0:0:
400,152,75729,1,0,0:0:0:0:
356,176,75829,2,0,B|292:180|276:160|260:136|196:144,1,165.000005035401,0|8,0:0|0:0,0:0:0:0:
172,224,76131,2,0,B|234:216|250:240|266:260|330:256,1,165.000005035401,0|0,0:0|0:0,0:0:0:0:
305,336,76433,2,0,B|241:340|225:320|209:296|146:304,1,165.000005035401,8|4,0:0|0:0,0:0:0:0:
100,316,76735,5,0,0:0:0:0:
52,312,76836,1,8,0:0:0:0:
20,276,76937,2,0,L|4:196,2,82.5000025177003,0|0|0,0:0|0:0|0:0,0:0:0:0:
92,232,77239,2,0,L|108:152,2,82.5000025177003,12|0|0,0:0|0:0|0:0,0:0:0:0:
140,252,77541,1,0,0:0:0:0:
188,248,77641,1,8,0:0:0:0:
220,212,77742,2,0,L|220:128,2,82.5000025177003,0|4|0,0:0|0:0|0:0,0:0:0:0:
300,224,78044,2,0,L|348:156,2,82.5000025177003,8|0|4,0:0|0:0|0:0,0:0:0:0:
420,340,78447,5,8,0:0:0:0:
256,364,78648,1,0,0:0:0:0:
256,364,78749,1,0,0:0:0:0:
256,364,78849,2,0,P|205:301|215:221,1,165.000005035401,8|0,0:0|0:0,0:0:0:0:
380,248,79252,1,8,0:0:0:0:
380,248,79353,2,0,P|389:168|338:105,1,165.000005035401,0|0,0:0|0:0,0:0:0:0:
284,168,79655,2,0,P|221:218|141:209,1,165.000005035401,8|4,0:0|0:0,0:0:0:0:
44,76,80057,5,8,0:0:0:0:
208,56,80259,1,0,0:0:0:0:
208,56,80359,1,0,0:0:0:0:
208,56,80460,2,0,L|208:224,1,165.000005035401,8|0,0:0|0:0,0:0:0:0:
364,276,80863,1,8,0:0:0:0:
364,276,80963,2,0,P|416:212|404:136,1,165.000005035401
340,188,81265,2,0,P|288:124|300:48,1,165.000005035401,8|4,0:0|0:0,0:0:0:0:
464,28,81668,5,8,0:0:0:0:
324,116,81869,1,0,0:0:0:0:
324,116,81970,1,0,0:0:0:0:
324,116,82071,2,0,L|265:173,1,82.5000025177003,8|0,0:0|0:0,0:0:0:0:
182,166,82272,2,0,P|165:82|211:23,1,165.000005035401,0|8,0:0|0:0,0:0:0:0:
273,257,82574,2,0,P|357:274|416:228,1,165.000005035401
382,58,82876,6,0,L|265:173,1,165.000005035401,8|4,0:0|0:0,0:0:0:0:
220,192,83178,1,0,0:0:0:0:
172,188,83279,1,8,0:0:0:0:
132,156,83380,1,0,0:0:0:0:
124,108,83480,2,0,P|144:72|176:44,1,82.5000025177003
212,120,83682,2,0,P|232:156|264:184,1,82.5000025177003,8|0,0:0|0:0,0:0:0:0:
292,108,83883,6,0,P|372:100|436:148,1,165.000005035401,0|8,0:0|0:0,0:0:0:0:
364,192,84185,2,0,P|397:265|471:296,1,165.000005035401
504,220,84487,2,0,L|508:136,1,82.5000025177003,8|0,0:0|0:0,0:0:0:0:
464,68,84688,5,12,0:0:0:0:
416,52,84789,1,0,0:0:0:0:
368,56,84890,1,8,0:0:0:0:
328,88,84990,1,0,0:0:0:0:
308,132,85091,2,0,L|340:212,1,82.5000025177003,8|0,0:0|0:0,0:0:0:0:
256,200,85292,2,0,L|256:284,1,82.5000025177003,0|8,0:0|0:0,0:0:0:0:
180,244,85494,2,0,L|136:316,1,82.5000025177003,0|8,0:0|0:0,0:0:0:0:
92,244,85695,2,0,L|12:264,1,82.5000025177003
12,180,85896,5,8,0:0:0:0:
48,148,85997,1,0,0:0:0:0:
96,136,86098,1,8,0:0:0:0:
144,148,86198,1,0,0:0:0:0:
184,180,86299,2,0,L|236:244,1,82.5000025177003,12|0,0:0|0:0,0:0:0:0:
328,148,86500,2,0,L|276:212,1,82.5000025177003,8|0,0:0|0:0,0:0:0:0:
184,116,86702,2,0,L|236:180,1,82.5000025177003,8|0,0:0|0:0,0:0:0:0:
328,84,86903,2,0,L|276:148,1,82.5000025177003,0|8,0:0|0:0,0:0:0:0:
184,52,87104,2,0,L|236:116,1,82.5000025177003,0|8,0:0|0:0,0:0:0:0:
328,20,87306,2,0,L|276:84,1,82.5000025177003,0|0,0:0|0:0,0:0:0:0:
256,192,87507,6,0,L|256:236,7,41.2500012588501,0|0|0|0|0|0|0|0,0:0|0:0|0:0|0:0|0:0|0:0|0:0|0:0,0:0:0:0:
268,272,87910,6,0,P|308:288|348:288,1,82.5000025177003,12|0,0:0|0:0,0:0:0:0:
416,184,88111,2,0,P|376:200|335:200,1,82.5000025177003,8|0,0:0|0:0,0:0:0:0:
256,108,88312,2,0,L|256:25,1,82.5000025177003,8|0,0:0|0:0,0:0:0:0:
140,72,88514,2,0,L|140:156,1,82.5000025177003,0|8,0:0|0:0,0:0:0:0:
172,232,88715,5,0,0:0:0:0:
220,228,88816,1,8,0:0:0:0:
260,200,88916,1,0,0:0:0:0:
280,156,89017,1,0,0:0:0:0:
280,108,89118,1,8,0:0:0:0:
252,68,89218,1,0,0:0:0:0:
208,48,89319,1,8,0:0:0:0:
160,48,89420,1,0,0:0:0:0:
116,68,89520,6,0,L|84:144,1,82.5000025177003,8|0,0:0|0:0,0:0:0:0:
188,152,89722,2,0,L|220:228,1,82.5000025177003,0|8,0:0|0:0,0:0:0:0:
116,236,89923,2,0,L|84:312,1,82.5000025177003,0|0,0:0|0:0,0:0:0:0:
160,364,90124,1,8,0:0:0:0:
160,364,90225,1,0,0:0:0:0:
160,364,90326,1,4,0:0:0:0:
160,364,90729,6,0,P|208:352|240:336,1,82.5000025177003,8|8,0:0|0:0,0:0:0:0:
172,252,90930,2,0,P|124:240|92:224,1,82.5000025177003,8|8,0:0|0:0,0:0:0:0:
40,144,91131,1,4,0:0:0:0:
256,192,91232,12,0,97071,0:0:0:0:
