osu file format v13

[General]
AudioFilename: Shinteki Souzou.mp3
AudioLeadIn: 0
PreviewTime: 58715
Countdown: 0
SampleSet: Soft
StackLeniency: 0.7
Mode: 0
LetterboxInBreaks: 0
WidescreenStoryboard: 0

[Editor]
DistanceSpacing: 1.1
BeatDivisor: 4
GridSize: 4
TimelineZoom: 2.799999

[Metadata]
Title:Shinteki Souzou (Short Ver.)
TitleUnicode:神的創造 (Short Ver.)
Artist:Yousei Teikoku
ArtistUnicode:妖精帝國
Creator:Saten
Version:Divine Creation
Source:fortissimo FA//Akkord:nächsten Phase
Tags:Saten-san
BeatmapID:358080
BeatmapSetID:144069

[Difficulty]
HPDrainRate:6
CircleSize:4
OverallDifficulty:9
ApproachRate:10
SliderMultiplier:2
SliderTickRate:2

[Events]
//Background and Video events
Video,0,"fortissimo.avi"
0,0,"guishen_0686ff_cg_momiji_17a.jpg",0,0
//Break Periods
//Storyboard Layer 0 (Background)
//Storyboard Layer 1 (Fail)
//Storyboard Layer 2 (Pass)
//Storyboard Layer 3 (Foreground)
//Storyboard Sound Samples
//Background Colour Transformations
3,100,0,0,0

[TimingPoints]
1740,434.782608695652,4,2,1,80,1,0
11305,452.830188679245,4,2,1,80,1,8
12210,458.015267175573,4,2,1,80,1,0
14042,491.803278688525,4,2,1,80,1,0
15025,402.684563758389,4,2,1,80,1,8
15427,201.342281879195,4,1,1,80,1,0
32943,-117.647058823529,4,1,1,70,0,0
33145,-117.647058823529,4,1,1,70,0,0
57306,-111.111111111111,4,1,1,70,0,0
57608,-105.263157894737,4,1,1,70,0,0
57910,-100,4,1,1,70,0,0
58212,-95.2380952380952,4,1,1,70,0,0
58916,-90.9090909090909,4,1,1,80,0,1
87507,-90.9090909090909,4,1,1,50,0,1
87910,-90.9090909090909,4,1,1,80,0,1
90729,-100,4,1,1,60,0,1
91131,-100,4,1,1,80,0,0
91232,-100,4,2,1,5,0,0

[Colours]
Combo1 : 255,255,62
Combo2 : 255,163,70
Combo3 : 108,255,108
Combo4 : 177,100,255

[HitObjects]
256,192,15025,5,8,1:0:0:0:
256,192,15125,1,8,1:0:0:0:
256,192,15226,1,8,1:0:0:0:
256,192,15327,1,8,1:0:0:0:
256,192,15427,2,0,P|352:152|440:180,1,200,4|8,0:0|0:0,0:0:0:0:
443,280,15729,2,0,P|395:269|357:238,1,100
332,140,15930,1,0,0:0:0:0:
392,60,16031,1,8,0:0:0:0:
392,324,16232,6,0,P|296:348|212:300,1,200,0|8,0:0|0:0,0:0:0:0:
160,216,16534,2,0,P|108:228|68:252,2,100
256,192,16836,2,0,P|189:123|96:142,1,200,8|0,0:0|0:0,0:0:0:0:
312,384,17239,5,8,0:0:0:0:
312,384,17339,1,0,0:0:0:0:
312,384,17440,2,0,L|392:324,1,100
200,352,17641,2,0,L|120:292,1,100,8|0,0:0|0:0,0:0:0:0:
312,320,17843,2,0,L|392:260,1,100
200,288,18044,2,0,L|120:228,1,100,8|0,0:0|0:0,0:0:0:0:
92,132,18245,1,0,0:0:0:0:
132,40,18346,1,0,0:0:0:0:
228,12,18447,1,8,0:0:0:0:
284,372,18648,6,0,P|180:384|100:336,1,200,4|8,0:0|0:0,0:0:0:0:
100,236,18950,1,0,0:0:0:0:
184,180,19051,2,0,P|233:176|280:196,1,100
380,192,19252,2,0,P|325:110|232:80,1,200,8|0,0:0|0:0,0:0:0:0:
256,312,19655,5,8,0:0:0:0:
256,312,19755,2,0,P|344:360|440:340,1,200
256,312,20057,2,0,P|168:360|72:340,1,200,8|0,0:0|0:0,0:0:0:0:
36,248,20359,1,0,0:0:0:0:
68,152,20460,6,0,P|116:128|164:128,1,100,12|0,1:2|0:0,0:0:0:0:
444,152,20661,2,0,P|396:128|348:128,1,100
132,264,20863,2,0,P|93:297|74:341,1,100,12|0,1:2|0:0,0:0:0:0:
380,264,21064,2,0,P|419:297|438:341,1,100
256,312,21265,2,0,L|256:212,1,100,12|0,1:2|0:0,0:0:0:0:
256,212,21416,1,0,0:0:0:0:
256,212,21467,2,0,P|284:168|324:144,1,100
424,132,21668,1,8,0:0:0:0:
484,212,21769,1,0,0:0:0:0:
460,308,21869,6,0,P|367:324|316:244,1,200,4|8,0:0|0:0,0:0:0:0:
344,148,22171,1,0,0:0:0:0:
316,52,22272,2,0,P|221:42|168:120,2,200,0|8|0,0:0|0:0|0:0,0:0:0:0:
256,284,22876,1,8,0:0:0:0:
256,284,22977,2,0,B|196:308|196:308|160:304|160:304|128:320|128:320|64:312,1,200
256,284,23279,2,0,B|316:308|316:308|352:304|352:304|384:320|384:320|448:312,1,200,8|0,0:0|0:0,0:0:0:0:
508,232,23581,5,0,0:0:0:0:
468,140,23682,2,0,P|416:132|372:148,1,100,8|0,0:0|0:0,0:0:0:0:
256,192,23883,2,0,L|256:92,1,100
136,40,24084,2,0,P|87:48|48:79,1,100,8|0,0:0|0:0,0:0:0:0:
32,180,24286,5,0,0:0:0:0:
85,264,24386,1,0,0:0:0:0:
185,263,24487,1,8,0:0:0:0:
256,192,24588,1,0,0:0:0:0:
327,121,24688,1,0,0:0:0:0:
427,120,24789,1,0,0:0:0:0:
480,204,24890,1,8,0:0:0:0:
185,263,25091,6,0,P|119:192|132:96,1,200,4|8,0:0|0:0,0:0:0:0:
256,148,25393,1,0,0:0:0:0:
327,263,25494,2,0,P|393:192|380:96,2,200,0|8|0,0:0|0:0|0:0,0:0:0:0:
256,28,26098,1,8,0:0:0:0:
256,28,26198,2,0,B|192:55|192:55|177:82|177:82|144:85|144:85|91:126,1,200,0|0,0:0|0:0,0:0:0:0:
256,28,26500,2,0,B|319:55|319:55|334:82|334:82|367:85|367:85|420:126,1,200,8|0,0:0|0:0,0:0:0:0:
400,224,26802,5,0,0:0:0:0:
312,272,26903,2,0,L|220:232,1,100,12|0,1:2|0:0,0:0:0:0:
20,204,27104,2,0,L|112:164,1,100
312,272,27306,2,0,L|239:202,1,100,12|0,1:2|0:0,0:0:0:0:
60,108,27507,2,0,L|160:101,1,100
312,272,27708,2,0,L|267:182,1,100,12|0,1:2|0:0,0:0:0:0:
131,31,27909,2,0,L|227:59,1,100
312,272,28111,2,0,L|300:172,1,100,12|0,1:2|0:0,0:0:0:0:
300,72,28312,5,8,0:0:0:0:
304,68,28413,1,0,0:0:0:0:
312,64,28514,1,8,0:0:0:0:
328,64,28614,1,0,0:0:0:0:
348,68,28715,5,8,0:0:0:0:
372,80,28816,1,0,0:0:0:0:
388,104,28916,1,8,0:0:0:0:
384,140,29017,1,0,0:0:0:0:
352,172,29118,5,8,0:0:0:0:
300,184,29218,1,0,0:0:0:0:
240,164,29319,1,8,0:0:0:0:
168,152,29420,1,0,0:0:0:0:
96,180,29520,5,8,0:0:0:0:
60,252,29621,1,0,0:0:0:0:
100,328,29722,1,8,0:0:0:0:
192,340,29822,1,0,0:0:0:0:
256,264,29923,1,4,0:0:0:0:
256,192,30024,12,2,31131,2:0:0:0:
256,68,31534,5,0,0:0:0:0:
256,76,31635,1,0,0:0:0:0:
256,84,31735,1,0,0:0:0:0:
256,92,31836,1,0,0:0:0:0:
256,100,31937,1,0,0:0:0:0:
256,108,32037,1,0,0:0:0:0:
256,116,32138,1,0,0:0:0:0:
256,124,32239,1,0,0:0:0:0:
256,132,32339,1,0,0:0:0:0:
148,300,32541,1,8,0:0:0:0:
364,300,32742,1,0,0:0:0:0:
256,132,32943,5,0,0:0:0:0:
256,124,33010,1,0,0:0:0:0:
256,116,33078,1,0,0:0:0:0:
256,108,33145,1,0,0:0:0:0:
256,24,33346,1,0,0:0:0:0:
256,280,34554,5,0,0:0:0:0:
256,364,34755,1,0,0:0:0:0:
256,192,35561,5,0,0:0:0:0:
256,176,35628,1,0,0:0:0:0:
256,156,35695,1,0,0:0:0:0:
256,132,35762,1,0,0:0:0:0:
420,88,35963,5,0,0:0:0:0:
484,144,36064,1,0,0:0:0:0:
472,228,36165,1,0,0:0:0:0:
400,272,36265,1,0,0:0:0:0:
316,260,36366,1,4,0:0:0:0:
256,48,36567,1,8,0:0:0:0:
256,48,36668,2,0,P|175:68|128:136,1,170.000003242493
184,200,36970,2,0,P|255:156|336:171,1,170.000003242493,8|0,0:0|0:0,0:0:0:0:
388,240,37272,5,0,0:0:0:0:
372,324,37373,1,8,0:0:0:0:
291,353,37473,2,0,B|303:297|271:273|243:249|255:193,1,170.000003242493
220,32,37775,2,0,B|208:88|240:112|268:136|256:192,1,170.000003242493,8|0,0:0|0:0,0:0:0:0:
196,256,38078,1,0,0:0:0:0:
112,248,38178,1,8,0:0:0:0:
72,172,38279,6,0,P|124:109|205:118,1,170.000003242493
440,172,38581,2,0,P|387:109|306:118,1,170.000003242493,8|0,0:0|0:0,0:0:0:0:
256,336,38984,1,8,0:0:0:0:
256,48,39185,2,0,L|340:56,1,85.0000016212464
440,172,39386,2,0,L|356:164,1,85.0000016212464,8|0,0:0|0:0,0:0:0:0:
256,192,39588,6,0,P|296:264|376:292,1,170.000003242493,4|8,0:0|0:0,0:0:0:0:
460,272,39890,1,0,0:0:0:0:
496,196,39990,2,0,L|508:112,1,85.0000016212464
396,48,40192,2,0,L|408:132,1,85.0000016212464,8|0,0:0|0:0,0:0:0:0:
296,196,40393,2,0,L|308:112,1,85.0000016212464
256,44,40594,1,8,0:0:0:0:
172,60,40695,1,0,0:0:0:0:
132,136,40796,1,0,0:0:0:0:
380,248,40997,1,8,0:0:0:0:
256,192,41198,5,0,0:0:0:0:
288,112,41299,1,0,0:0:0:0:
372,92,41400,2,0,P|412:108|448:128,1,85.0000016212464,8|0,0:0|0:0,0:0:0:0:
380,248,41601,2,0,P|356:212|336:176,1,85.0000016212464
140,92,41802,2,0,P|100:108|64:128,1,85.0000016212464,8|0,0:0|0:0,0:0:0:0:
132,248,42003,2,0,P|156:212|176:176,1,85.0000016212464
256,20,42205,2,0,L|256:105,1,85.0000016212464,8|0,0:0|0:0,0:0:0:0:
256,364,42406,2,0,L|256:279,1,85.0000016212464
256,192,42608,1,8,0:0:0:0:
256,188,42809,6,0,P|320:136|404:140,1,170.000003242493,4|8,0:0|0:0,0:0:0:0:
464,200,43111,1,0,0:0:0:0:
444,284,43212,1,0,0:0:0:0:
364,308,43312,1,0,0:0:0:0:
284,272,43413,1,8,0:0:0:0:
256,192,43514,1,0,0:0:0:0:
228,112,43614,6,0,P|168:168|184:248,1,170.000003242493,0|8,0:0|0:0,0:0:0:0:
284,112,43916,2,0,P|344:168|328:248,1,170.000003242493
256,192,44218,2,0,L|256:20,1,170.000003242493,8|0,0:0|0:0,0:0:0:0:
340,8,44520,1,0,0:0:0:0:
408,60,44621,1,8,0:0:0:0:
396,144,44722,2,0,B|348:144|316:116|284:84|240:84,1,170.000003242493
116,252,45024,2,0,B|160:252|192:220|224:192|272:192,1,170.000003242493,8|0,0:0|0:0,0:0:0:0:
352,220,45326,5,0,0:0:0:0:
368,304,45427,1,8,0:0:0:0:
304,360,45527,1,0,0:0:0:0:
220,344,45628,1,0,0:0:0:0:
188,324,45695,1,0,0:0:0:0:
172,288,45762,1,0,0:0:0:0:
180,248,45829,1,0,0:0:0:0:
208,220,45896,1,0,0:0:0:0:
248,212,45963,1,0,0:0:0:0:
284,228,46031,6,0,P|365:218|396:144,1,170.000003242493,4|8,0:0|0:0,0:0:0:0:
356,68,46333,1,0,0:0:0:0:
276,48,46433,2,0,L|256:132,1,85.0000016212464
172,288,46635,2,0,L|152:204,1,85.0000016212464,8|0,0:0|0:0,0:0:0:0:
132,124,46836,5,0,0:0:0:0:
132,124,46937,1,0,0:0:0:0:
132,124,47037,2,0,L|216:144,1,85.0000016212464,8|0,0:0|0:0,0:0:0:0:
380,260,47239,2,0,L|296:240,1,85.0000016212464
300,156,47440,1,8,0:0:0:0:
376,120,47541,1,0,0:0:0:0:
452,156,47641,6,0,P|448:244|388:292,1,170.000003242493,0|12,0:0|0:0,0:0:0:0:
304,284,47943,1,0,0:0:0:0:
256,212,48044,2,0,L|280:128,1,85.0000016212464
168,40,48245,2,0,L|196:120,1,85.0000016212464,8|0,0:0|0:0,0:0:0:0:
152,196,48447,6,0,P|80:136|76:64,1,170.000003242493,4|8,0:0|0:0,0:0:0:0:
360,196,48749,2,0,P|432:136|436:64,1,170.000003242493
256,42,49051,2,0,L|256:212,1,170.000003242493,12|0,0:0|0:0,0:0:0:0:
200,276,49353,1,0,0:0:0:0:
116,272,49453,1,8,0:0:0:0:
80,196,49554,1,0,0:0:0:0:
124,124,49655,1,0,0:0:0:0:
208,120,49755,1,0,0:0:0:0:
256,192,49856,1,8,0:0:0:0:
304,264,49957,1,0,0:0:0:0:
388,260,50057,6,0,L|412:92,1,170.000003242493,0|8,0:0|0:0,0:0:0:0:
348,36,50359,1,0,0:0:0:0:
264,40,50460,2,0,P|264:88|276:124,1,85.0000016212464
383,274,50661,2,0,P|342:250|304:243,1,85.0000016212464,8|0,0:0|0:0,0:0:0:0:
120,261,50863,2,0,P|161:237|187:208,1,85.0000016212464
76,144,51064,2,0,P|15:195|4:280,1,170.000003242493,12|0,0:0|0:0,0:0:0:0:
72,332,51366,5,0,0:0:0:0:
156,328,51467,1,8,0:0:0:0:
200,256,51567,1,0,0:0:0:0:
168,176,51668,2,0,P|152:132|148:92,2,85.0000016212464,4|0|8,0:0|0:0|0:0,0:0:0:0:
344,176,51970,2,0,P|360:132|364:92,2,85.0000016212464
256,192,52272,1,12,0:0:0:0:
256,188,52473,6,0,P|228:112|276:44,1,170.000003242493,4|8,0:0|0:0,0:0:0:0:
360,36,52775,1,0,0:0:0:0:
428,88,52876,2,0,P|436:136|428:172,1,85.0000016212464
304,260,53078,2,0,P|287:221|256:192,1,85.0000016212464,8|0,0:0|0:0,0:0:0:0:
172,188,53279,5,0,0:0:0:0:
104,240,53380,1,0,0:0:0:0:
108,324,53480,2,0,P|184:364|256:332,1,170.000003242493,8|0,0:0|0:0,0:0:0:0:
304,260,53782,1,0,0:0:0:0:
256,188,53883,2,0,P|280:104|352:68,1,170.000003242493,8|4,0:0|0:0,0:0:0:0:
368,292,54286,1,8,0:0:0:0:
144,292,54487,5,0,0:0:0:0:
76,240,54588,1,0,0:0:0:0:
72,156,54688,1,8,0:0:0:0:
128,92,54789,1,0,0:0:0:0:
212,80,54890,2,0,L|292:112,1,85.0000016212464
300,304,55091,2,0,L|220:272,1,85.0000016212464,8|0,0:0|0:0,0:0:0:0:
368,148,55292,2,0,L|336:228,1,85.0000016212464
144,236,55493,2,0,L|176:156,1,85.0000016212464,8|0,0:0|0:0,0:0:0:0:
256,192,55695,5,4,0:0:0:0:
229,272,55796,1,0,0:0:0:0:
154,311,55896,1,8,0:0:0:0:
73,287,55997,1,0,0:0:0:0:
34,211,56098,1,0,0:0:0:0:
59,129,56198,1,0,0:0:0:0:
135,90,56299,1,8,0:0:0:0:
216,116,56400,1,0,0:0:0:0:
256,192,56500,5,0,0:0:0:0:
283,272,56601,1,0,0:0:0:0:
358,311,56702,1,8,0:0:0:0:
439,287,56802,1,0,0:0:0:0:
478,211,56903,1,0,0:0:0:0:
453,129,57004,1,0,0:0:0:0:
377,90,57104,1,8,0:0:0:0:
296,116,57205,1,0,0:0:0:0:
256,192,57306,6,0,L|236:280,1,89.9999972534181,0|8,0:0|0:0,0:0:0:0:
248,188,57608,6,0,L|226:280,1,94.9999974632264,0|8,0:0|0:0,0:0:0:0:
240,184,57910,6,0,L|217:281,1,100,0|8,0:0|0:0,0:0:0:0:
232,180,58212,6,0,L|208:282,1,104.999996795654,0|8,0:0|0:0,0:0:0:0:
224,176,58514,6,0,L|200:278,1,104.999996795654,8|8,0:0|0:0,0:0:0:0:
108,228,58715,2,0,L|131:125,1,104.999996795654,8|8,0:0|0:0,0:0:0:0:
24,152,58916,6,0,P|4:256|72:340,1,220.000006713867,4|8,0:0|0:0,0:0:0:0:
180,344,59218,1,0,0:0:0:0:
260,268,59319,2,0,P|269:213|248:165,1,110.000003356934
144,126,59520,2,0,P|134:180|155:228,1,110.000003356934,8|0,0:0|0:0,0:0:0:0:
65,296,59722,2,0,P|0:209|20:103,1,220.000006713867,0|8,0:0|0:0,0:0:0:0:
128,84,60024,1,0,0:0:0:0:
220,140,60124,2,0,P|272:168|324:172,1,110.000003356934
456,40,60326,2,0,L|348:60,1,110.000003356934,8|0,0:0|0:0,0:0:0:0:
220,140,60527,6,0,P|296:220|392:192,1,220.000006713867,0|8,0:0|0:0,0:0:0:0:
292,140,60829,2,0,P|216:220|120:192,1,220.000006713867
256,80,61131,2,0,L|256:300,1,220.000006713867,8|0,0:0|0:0,0:0:0:0:
356,344,61433,1,0,0:0:0:0:
456,300,61534,1,8,0:0:0:0:
480,192,61635,2,0,P|431:97|328:80,1,220.000006713867
32,192,61937,2,0,P|81:97|184:80,1,220.000006713867,8|4,0:0|0:0,0:0:0:0:
256,348,62339,5,8,0:0:0:0:
256,128,62541,1,0,0:0:0:0:
352,72,62641,1,0,0:0:0:0:
456,108,62742,2,0,P|456:168|436:216,1,110.000003356934,8|0,0:0|0:0,0:0:0:0:
344,272,62943,2,0,P|324:220|336:168,1,110.000003356934
176,168,63145,2,0,P|187:221|168:272,1,110.000003356934,8|0,0:0|0:0,0:0:0:0:
344,272,63346,2,0,P|366:221|411:192,1,110.000003356934
100,192,63547,2,0,P|146:222|168:272,1,110.000003356934,8|0,0:0|0:0,0:0:0:0:
256,348,63749,6,0,L|256:128,1,220.000006713867,0|8,0:0|0:0,0:0:0:0:
156,244,64051,2,0,P|256:284|356:244,1,220.000006713867
388,128,64353,2,0,P|333:122|284:145,1,110.000003356934,8|0,0:0|0:0,0:0:0:0:
205,239,64554,6,0,P|156:212|134:165,1,110.000003356934,4|0,0:0|0:0,0:0:0:0:
232,90,64755,2,0,P|275:57|329:45,1,110.000003356934,8|0,0:0|0:0,0:0:0:0:
356,222,64957,2,0,P|362:276|346:328,1,110.000003356934,0|0,0:0|0:0,0:0:0:0:
179,263,65158,2,0,P|129:241|92:202,1,110.000003356934,8|0,0:0|0:0,0:0:0:0:
92,92,65359,6,0,P|200:104|256:192,1,220.000006713867,4|8,0:0|0:0,0:0:0:0:
244,300,65661,1,0,0:0:0:0:
136,324,65762,2,0,P|88:292|68:244,1,110.000003356934
160,64,65963,2,0,P|210:156|148:240,1,220.000006713867,8|0,0:0|0:0,0:0:0:0:
352,64,66366,1,8,0:0:0:0:
352,64,66467,2,0,P|302:156|364:240,1,220.000006713867,0|0,0:0|0:0,0:0:0:0:
424,148,66769,1,8,0:0:0:0:
88,148,66970,5,0,0:0:0:0:
256,380,67171,2,0,L|256:160,1,220.000006713867,8|0,0:0|0:0,0:0:0:0:
196,68,67473,1,0,0:0:0:0:
88,48,67574,1,8,0:0:0:0:
16,132,67675,1,0,0:0:0:0:
32,240,67775,2,0,P|72:276|124:296,1,110.000003356934
256,160,67977,2,0,P|216:196|164:216,1,110.000003356934,8|0,0:0|0:0,0:0:0:0:
104,124,68178,1,0,0:0:0:0:
160,28,68279,1,0,0:0:0:0:
272,36,68380,1,8,0:0:0:0:
328,132,68480,1,0,0:0:0:0:
280,232,68581,6,0,P|193:174|196:68,1,220.000006713867,4|8,0:0|0:0,0:0:0:0:
428,136,68984,1,0,0:0:0:0:
444,244,69084,1,0,0:0:0:0:
360,316,69185,2,0,B|308:336|308:336|256:322|256:322|204:336|204:336|152:316,1,220.000006713867,8|0,0:0|0:0,0:0:0:0:
48,72,69588,1,8,0:0:0:0:
48,72,69688,2,0,P|152:99|204:192,1,220.000006713867
464,72,69990,2,0,P|360:99|308:192,1,220.000006713867,8|4,0:0|0:0,0:0:0:0:
340,300,70292,5,0,0:0:0:0:
416,220,70393,1,8,0:0:0:0:
308,192,70494,1,0,0:0:0:0:
340,300,70594,2,0,L|412:384,1,110.000003356934
364,108,70796,2,0,L|448:36,1,110.000003356934,8|0,0:0|0:0,0:0:0:0:
172,84,70997,2,0,L|100:0,1,110.000003356934,8|0,0:0|0:0,0:0:0:0:
148,276,71199,2,0,L|64:348,1,110.000003356934,8|0,0:0|0:0,0:0:0:0:
391,208,71400,2,0,L|502:217,1,110.000003356934,0|0,0:0|0:0,0:0:0:0:
120,175,71601,2,0,L|9:166,1,110.000003356934,8|0,0:0|0:0,0:0:0:0:
256,192,71802,6,0,P|322:111|284:12,1,220.000006713867,4|8,0:0|0:0,0:0:0:0:
176,24,72104,1,0,0:0:0:0:
96,104,72205,2,0,L|192:157,1,110.000003356934
416,280,72406,2,0,L|319:226,1,110.000003356934,8|0,0:0|0:0,0:0:0:0:
368,96,72608,6,0,P|438:176|416:280,1,220.000006713867,0|8,0:0|0:0,0:0:0:0:
160,192,72910,2,0,P|256:146|352:192,1,220.000006713867
95,279,73212,2,0,P|74:175|144:96,1,220.000006713867,8|0,0:0|0:0,0:0:0:0:
256,96,73514,1,0,0:0:0:0:
320,184,73614,1,8,0:0:0:0:
280,288,73715,1,0,0:0:0:0:
172,308,73816,2,0,L|112:216,1,110.000003356934
256,96,74017,2,0,L|196:188,1,110.000003356934,8|0,0:0|0:0,0:0:0:0:
268,272,74218,5,0,0:0:0:0:
376,252,74319,1,0,0:0:0:0:
436,160,74420,1,8,0:0:0:0:
244,272,74621,5,0,0:0:0:0:
136,252,74722,1,0,0:0:0:0:
76,160,74823,1,8,0:0:0:0:
256,36,75024,6,0,L|256:256,1,220.000006713867,4|8,0:0|0:0,0:0:0:0:
336,332,75326,1,0,0:0:0:0:
440,296,75427,2,0,P|468:248|472:192,1,110.000003356934
332,96,75628,2,0,P|317:148|327:202,1,110.000003356934,8|0,0:0|0:0,0:0:0:0:
440,296,75829,2,0,P|336:332|256:271,1,220.000006713867,0|8,0:0|0:0,0:0:0:0:
72,296,76131,2,0,P|176:332|256:271,1,220.000006713867
256,36,76433,1,8,0:0:0:0:
256,40,76635,6,0,L|360:76,2,110.000003356934,4|0|8,0:0|0:0|0:0,0:0:0:0:
256,152,76937,2,0,L|152:188,2,110.000003356934
360,116,77239,1,12,0:0:0:0:
464,148,77339,1,0,0:0:0:0:
500,252,77440,6,0,L|512:364,2,110.000003356934,0|0|8,0:0|0:0|0:0,0:0:0:0:
252,252,77742,2,0,L|240:364,2,110.000003356934,0|4|0,0:0|0:0|0:0,0:0:0:0:
376,160,78044,2,0,L|376:270,1,110.000003356934,8|0,0:0|0:0,0:0:0:0:
312,360,78245,6,0,P|200:328|160:240,1,220.000006713867,4|8,0:0|0:0,0:0:0:0:
184,132,78547,1,0,0:0:0:0:
280,76,78648,2,0,P|336:84|380:112,1,110.000003356934
295,184,78849,2,0,P|207:241|203:347,1,220.000006713867,8|0,0:0|0:0,0:0:0:0:
448,244,79252,1,8,0:0:0:0:
447,244,79353,2,0,P|465:138|402:51,1,220.000006713867
65,244,79655,2,0,P|46:138|109:51,1,220.000006713867,8|4,0:0|0:0,0:0:0:0:
216,24,79957,5,0,0:0:0:0:
304,88,80057,1,8,0:0:0:0:
280,196,80158,1,0,0:0:0:0:
176,232,80259,2,0,P|148:176|148:128,1,110.000003356934
336,232,80460,2,0,P|364:176|364:128,1,110.000003356934,8|0,0:0|0:0,0:0:0:0:
256,82,80661,2,0,L|256:302,1,220.000006713867,0|8,0:0|0:0,0:0:0:0:
147,327,80963,2,0,P|143:221|221:148,1,220.000006713867
364,327,81265,2,0,P|368:221|290:148,1,220.000006713867,8|4,0:0|0:0,0:0:0:0:
188,192,81567,5,0,0:0:0:0:
168,300,81668,1,8,0:0:0:0:
260,360,81769,1,0,0:0:0:0:
364,328,81869,2,0,L|392:220,1,110.000003356934
256,80,82071,2,0,L|228:188,1,110.000003356934,8|0,0:0|0:0,0:0:0:0:
200,292,82272,5,0,0:0:0:0:
188,312,82373,1,0,0:0:0:0:
160,328,82473,1,8,0:0:0:0:
116,336,82574,1,0,0:0:0:0:
64,316,82675,1,0,0:0:0:0:
36,256,82775,1,0,0:0:0:0:
52,180,82876,1,8,0:0:0:0:
132,140,82977,1,0,0:0:0:0:
228,164,83078,6,0,P|257:212|256:264,1,110.000003356934,4|0,0:0|0:0,0:0:0:0:
80,280,83279,2,0,P|51:232|52:180,1,110.000003356934,8|0,0:0|0:0,0:0:0:0:
228,164,83480,2,0,P|248:216|238:267,1,110.000003356934,0|0,0:0|0:0,0:0:0:0:
62,252,83681,2,0,P|41:199|51:148,1,110.000003356934,8|0,0:0|0:0,0:0:0:0:
140,80,83883,6,0,L|248:104,1,110.000003356934
372,152,84084,2,0,L|264:176,1,110.000003356934,8|0,0:0|0:0,0:0:0:0:
208,272,84286,1,0,0:0:0:0:
272,360,84386,1,0,0:0:0:0:
384,360,84487,1,8,0:0:0:0:
456,276,84588,1,0,0:0:0:0:
448,168,84688,6,0,L|338:181,1,110.000003356934,12|0,0:0|0:0,0:0:0:0:
64,216,84890,2,0,L|173:202,1,110.000003356934,8|0,0:0|0:0,0:0:0:0:
434,267,85091,2,0,L|332:224,1,110.000003356934,8|0,0:0|0:0,0:0:0:0:
77,116,85292,2,0,L|179:159,1,110.000003356934,0|8,0:0|0:0,0:0:0:0:
372,346,85494,2,0,L|306:258,1,110.000003356934,0|8,0:0|0:0,0:0:0:0:
139,37,85696,2,0,L|205:125,1,110.000003356934,0|0,0:0|0:0,0:0:0:0:
256,192,85896,5,8,0:0:0:0:
266,188,85997,1,0,0:0:0:0:
282,173,86098,1,8,0:0:0:0:
293,143,86198,1,0,0:0:0:0:
288,100,86299,6,0,L|240:0,1,110.000003356934,12|0,0:0|0:0,0:0:0:0:
224,284,86500,2,0,L|272:384,1,110.000003356934,8|0,0:0|0:0,0:0:0:0:
329,128,86702,2,0,L|338:17,1,110.000003356934,8|0,0:0|0:0,0:0:0:0:
182,255,86903,2,0,L|173:366,1,110.000003356934,0|8,0:0|0:0,0:0:0:0:
351,173,87104,2,0,L|414:82,1,110.000003356934,0|8,0:0|0:0,0:0:0:0:
160,210,87305,2,0,L|97:301,1,110.000003356934
256,192,87507,6,0,L|256:156,11,36.6666677856446
244,140,87910,6,0,P|204:100|152:88,1,110.000003356934,12|0,0:0|0:0,0:0:0:0:
307,207,88111,2,0,P|361:192|398:153,1,110.000003356934,8|0,0:0|0:0,0:0:0:0:
216,228,88312,2,0,P|202:283|217:334,1,110.000003356934,8|0,0:0|0:0,0:0:0:0:
328,324,88514,1,0,0:0:0:0:
420,264,88614,1,8,0:0:0:0:
396,156,88715,6,0,L|352:56,1,110.000003356934,0|8,0:0|0:0,0:0:0:0:
116,228,88916,2,0,L|160:328,1,110.000003356934
395,230,89118,2,0,L|407:122,1,110.000003356934,8|0,0:0|0:0,0:0:0:0:
116,153,89319,2,0,L|104:261,1,110.000003356934,8|0,0:0|0:0,0:0:0:0:
256,192,89520,5,8,0:0:0:0:
246,186,89621,1,0,0:0:0:0:
224,184,89722,1,0,0:0:0:0:
194,195,89822,1,8,0:0:0:0:
165,228,89923,1,0,0:0:0:0:
164,282,90024,1,0,0:0:0:0:
202,334,90124,1,8,0:0:0:0:
278,339,90225,1,0,0:0:0:0:
332,268,90326,1,12,0:0:0:0:
338,274,90729,6,0,L|416:340,1,100,8|8,0:0|0:0,0:0:0:0:
173,109,90930,2,0,L|96:44,1,100,8|8,0:0|0:0,0:0:0:0:
256,192,91131,1,4,0:0:0:0:
256,192,91232,12,0,97071,0:0:0:0:
