osu file format v13

[General]
AudioFilename: Shinteki Souzou.mp3
AudioLeadIn: 0
PreviewTime: 58715
Countdown: 0
SampleSet: Soft
StackLeniency: 0.7
Mode: 0
LetterboxInBreaks: 0
WidescreenStoryboard: 1

[Editor]
DistanceSpacing: 1
BeatDivisor: 4
GridSize: 4
TimelineZoom: 3.399998

[Metadata]
Title:Shinteki Souzou (Short Ver.)
TitleUnicode:神的創造 (Short Ver.)
Artist:Yousei Teikoku
ArtistUnicode:妖精帝國
Creator:Saten
Version:Darkness
Source:fortissimo FA//Akkord:nächsten Phase
Tags:Saten-san
BeatmapID:394037
BeatmapSetID:144069

[Difficulty]
HPDrainRate:5
CircleSize:4
OverallDifficulty:8
ApproachRate:9.6
SliderMultiplier:1.8
SliderTickRate:2

[Events]
//Background and Video events
Video,0,"fortissimo.avi"
0,0,"guishen_0686ff_cg_momiji_17a.jpg",0,0
//Break Periods
//Storyboard Layer 0 (Background)
//Storyboard Layer 1 (Fail)
//Storyboard Layer 2 (Pass)
//Storyboard Layer 3 (Foreground)
//Storyboard Sound Samples
//Background Colour Transformations
3,100,0,0,0

[TimingPoints]
1740,434.782608695652,4,2,1,80,1,0
11305,452.830188679245,4,2,1,80,1,8
12210,458.015267175573,4,2,1,80,1,0
14042,491.803278688525,4,2,1,80,1,0
15025,402.684563758389,4,2,1,80,1,8
15427,201.342281879195,4,1,1,80,1,0
32943,-117.647058823529,4,1,1,70,0,0
33145,-117.647058823529,4,1,1,70,0,0
57306,-111.111111111111,4,1,1,70,0,0
57608,-105.263157894737,4,1,1,70,0,0
57910,-100,4,1,1,70,0,0
58212,-95.2380952380952,4,1,1,70,0,0
58916,-90.9090909090909,4,1,1,80,0,1
87507,-90.9090909090909,4,1,1,50,0,1
87910,-90.9090909090909,4,1,1,80,0,1
90729,-90.9090909090909,4,1,1,60,0,1
91131,-100,4,1,1,80,0,0
91232,-100,4,2,1,5,0,0

[Colours]
Combo1 : 255,255,62
Combo2 : 255,163,70
Combo3 : 108,255,108
Combo4 : 177,100,255

[HitObjects]
256,192,15025,5,8,1:0:0:0:
256,192,15125,1,8,1:0:0:0:
256,192,15226,1,8,1:0:0:0:
256,192,15327,1,8,1:0:0:0:
256,192,15427,2,0,P|178:150|96:176,1,180,4|8,0:0|0:0,0:0:0:0:
52,256,15729,1,0,0:0:0:0:
92,336,15829,1,0,0:0:0:0:
420,244,16031,1,8,0:0:0:0:
255,31,16232,2,0,P|178:69|144:151,1,180,0|8,0:0|0:0,0:0:0:0:
144,152,16534,1,0,0:0:0:0:
344,332,16735,1,0,0:0:0:0:
344,332,16836,2,0,L|164:332,1,180,8|0,0:0|0:0,0:0:0:0:
32,96,17239,5,8,0:0:0:0:
32,96,17339,1,0,0:0:0:0:
32,96,17440,2,0,P|76:80|120:76,1,90
188,192,17641,2,0,P|232:208|276:212,1,90,8|0,0:0|0:0,0:0:0:0:
344,96,17843,2,0,P|388:80|432:76,1,90
500,136,18044,1,8,0:0:0:0:
488,224,18145,1,0,0:0:0:0:
420,280,18245,2,0,P|376:252|352:224,1,90
288,100,18447,2,0,P|254:129|231:168,1,90,8|0,0:0|0:0,0:0:0:0:
255,300,18648,6,0,P|177:339|92:316,1,180,4|8,0:0|0:0,0:0:0:0:
52,236,18950,1,0,0:0:0:0:
88,152,19051,1,0,0:0:0:0:
356,168,19252,1,8,0:0:0:0:
148,340,19453,1,0,0:0:0:0:
208,76,19655,1,8,0:0:0:0:
208,76,19755,2,0,L|388:76,1,180
316,192,20057,2,0,L|136:192,1,180,8|0,0:0|0:0,0:0:0:0:
72,256,20359,5,0,0:0:0:0:
88,344,20460,2,0,P|124:372|168:380,1,90,4|0,1:2|0:0,0:0:0:0:
248,272,20661,2,0,P|220:236|212:192,1,90
336,136,20863,2,0,L|336:316,1,180,4|0,1:2|0:0,0:0:0:0:
416,360,21165,1,0,0:0:0:0:
500,324,21265,1,8,0:0:0:0:
504,292,21333,1,0,0:0:0:0:
496,264,21400,1,0,0:0:0:0:
476,240,21467,2,0,L|388:220,1,90
296,292,21668,2,0,L|384:312,1,90,8|0,0:0|0:0,0:0:0:0:
388,220,21869,6,0,P|304:196|232:244,1,180,4|8,0:0|0:0,0:0:0:0:
228,336,22171,1,0,0:0:0:0:
312,372,22272,2,0,L|316:280,1,90
236,152,22473,2,0,L|228:331,1,180,8|0,0:0|0:0,0:0:0:0:
448,116,22876,1,8,0:0:0:0:
448,116,22977,2,0,P|402:41|315:28,1,180
64,116,23279,2,0,P|109:41|196:28,1,180,8|0,0:0|0:0,0:0:0:0:
172,336,23682,5,8,0:0:0:0:
172,336,23782,1,0,0:0:0:0:
172,336,23883,2,0,L|148:247,1,90
165,97,24084,2,0,L|188:183,1,90,8|0,0:0|0:0,0:0:0:0:
279,306,24286,2,0,L|255:217,1,90
274,67,24487,2,0,L|297:153,1,90,8|0,0:0|0:0,0:0:0:0:
388,276,24688,2,0,L|364:189,1,90,0|0,0:0|0:0,0:0:0:0:
381,38,24890,2,0,L|404:124,1,90,8|0,0:0|0:0,0:0:0:0:
495,248,25091,6,0,P|404:257|364:189,1,180,4|8,0:0|0:0,0:0:0:0:
392,104,25393,1,0,0:0:0:0:
484,96,25494,2,0,P|481:141|456:176,1,90
364,189,25695,2,0,P|354:279|412:339,1,180,8|0,0:0|0:0,0:0:0:0:
100,339,26098,1,8,0:0:0:0:
100,339,26198,2,0,P|158:275|148:189,1,180,0|0,0:0|0:0,0:0:0:0:
256,100,26500,2,0,L|256:280,1,180,8|0,0:0|0:0,0:0:0:0:
192,344,26802,5,0,0:0:0:0:
100,339,26903,2,0,L|64:256,1,90,4|0,1:2|0:0,0:0:0:0:
152,120,27104,2,0,L|116:203,1,90
192,348,27306,2,0,L|156:265,1,90,4|0,1:2|0:0,0:0:0:0:
244,129,27507,2,0,L|208:212,1,90
284,356,27708,2,0,L|248:273,1,90,4|0,1:2|0:0,0:0:0:0:
336,137,27909,2,0,L|300:220,1,90
376,364,28111,2,0,L|340:281,1,90,4|0,1:2|0:0,0:0:0:0:
428,145,28312,6,0,L|392:228,1,90,8|0,0:0|0:0,0:0:0:0:
303,364,28514,2,0,L|220:328,1,90,8|0,0:0|0:0,0:0:0:0:
84,239,28715,2,0,L|120:156,1,90,8|0,0:0|0:0,0:0:0:0:
209,20,28917,2,0,L|292:56,1,90,8|0,0:0|0:0,0:0:0:0:
256,192,29118,5,8,0:0:0:0:
256,200,29218,1,0,0:0:0:0:
256,208,29319,1,8,0:0:0:0:
256,216,29420,1,0,0:0:0:0:
256,224,29520,1,8,0:0:0:0:
256,232,29621,1,0,0:0:0:0:
256,236,29722,1,0,0:0:0:0:
256,244,29822,1,0,0:0:0:0:
256,252,29923,1,4,0:0:0:0:
256,192,30024,12,2,31131,2:0:0:0:
256,252,31534,5,0,0:0:0:0:
256,244,31635,1,0,0:0:0:0:
256,236,31735,1,0,0:0:0:0:
256,232,31836,1,0,0:0:0:0:
256,224,31937,1,0,0:0:0:0:
256,216,32037,1,0,0:0:0:0:
256,208,32138,1,0,0:0:0:0:
256,200,32239,1,0,0:0:0:0:
256,192,32339,1,0,0:0:0:0:
256,64,32541,1,8,0:0:0:0:
136,32,32742,1,8,0:0:0:0:
32,96,32943,5,0,0:0:0:0:
28,136,33010,1,0,0:0:0:0:
24,176,33078,1,0,0:0:0:0:
20,216,33145,1,0,0:0:0:0:
112,300,33346,1,0,0:0:0:0:
492,216,34554,5,0,0:0:0:0:
400,300,34755,1,0,0:0:0:0:
256,192,35561,5,0,0:0:0:0:
256,152,35628,1,0,0:0:0:0:
256,112,35695,1,0,0:0:0:0:
256,72,35762,1,0,0:0:0:0:
484,32,35963,5,0,0:0:0:0:
484,32,36064,1,0,0:0:0:0:
484,32,36165,1,0,0:0:0:0:
484,32,36265,1,0,0:0:0:0:
484,32,36366,2,0,P|483:107|428:157,1,153.000002918243,4|8,0:0|0:0,0:0:0:0:
360,192,36668,2,0,P|336:276|368:328,1,153.000002918243
308,376,36970,2,0,P|236:348|208:280,1,153.000002918243,8|0,0:0|0:0,0:0:0:0:
308,124,37373,5,8,0:0:0:0:
308,124,37473,2,0,P|254:72|179:68,1,153.000002918243
148,140,37775,2,0,L|256:248,1,153.000002918243,8|0,0:0|0:0,0:0:0:0:
120,372,38178,1,8,0:0:0:0:
52,200,38380,5,0,0:0:0:0:
88,132,38480,1,0,0:0:0:0:
160,104,38581,2,0,L|236:124,1,76.5000014591217,8|0,0:0|0:0,0:0:0:0:
216,200,38782,2,0,L|67:161,1,153.000002918243,0|8,0:0|0:0,0:0:0:0:
200,32,39185,5,0,0:0:0:0:
272,56,39286,1,0,0:0:0:0:
308,124,39386,2,0,L|272:192,1,76.5000014591217,8|0,0:0|0:0,0:0:0:0:
348,212,39588,2,0,L|419:77,1,153.000002918243,4|8,0:0|0:0,0:0:0:0:
508,236,39990,5,0,0:0:0:0:
472,304,40091,1,0,0:0:0:0:
396,316,40192,2,0,L|324:292,1,76.5000014591217,8|0,0:0|0:0,0:0:0:0:
216,216,40393,2,0,L|288:192,1,76.5000014591217
180,116,40594,2,0,L|108:92,1,76.5000014591217,8|0,0:0|0:0,0:0:0:0:
24,192,40796,2,0,L|120:312,1,153.000002918243,0|8,0:0|0:0,0:0:0:0:
256,92,41198,5,0,0:0:0:0:
332,108,41299,1,0,0:0:0:0:
348,184,41400,2,0,L|324:256,1,76.5000014591217,8|0,0:0|0:0,0:0:0:0:
208,252,41601,2,0,L|232:180,1,76.5000014591217,0|0,0:0|0:0,0:0:0:0:
116,176,41802,2,0,L|92:248,1,76.5000014591217,8|0,0:0|0:0,0:0:0:0:
116,324,42004,5,0,0:0:0:0:
192,340,42104,1,0,0:0:0:0:
260,304,42205,2,0,L|288:232,1,76.5000014591217,8|0,0:0|0:0,0:0:0:0:
396,192,42406,2,0,L|460:236,1,76.5000014591217
396,332,42608,2,0,L|360:264,1,76.5000014591217,8|0,0:0|0:0,0:0:0:0:
316,160,42809,6,0,P|240:176|208:240,1,153.000002918243,4|8,0:0|0:0,0:0:0:0:
192,312,43111,1,0,0:0:0:0:
124,348,43212,2,0,P|84:348|52:332,1,76.5000014591217
52,256,43413,2,0,P|120:208|140:144,1,153.000002918243,8|0,0:0|0:0,0:0:0:0:
0,24,43816,5,8,0:0:0:0:
0,24,43916,2,0,P|0:104|44:160,1,153.000002918243
116,180,44218,1,8,0:0:0:0:
188,156,44319,1,0,0:0:0:0:
256,192,44420,1,0,0:0:0:0:
388,320,44621,5,8,0:0:0:0:
388,320,44722,2,0,P|440:264|432:192,1,153.000002918243
380,136,45024,1,8,0:0:0:0:
304,132,45124,1,0,0:0:0:0:
256,192,45225,2,0,L|232:264,1,76.5000014591217
152,204,45427,2,0,L|176:132,1,76.5000014591217,8|0,0:0|0:0,0:0:0:0:
132,68,45628,5,0,0:0:0:0:
100,56,45695,1,0,0:0:0:0:
64,64,45762,1,0,0:0:0:0:
40,88,45829,1,0,0:0:0:0:
32,124,45896,1,0,0:0:0:0:
48,156,45963,1,0,0:0:0:0:
80,172,46031,2,0,L|220:112,1,153.000002918243,4|8,0:0|0:0,0:0:0:0:
360,232,46433,5,0,0:0:0:0:
332,304,46534,1,0,0:0:0:0:
256,312,46635,2,0,P|216:300|188:280,1,76.5000014591217,8|0,0:0|0:0,0:0:0:0:
236,220,46836,2,0,P|264:152|228:88,1,153.000002918243,8|8,0:0|0:0,0:0:0:0:
292,128,47138,2,0,P|360:156|424:120,1,153.000002918243
492,156,47440,1,8,0:0:0:0:
500,232,47541,1,0,0:0:0:0:
444,284,47641,1,0,0:0:0:0:
272,220,47843,1,12,0:0:0:0:
424,120,48044,5,0,0:0:0:0:
388,52,48145,1,0,0:0:0:0:
316,28,48245,1,8,0:0:0:0:
240,36,48346,1,0,0:0:0:0:
180,84,48447,2,0,L|152:156,2,76.5000014591217,4|0|8,0:0|0:0|0:0,0:0:0:0:
332,104,48749,2,0,L|360:176,2,76.5000014591217
256,172,49051,2,0,L|256:248,1,76.5000014591217,12|0,0:0|0:0,0:0:0:0:
156,260,49252,2,0,P|90:223|62:153,1,153.000002918243,0|8,0:0|0:0,0:0:0:0:
240,36,49655,5,0,0:0:0:0:
280,100,49755,1,0,0:0:0:0:
256,172,49856,2,0,P|216:180|180:176,1,76.5000014591217,8|0,0:0|0:0,0:0:0:0:
96,228,50057,2,0,P|100:268|116:300,1,76.5000014591217
216,320,50259,2,0,P|248:292|264:260,1,76.5000014591217,8|0,0:0|0:0,0:0:0:0:
324,216,50460,1,0,0:0:0:0:
400,200,50561,1,0,0:0:0:0:
464,240,50661,1,8,0:0:0:0:
472,316,50762,1,0,0:0:0:0:
420,372,50863,1,0,0:0:0:0:
224,240,51064,1,12,0:0:0:0:
408,92,51265,6,0,L|464:144,1,76.5000014591217
420,236,51467,2,0,L|364:288,1,76.5000014591217,8|0,0:0|0:0,0:0:0:0:
304,208,51668,2,0,L|328:136,2,76.5000014591217,4|0|8,0:0|0:0|0:0,0:0:0:0:
245,142,51970,2,0,L|171:157,2,76.5000014591217
218,225,52272,2,0,L|268:282,2,76.5000014591217,12|0|0,0:0|0:0|0:0,0:0:0:0:
256,44,52675,5,8,0:0:0:0:
332,44,52775,1,0,0:0:0:0:
384,100,52876,2,0,L|372:176,1,76.5000014591217
452,224,53078,2,0,L|464:148,1,76.5000014591217,8|0,0:0|0:0,0:0:0:0:
296,124,53279,2,0,L|284:200,1,76.5000014591217
364,248,53480,2,0,L|387:97,1,153.000002918243,8|0,0:0|0:0,0:0:0:0:
336,40,53782,1,0,0:0:0:0:
260,40,53883,1,8,0:0:0:0:
220,220,54084,1,4,0:0:0:0:
400,176,54286,1,8,0:0:0:0:
224,124,54487,5,0,0:0:0:0:
152,151,54588,1,0,0:0:0:0:
124,220,54688,1,8,0:0:0:0:
152,292,54789,1,0,0:0:0:0:
223,316,54890,2,0,L|301:305,2,76.5000014591217,4|0|8,0:0|0:0|0:0,0:0:0:0:
164,102,55192,2,0,L|134:174,2,76.5000014591217,0|0|0,0:0|0:0|0:0,0:0:0:0:
379,157,55494,2,0,L|332:96,2,76.5000014591217,12|0|4,0:0|0:0|0:0,0:0:0:0:
256,192,55896,5,8,0:0:0:0:
256,192,56098,1,0,0:0:0:0:
180,176,56198,1,0,0:0:0:0:
144,108,56299,1,8,0:0:0:0:
180,40,56400,1,0,0:0:0:0:
256,28,56500,2,0,P|284:56|300:88,1,76.5000014591217
416,192,56702,2,0,P|444:164|460:132,1,76.5000014591217,8|0,0:0|0:0,0:0:0:0:
344,28,56903,2,0,P|316:56|300:88,1,76.5000014591217
184,192,57105,2,0,P|156:164|140:132,1,76.5000014591217,8|0,0:0|0:0,0:0:0:0:
16,28,57306,6,0,L|16:108,1,80.9999975280763,0|8,0:0|0:0,0:0:0:0:
23,35,57608,6,0,L|23:120,1,85.4999977169037,0|8,0:0|0:0,0:0:0:0:
32,44,57910,6,0,L|32:133,1,90,0|8,0:0|0:0,0:0:0:0:
39,51,58212,6,0,L|39:145,1,94.499997116089,0|8,0:0|0:0,0:0:0:0:
256,300,58514,5,8,0:0:0:0:
256,300,58614,1,8,0:0:0:0:
256,300,58715,1,8,0:0:0:0:
256,300,58816,1,8,0:0:0:0:
256,300,58916,2,0,L|256:100,1,198.000006042481,4|8,0:0|0:0,0:0:0:0:
332,36,59218,1,0,0:0:0:0:
428,60,59319,2,0,P|452:100|448:152,1,99.0000030212403
368,208,59520,2,0,P|328:188|300:144,1,99.0000030212403,8|0,0:0|0:0,0:0:0:0:
244,60,59722,6,0,P|197:143|243:227,1,198.000006042481,0|8,0:0|0:0,0:0:0:0:
340,244,60024,1,0,0:0:0:0:
428,200,60124,2,0,P|449:160|448:108,1,99.0000030212403
336,132,60326,2,0,P|315:92|320:40,1,99.0000030212403,8|0,0:0|0:0,0:0:0:0:
416,64,60527,6,0,P|437:160|376:226,1,198.000006042481,0|8,0:0|0:0,0:0:0:0:
168,135,60829,2,0,P|256:96|343:135,1,198.000006042481
136,226,61131,6,0,P|72:156|96:64,2,198.000006042481,8|0|8,0:0|0:0|0:0,0:0:0:0:
223,203,61635,1,0,0:0:0:0:
286,266,61735,1,0,0:0:0:0:
263,353,61836,1,0,0:0:0:0:
176,376,61937,1,8,0:0:0:0:
112,313,62037,1,0,0:0:0:0:
136,226,62138,2,0,L|326:173,1,198.000006042481,4|8,0:0|0:0,0:0:0:0:
456,352,62541,5,0,0:0:0:0:
360,344,62641,1,0,0:0:0:0:
304,264,62742,2,0,L|327:168,1,99.0000030212403,8|0,0:0|0:0,0:0:0:0:
232,192,62943,2,0,L|172:109,1,99.0000030212403,0|0,0:0|0:0,0:0:0:0:
128,200,63145,2,0,L|29:192,1,99.0000030212403,8|0,0:0|0:0,0:0:0:0:
84,276,63346,2,0,L|15:345,1,99.0000030212403,0|0,0:0|0:0,0:0:0:0:
108,376,63547,1,8,0:0:0:0:
272,244,63749,6,0,P|291:142|230:80,1,198.000006042481,0|8,0:0|0:0,0:0:0:0:
296,155,64051,2,0,P|397:174|459:113,1,198.000006042481
384,177,64353,2,0,P|364:278|425:340,1,198.000006042481,8|4,0:0|0:0,0:0:0:0:
512,292,64655,1,0,0:0:0:0:
492,196,64755,2,0,L|444:109,1,99.0000030212403,8|0,0:0|0:0,0:0:0:0:
344,116,64957,2,0,L|296:202,1,99.0000030212403,0|0,0:0|0:0,0:0:0:0:
208,160,65158,2,0,L|159:73,1,99.0000030212403,8|0,0:0|0:0,0:0:0:0:
63,98,65359,6,0,L|63:297,1,198.000006042481,4|8,0:0|0:0,0:0:0:0:
256,352,65762,1,0,0:0:0:0:
340,300,65863,1,0,0:0:0:0:
320,204,65963,2,0,P|380:128|468:148,1,198.000006042481,8|0,0:0|0:0,0:0:0:0:
484,360,66366,1,8,0:0:0:0:
484,360,66467,2,0,P|410:296|404:200,1,198.000006042481
184,360,66769,2,0,P|256:296|262:200,1,198.000006042481,8|0,0:0|0:0,0:0:0:0:
40,192,67171,1,8,0:0:0:0:
184,56,67373,5,0,0:0:0:0:
280,76,67473,1,0,0:0:0:0:
331,161,67574,2,0,L|313:258,1,99.0000030212403,8|0,0:0|0:0,0:0:0:0:
180,222,67775,2,0,L|198:125,1,99.0000030212403,0|0,0:0|0:0,0:0:0:0:
353,187,67977,2,0,L|302:273,1,99.0000030212403,8|0,0:0|0:0,0:0:0:0:
157,195,68178,2,0,L|208:109,1,99.0000030212403,0|0,0:0|0:0,0:0:0:0:
366,227,68380,2,0,L|290:290,1,99.0000030212403,8|0,0:0|0:0,0:0:0:0:
144,155,68581,6,0,L|296:29,1,198.000006042481,4|8,0:0|0:0,0:0:0:0:
468,192,68984,1,0,0:0:0:0:
430,283,69084,1,0,0:0:0:0:
332,300,69185,2,0,P|256:244|256:148,1,198.000006042481,8|0,0:0|0:0,0:0:0:0:
480,84,69588,1,8,0:0:0:0:
480,84,69688,2,0,L|294:13,1,198.000006042481
32,84,69990,2,0,L|217:13,1,198.000006042481,8|0,0:0|0:0,0:0:0:0:
256,104,70292,5,0,0:0:0:0:
232,200,70393,1,8,0:0:0:0:
136,228,70494,1,0,0:0:0:0:
48,184,70594,2,0,L|5:94,1,99.0000030212403
103,103,70796,2,0,L|145:13,1,99.0000030212403,8|0,0:0|0:0,0:0:0:0:
201,92,70997,2,0,L|297:66,1,99.0000030212403
271,158,71198,2,0,L|351:214,1,99.0000030212403,8|0,0:0|0:0,0:0:0:0:
265,254,71400,2,0,L|272:352,1,99.0000030212403,0|0,0:0|0:0,0:0:0:0:
187,310,71601,2,0,L|115:379,1,99.0000030212403,8|0,0:0|0:0,0:0:0:0:
88,273,71802,6,0,L|88:72,1,198.000006042481,4|8,0:0|0:0,0:0:0:0:
320,40,72205,1,0,0:0:0:0:
388,112,72306,1,0,0:0:0:0:
356,204,72406,2,0,P|307:217|259:212,1,99.0000030212403,8|0,0:0|0:0,0:0:0:0:
187,290,72608,2,0,P|235:303|284:298,1,99.0000030212403
360,200,72809,2,0,P|332:160|292:132,1,99.0000030212403,8|0,0:0|0:0,0:0:0:0:
152,200,73010,2,0,P|180:160|220:132,1,99.0000030212403,0|0,0:0|0:0,0:0:0:0:
256,228,73212,6,0,P|192:300|96:292,1,198.000006042481,8|0,0:0|0:0,0:0:0:0:
8,100,73614,1,8,0:0:0:0:
212,32,73816,2,0,L|286:97,1,99.0000030212403
256,192,74017,2,0,L|106:60,1,198.000006042481,8|0,0:0|0:0,0:0:0:0:
16,96,74319,1,0,0:0:0:0:
4,196,74420,1,8,0:0:0:0:
164,322,74621,2,0,L|256:283,1,99.0000030212403
252,168,74822,2,0,L|159:207,1,99.0000030212403,8|0,0:0|0:0,0:0:0:0:
166,94,75024,6,0,P|256:56|348:88,1,198.000006042481,4|8,0:0|0:0,0:0:0:0:
492,248,75427,1,0,0:0:0:0:
448,336,75527,1,0,0:0:0:0:
348,344,75628,2,0,P|312:304|300:260,1,99.0000030212403,8|0,0:0|0:0,0:0:0:0:
164,344,75829,2,0,P|200:304|212:260,1,99.0000030212403,0|0,0:0|0:0,0:0:0:0:
336,164,76031,2,0,P|380:192|400:232,1,99.0000030212403,8|0,0:0|0:0,0:0:0:0:
176,164,76232,2,0,P|132:192|112:232,1,99.0000030212403,0|0,0:0|0:0,0:0:0:0:
256,292,76433,2,0,L|256:192,1,99.0000030212403,8|0,0:0|0:0,0:0:0:0:
316,55,76635,6,0,L|408:91,2,99.0000030212403,4|0|8,0:0|0:0|0:0,0:0:0:0:
196,56,76937,2,0,L|103:91,2,99.0000030212403
256,136,77239,1,12,0:0:0:0:
212,224,77339,1,0,0:0:0:0:
116,240,77440,2,0,L|50:165,2,99.0000030212403,0|0|8,0:0|0:0|0:0,0:0:0:0:
396,240,77742,2,0,L|462:165,2,99.0000030212403,0|4|0,0:0|0:0|0:0,0:0:0:0:
300,260,78044,1,8,0:0:0:0:
216,208,78145,1,0,0:0:0:0:
204,112,78245,6,0,P|128:60|32:88,1,198.000006042481,4|8,0:0|0:0,0:0:0:0:
8,312,78648,1,0,0:0:0:0:
96,360,78749,1,0,0:0:0:0:
192,340,78849,2,0,L|256:152,1,198.000006042481,8|0,0:0|0:0,0:0:0:0:
472,116,79252,1,8,0:0:0:0:
472,116,79353,2,0,P|483:211|419:284,1,198.000006042481
313,160,79655,6,0,P|407:149|480:212,1,198.000006042481,8|4,0:0|0:0,0:0:0:0:
296,348,80057,1,8,0:0:0:0:
132,192,80259,1,0,0:0:0:0:
176,104,80359,1,0,0:0:0:0:
276,92,80460,2,0,L|377:92,1,99.0000030212403,8|0,0:0|0:0,0:0:0:0:
424,176,80661,2,0,L|226:176,1,198.000006042481,0|8,0:0|0:0,0:0:0:0:
172,260,80963,2,0,L|370:260,1,198.000006042481,0|0,0:0|0:0,0:0:0:0:
316,344,81265,6,0,L|118:344,1,198.000006042481,8|4,0:0|0:0,0:0:0:0:
116,124,81668,1,8,0:0:0:0:
260,288,81869,1,0,0:0:0:0:
172,332,81970,1,0,0:0:0:0:
76,304,82071,2,0,P|48:264|48:216,1,99.0000030212403,8|0,0:0|0:0,0:0:0:0:
148,212,82272,6,0,P|208:136|208:36,1,198.000006042481,0|8,0:0|0:0,0:0:0:0:
364,212,82574,2,0,P|304:136|304:36,1,198.000006042481
404,32,82876,1,8,0:0:0:0:
476,100,82977,1,0,0:0:0:0:
428,188,83078,2,0,L|362:262,1,99.0000030212403,4|0,0:0|0:0,0:0:0:0:
256,205,83279,2,0,L|322:130,1,99.0000030212403,8|0,0:0|0:0,0:0:0:0:
216,73,83480,2,0,L|150:147,1,99.0000030212403
45,91,83682,2,0,L|110:16,1,99.0000030212403,8|0,0:0|0:0,0:0:0:0:
200,56,83883,5,0,0:0:0:0:
256,140,83984,1,0,0:0:0:0:
228,232,84084,1,8,0:0:0:0:
136,272,84185,1,0,0:0:0:0:
44,236,84286,2,0,P|16:192|16:144,1,99.0000030212403
116,120,84487,2,0,P|144:76|148:28,1,99.0000030212403,8|0,0:0|0:0,0:0:0:0:
256,29,84688,6,0,L|256:130,1,99.0000030212403,12|0,0:0|0:0,0:0:0:0:
256,354,84890,2,0,L|256:253,1,99.0000030212403,8|0,0:0|0:0,0:0:0:0:
370,76,85091,2,0,L|298:148,1,99.0000030212403,8|0,0:0|0:0,0:0:0:0:
140,306,85293,2,0,L|212:234,1,99.0000030212403,0|8,0:0|0:0,0:0:0:0:
418,190,85494,2,0,L|317:190,1,99.0000030212403,0|8,0:0|0:0,0:0:0:0:
93,192,85696,2,0,L|194:192,1,99.0000030212403
370,306,85896,2,0,L|298:234,1,99.0000030212403,8|0,0:0|0:0,0:0:0:0:
140,76,86098,2,0,L|212:148,1,99.0000030212403,8|0,0:0|0:0,0:0:0:0:
301,145,86299,6,0,L|371:76,1,99.0000030212403,12|0,0:0|0:0,0:0:0:0:
210,236,86501,2,0,L|141:306,1,99.0000030212403,8|0,0:0|0:0,0:0:0:0:
319,192,86702,2,0,L|418:192,1,99.0000030212403,8|0,0:0|0:0,0:0:0:0:
192,192,86904,2,0,L|93:192,1,99.0000030212403,0|8,0:0|0:0,0:0:0:0:
301,237,87104,2,0,L|371:307,1,99.0000030212403,0|8,0:0|0:0,0:0:0:0:
210,146,87306,2,0,L|141:76,1,99.0000030212403
256,32,87507,6,0,L|256:68,11,33.0000010070801
276,92,87910,6,0,P|316:120|364:128,1,99.0000030212403,12|0,0:0|0:0,0:0:0:0:
364,256,88111,2,0,P|315:263|275:291,1,99.0000030212403,8|0,0:0|0:0,0:0:0:0:
156,240,88312,2,0,P|168:192|156:144,1,99.0000030212403,8|0,0:0|0:0,0:0:0:0:
60,116,88514,1,0,0:0:0:0:
4,196,88614,1,8,0:0:0:0:
40,288,88715,2,0,P|82:306|136:304,1,99.0000030212403,0|8,0:0|0:0,0:0:0:0:
84,216,88916,2,0,P|70:171|76:120,1,99.0000030212403,0|0,0:0|0:0,0:0:0:0:
176,124,89118,2,0,P|221:113|256:76,1,99.0000030212403,8|0,0:0|0:0,0:0:0:0:
344,32,89319,5,8,0:0:0:0:
440,64,89420,1,0,0:0:0:0:
492,148,89520,2,0,L|470:244,1,99.0000030212403,8|0,0:0|0:0,0:0:0:0:
373,218,89722,2,0,L|351:121,1,99.0000030212403,0|8,0:0|0:0,0:0:0:0:
254,148,89923,2,0,L|232:244,1,99.0000030212403
152,300,90124,1,8,0:0:0:0:
60,260,90225,1,0,0:0:0:0:
48,160,90326,1,12,0:0:0:0:
48,160,90729,6,0,L|112:234,1,99.0000030212403,8|8,0:0|0:0,0:0:0:0:
206,204,90930,2,0,L|179:107,1,99.0000030212403,8|8,0:0|0:0,0:0:0:0:
272,67,91131,1,4,0:0:0:0:
256,192,91232,12,0,97071,0:0:0:0:
