osu file format v7

[General]
AudioFilename: 01. Senketsu No Chikai (TV size).mp3
AudioLeadIn: 0
PreviewTime: 54996
Countdown: 0
SampleSet: Soft
StackLeniency: 0.7
Mode: 0
LetterboxInBreaks: 1

[Editor]
DistanceSpacing: 0.800000011920929
BeatDivisor: 4
GridSize: 8

[Metadata]
Title:Senketsu no Chikai (TV Size)
Artist:Yousei Teikoku
Creator:Mafiamaster
Version:Normal
Source:Magipoka
Tags:Renkin Sankyuu Magical Pokaan simplistiC

[Difficulty]
HPDrainRate:4
CircleSize:3
OverallDifficulty:3
SliderMultiplier:0.999999999999999
SliderTickRate:0.5

[Events]
//Background and Video events
Video,-384,"Magical_Pokan.avi"
0,0,"That one girl is hot.png"
//Break Periods
//Storyboard Layer 0 (Background)
//Storyboard Layer 1 (Fail)
//Storyboard Layer 2 (Pass)
//Storyboard Layer 3 (Foreground)
//Storyboard Sound Samples
//Background Colour Transformations
3,100,0,0,0

[TimingPoints]
330,333.333333333333,4,2,1,100,1,0
41496,-200,4,2,1,100,0,0
54413,-100,4,2,1,100,0,0
54996,-100,4,2,1,100,0,1
74996,-100,4,2,1,100,0,0

[Colours]
Combo1 : 0,176,88
Combo2 : 128,128,192
Combo3 : 128,64,64

[HitObjects]
32,360,12329,2,0,L|136:360,1,99.9999999999999,0|8
160,280,12996,2,0,L|56:280,1,99.9999999999999,0|8
32,200,13663,2,0,L|136:200,1,99.9999999999999,0|8
160,120,14330,2,0,L|56:120,1,99.9999999999999,0|8
32,200,14996,6,0,L|136:200,1,99.9999999999999,0|8
160,120,15663,2,0,L|264:120,1,99.9999999999999,0|8
240,200,16329,2,0,L|344:200,1,99.9999999999999,0|8
424,200,16996,2,0,L|424:300,1,99.9999999999999,0|8
352,344,17663,6,0,L|304:360|256:344,1,99.9999999999999,0|8
184,312,18330,2,0,L|232:216,1,99.9999999999999,0|8
152,200,18996,2,0,L|104:184|56:200,1,99.9999999999999,0|8
32,120,19663,2,0,L|136:88,1,99.9999999999999,0|8
208,64,20329,5,0
256,128,20663,1,8
304,64,20996,2,0,L|416:64,1,99.9999999999999,0|8
488,64,21663,5,4
488,184,22163,1,4
488,304,22663,1,4
408,304,22996,5,2
256,360,23663,1,0
104,304,24329,2,0,L|104:200,1,99.9999999999999,2|0
104,160,24829,2,0,B|176:120|248:160,1,150,0|0
320,192,25663,5,2
472,136,26329,1,0
432,288,26996,2,0,B|328:288,1,99.9999999999999,2|0
288,288,27496,1,0
336,96,28329,5,2
176,96,28996,1,0
256,232,29663,2,0,B|312:208|288:128,1,99.9999999999999,2|0
280,112,30163,2,0,B|184:96|168:208,1,150
144,264,30996,2,0,B|264:448|344:184|504:352,1,400,2|0
256,136,33663,5,4
96,136,34329,1,2
96,296,34996,2,0,B|256:296,2,150
96,216,36329,5,2
256,216,36996,1,0
416,216,37663,2,0,B|416:112,1,99.9999999999999
416,80,38163,1,0
256,216,38996,5,2
336,352,39663,1,0
176,352,40329,2,0,B|24:352,2,150
256,352,41663,6,0,B|256:136,1,200,2|0
256,64,43496,1,2
160,32,44329,6,0,B|160:136,1,99.9999999999999,4|8
80,128,45663,2,0,B|80:232,1,99.9999999999999,0|8
80,312,46996,2,0,B|176:352,1,99.9999999999999,0|8
208,280,48329,2,0,B|312:280,1,99.9999999999999,0|8
392,280,49663,5,4
392,200,50329,1,8
392,120,50996,1,0
392,40,51663,1,8
472,40,52329,2,0,B|472:144,1,99.9999999999999,0|8
472,224,53663,2,0,B|408:256|384:200|320:224,1,150,0|8
256,256,54996,6,0,B|176:376|40:288|40:128|184:96,1,400,4|0
280,48,56829,1,0
392,80,57329,1,2
424,152,57663,1,4
256,328,58663,5,0
176,328,58996,2,0,B|96:296|88:200,2,150
256,328,60329,1,4
472,192,62329,5,0
472,112,62663,1,8
392,112,62996,2,0,B|400:256|272:216,2,200,0|2|0
296,40,64829,1,0
200,112,65329,5,8
120,112,65663,2,0,B|120:224,1,99.9999999999999,4|8
120,248,66163,1,0
224,184,66663,1,8
224,264,66996,6,0,B|328:264,1,99.9999999999999,4|8
368,264,67496,2,0,B|464:248|424:152,1,150,0|8
392,80,68329,2,0,B|368:32|288:40,1,99.9999999999999,2|8
272,48,68829,2,0,B|184:72|168:168,1,150,0|8
168,232,69663,5,0
184,312,69996,1,8
208,344,70163,1,0
56,304,70996,5,4
168,192,71663,1,2
256,56,72329,1,0
344,192,72996,1,2
456,304,73663,2,0,B|336:368|296:256|160:328,1,300,4|0
88,352,74996,1,4
376,216,76329,6,0,B|488:216,1,99.9999999999999,4|8
480,176,76829,2,0,B|368:64,1,150,0|8
312,16,77663,1,4
240,48,77996,1,8
200,64,78163,2,0,B|224:160|112:184,1,150,0|8
56,192,78996,5,4
96,264,79329,1,8
136,264,79496,2,0,B|192:192|272:216,1,150,0|8
344,232,80329,5,4
456,280,80829,1,4
360,352,81329,1,4
280,352,81663,6,0,B|176:352,1,99.9999999999999,4|8
136,352,82163,2,0,B|32:352|64:240,1,150,0|8
80,176,82996,2,0,B|168:96|272:184,1,200
256,192,84329,12,4,85663
256,80,86996,6,0,B|256:288,2,200
176,184,88829,1,0
336,184,89329,1,8
