osu file format v12

[General]
AudioFilename: 01 - Senketsu no Chikai.mp3
AudioLeadIn: 0
PreviewTime: 130260
Countdown: 2
SampleSet: Soft
StackLeniency: 0.7
Mode: 0
LetterboxInBreaks: 0
EpilepsyWarning: 1

[Editor]
Bookmarks: 12927,23593,44927,55593,87593,98260,119593,130260,162260,184927,214925,238260
DistanceSpacing: 1.2
BeatDivisor: 4
GridSize: 8

[Metadata]
Title:Senketsu no Chikai
TitleUnicode:鮮血の誓い
Artist:Yousei Teikoku
ArtistUnicode:妖精帝國
Creator:Saten
Version:Mafia
Source:Renkin Sankyuu Magical Pokaan
Tags:Magipoka Weez Weezy Mafiamaster Nekoo[] Saten-san Loctav
BeatmapID:94101
BeatmapSetID:27104

[Difficulty]
HPDrainRate:5
CircleSize:4
OverallDifficulty:5
ApproachRate:7
SliderMultiplier:1.6
SliderTickRate:2

[Events]
//Background and Video events
0,0,"BG01.jpg",0,0
Video,0,"Renkin San-kyuu Magical Pokaan OP.avi"
//Break Periods
2,87792,97359
2,173125,181359
//Storyboard Layer 0 (Background)
Sprite,Background,Centre,"BG01.jpg",320,240 M,0,130259,,320,240 S,0,130259,,0.625 F,0,130259,153592,1 F,0,153592,162259,0 F,0,162259,183592,1 F,0,183592,184925,1,0 F,0,184925,,0 F,0,184925,185009,0,0.06 F,0,185009,185592,0.06,0 F,0,185592,,0 F,0,185592,187592,0 F,0,187592,187675,0,0.08 F,0,187675,188259,0.08,0 F,0,188259,190259,0 F,0,190259,190342,0,0.1 F,0,190342,190925,0.1,0 F,0,190925,192925,0 F,0,192925,193009,0,0.12 F,0,193009,193592,0.12,0 F,0,193592,195592,0 F,0,195592,195675,0,0.14 F,0,195675,196259,0.14,0 F,0,196259,198259,0 F,0,198259,198342,0,0.16 F,0,198342,198925,0.16,0 F,0,198925,200925,0 F,0,200925,201592,0,0.18 F,0,201592,202259,0.18,0 F,0,202259,203592,0,1 F,0,203592,204925,1 F,0,203592,206259,0 F,0,204925,230259,1 F,0,206259,230259,0 F,0,230259,238259,0 F,0,238259,248592,1 F,0,248592,252925,1,0
Sprite,Background,Centre,"SB\01 uma.jpg",320,240 S,0,87592,,1.068327 M,0,87592,90259,320,509,320,-26
Sprite,Background,Centre,"SB\02 pachira.jpg",320,240 F,0,90259,,1 S,0,90259,,1.068327 M,0,90259,92925,320,-21,320,507
Sprite,Background,Centre,"SB\03 aiko.jpg",320,240 F,0,92925,,1 S,0,92925,,1.068328 M,0,92925,95592,320,507,320,-30
Sprite,Background,Centre,"SB\04 liru.jpg",320,240 F,0,95592,,1 S,0,95592,,1.068327 M,0,95592,96884,320,-27,320,227
//Storyboard Layer 1 (Fail)
//Storyboard Layer 2 (Pass)
//Storyboard Layer 3 (Foreground)
Sprite,Foreground,Centre,"SB\BG01P.jpg",320,240 F,0,203592,204259,1,0 S,0,203592,204259,0.8086832,1.013665 F,0,205009,205425,1 S,0,205009,205425,0.8496799 F,0,205425,205509,0 F,0,205509,205925,1 S,0,205509,205925,0.9316725 F,0,205925,206009,0 F,0,206009,206259,1 S,0,206009,206259,1
Sprite,Foreground,Centre,"SB\03 aiko.jpg",320,240 S,0,96925,,0.5490392 M,0,96925,97384,150,240
Sprite,Foreground,Centre,"SB\04 liru.jpg",320,240 S,0,96925,,0.5490391 M,0,96925,97384,479,240
Sprite,Foreground,Centre,"SB\02 pachira.jpg",320,240 S,0,97425,,0.5217083 M,0,97425,97884,352,240
Sprite,Foreground,Centre,"SB\03 aiko.jpg",320,240 S,0,97425,,0.5217083 M,0,97425,97884,99,240
Sprite,Foreground,Centre,"SB\04 liru.jpg",320,240 S,0,97425,,0.5217081 M,0,97425,97884,581,240
Sprite,Foreground,Centre,"SB\02 pachira.jpg",320,240 M,0,97925,,253,240 S,0,97925,,0.5080428 F,0,97925,98175,1 F,0,98175,98259,1,0
Sprite,Foreground,Centre,"SB\01 uma.jpg",320,240 M,0,97925,,485,240 S,0,97925,,0.5080426 F,0,97925,98175,1 F,0,98175,98259,1,0
Sprite,Foreground,Centre,"SB\03 aiko.jpg",320,240 M,0,97925,,26,240 S,0,97925,,0.5080429 F,0,97925,98175,1 F,0,98175,98259,1,0
Sprite,Foreground,Centre,"SB\04 liru.jpg",320,240 M,0,97925,,653,240 S,0,97925,,0.5080428 F,0,97925,98175,1 F,0,98175,98259,1,0
Sprite,Foreground,Centre,"SB\All.jpg",320,240 F,0,119592,129925,0.4670463 M,0,119592,130259,1097,240,-454,240 F,0,129925,130259,0.4670463,0
Sprite,Foreground,Centre,"SB\END\01.png",320,240 M,0,151592,152259,320,240,466,240 S,0,151592,152259,1.218648,0.7198576 F,0,151592,154925,1
Sprite,Foreground,Centre,"SB\END\02.png",320,240 M,0,152925,153592,320,240,173,240 S,0,152925,153592,1,0.7198576 F,0,152925,156259,1
Sprite,Foreground,Centre,"SB\END\03.png",320,240 M,0,154259,154925,320,240,467,240 S,0,154259,154925,1,0.7198578 F,0,154259,156925,1
Sprite,Foreground,Centre,"SB\END\04.png",320,240 M,0,155592,156259,320,240,173,240 S,0,155592,156259,1,0.7198576 F,0,155592,156925,1
Sprite,Foreground,Centre,"SB\BG01P.jpg",320,240 M,0,166259,,320,240 F,0,166259,167592,1,0 S,0,166259,167592,0.8086833,1.040997
Sprite,Foreground,Centre,"SB\BG01P.jpg",320,240 M,0,163592,,320,240 F,0,163592,164259,1,0 S,0,163592,164259,0.808683,1.136655
Sprite,Foreground,Centre,"SB\BG01P.jpg",320,240 F,0,166259,167592,1,0 S,0,166259,167592,0.8086832,0.6720284
Sprite,Foreground,Centre,"SB\BG01PG.jpg",320,240 M,0,168925,,320,240 S,0,168925,,0.8086832 F,0,168925,170259,1,0
Sprite,Foreground,Centre,"SB\991438.jpg",320,240 S,0,156924,,0.9385055 M,0,156924,162258,264,240,373,240
Sprite,Foreground,Centre,"SB\END\01.png",320,240 M,0,227592,228259,320,240,139,240 S,0,227592,228259,1,0.7130249 M,0,228259,230925,139,240
Sprite,Foreground,Centre,"SB\END\02.png",320,240 M,0,228925,229592,320,240,483,240 S,0,228925,229592,1,0.7130249 M,0,229592,232259,483,240
Sprite,Foreground,Centre,"SB\END\03.png",320,240 M,0,230259,230925,320,240,140,240 S,0,230259,230925,1,0.7130249 S,0,230925,,0.7130249 M,0,230925,232925,140,240
Sprite,Foreground,Centre,"SB\END\04.png",320,240 M,0,231592,232259,320,240,482,240 S,0,231592,232259,1,0.713025 M,0,232259,232925,482,240
Sprite,Foreground,Centre,"SB\BG.jpg",320,240 M,0,232925,238259,320,240 S,0,232925,238259,1,0.8086834
Sprite,Foreground,Centre,"SB\circle 2.jpg",320,240 S,0,98258,98424,0.8,0.9 F,0,98258,98924,0,1 R,0,98258,108924,6.778079,13.13253 S,0,98424,98591,0.9,0.8 S,0,98591,100924,0.8 F,0,98924,107591,1,0.5 S,0,100924,101091,0.8,0.9 S,0,101091,101258,0.9,0.8 S,0,101258,103591,0.8 S,0,103591,103758,0.8,0.9 S,0,103758,103924,0.9,0.8 S,0,103924,106258,0.8 S,0,106258,106424,0.8,0.9 S,0,106424,106591,0.9,0.8 F,0,107591,108924,0.5,0
Animation,Foreground,Centre,"SB\Animate\Frame00.png",320,240,64,19,LoopForever F,0,108759,108925,0,1 M,0,108925,,320,240 M,0,108925,118259,320,240 F,0,108925,118259,1 F,0,118259,119259,1,0.007507503
Sprite,Foreground,Centre,"SB\Circle.png",320,240 F,0,184592,184925,0,1 M,0,184925,,320,240 S,0,184925,,0.6037012 F,0,184925,200925,1 R,0,184925,202259,0,9.483844 F,0,200925,202259,1,0
Sprite,Foreground,Centre,"SB\White.jpg",320,240 M,0,87591,,320,240 S,0,87591,,2.065907 F,0,87591,87758,1,0 M,0,90258,,320,240 S,0,90258,,2.011245 F,0,90258,90425,1,0 M,0,92924,,320,240 S,0,92924,,2.052242 F,0,92924,93092,1,0 M,0,95591,,320,240 S,0,95591,,2.038576 F,0,95591,95758,1,0 S,0,130258,,2.024911 F,0,130258,130424,1,0 F,0,151592,151925,1,0 M,0,156924,,320,240 S,0,156924,,2.011245 F,0,156924,157258,1,0 S,0,162259,,2.011245 F,0,162259,162425,1,0 M,0,163592,,320,240 S,0,163592,,2.038576 F,0,163592,163759,1,0 S,0,166259,,2.011245 F,0,166259,166425,1,0 S,0,168925,,2.052242 F,0,168925,169092,1,0 S,0,203592,,2.024911 F,0,203592,203759,1,0 S,0,206259,,2.024911 F,0,206259,206425,1,0 M,0,227592,,320,240 S,0,227592,,2.024911 F,0,227592,227759,1,0 M,0,232925,,320,240 S,0,232925,,2.024911 F,0,232925,233092,1,0 F,0,238257,238424,1,0 S,0,238259,,2.052242
//Storyboard Sound Samples
//Background Colour Transformations
3,100,0,0,0

[TimingPoints]
926,333.333333333333,4,2,1,100,1,0
23592,-133.333333333333,4,2,1,60,0,0
34092,-133.333333333333,4,2,1,100,0,0
44842,-200,4,2,1,100,0,0
55592,-100,4,1,1,100,0,1
55675,-100,4,2,1,100,0,1
74175,-100,4,1,1,100,0,1
74342,-100,4,2,1,100,0,1
76842,-100,4,1,1,100,0,1
77009,-100,4,2,1,100,0,1
79509,-100,4,1,1,100,0,1
79675,-100,4,2,1,100,0,1
82175,-100,4,1,1,100,0,1
82342,-100,4,2,1,100,0,1
84925,-100,4,2,1,100,0,0
98092,-133.333333333333,4,2,1,100,0,0
119592,-200,4,2,1,100,0,0
130259,-100,4,1,1,100,0,1
130342,-100,4,2,1,100,0,1
159592,-100,4,2,1,100,0,0
162259,-100,4,2,1,100,0,1
163592,-200,4,1,1,100,0,1
164592,-100,4,2,1,100,0,1
164842,-100,4,1,1,100,0,1
165009,-100,4,2,1,100,0,1
166175,-100,4,1,1,100,0,1
166342,-100,4,2,1,100,0,1
167509,-100,4,1,1,100,0,1
167675,-100,4,2,1,100,0,1
168842,-100,4,1,1,100,0,1
169009,-100,4,2,1,100,0,1
172925,-100,4,2,1,100,0,0
182259,-100,4,2,1,5,0,0
184342,-100,4,2,1,100,0,0
184925,-200,4,1,1,20,0,0
196342,-200,4,1,1,10,0,0
197092,-200,4,1,1,20,0,0
199009,-200,4,1,1,10,0,0
199759,-200,4,1,1,20,0,0
203258,-133.333333333333,4,1,1,100,0,0
203925,-133.333333333333,4,2,1,100,0,0
206258,-100,4,1,1,100,0,1
206342,-100,4,2,1,100,0,1
235592,-100,4,2,1,100,0,0
250258,-100,4,2,1,60,0,0
251258,-100,4,2,1,40,0,0
252258,-100,4,2,1,20,0,0
252925,-100,4,2,1,5,0,0

[Colours]
Combo1 : 255,255,102
Combo2 : 91,255,91
Combo3 : 255,108,182
Combo4 : 169,83,255

[HitObjects]
160,112,12925,6,0,B|160:88|160:88|184:64|184:64|184:24,1,80,4|0,0:0|0:0,0:0:0:0:
256,0,13259,2,0,B|256:80,1,80,8|0,0:0|0:0,0:0:0:0:
328,41,13592,2,0,B|328:63|328:63|352:87|352:87|352:111,1,80
296,168,13925,2,0,B|216:168,1,80,8|0,0:0|0:0,0:0:0:0:
168,232,14259,2,0,B|176:296|176:296|208:312|208:312|215:371,1,160,0|8,0:0|0:0,0:0:0:0:
297,371,14759,2,0,B|304:312|304:312|336:296|336:296|344:232,1,160,0|0,0:0|0:0,0:0:0:0:
408,280,15259,2,0,B|416:200,1,80,8|0,0:0|0:0,0:0:0:0:
488,240,15592,6,0,B|480:152,1,80,0|0,0:0|0:0,0:0:0:0:
472,88,15925,1,8,0:0:0:0:
416,32,16092,1,0,0:0:0:0:
360,88,16259,2,0,B|304:32,2,80,0|0|8,0:0|0:0|0:0,0:0:0:0:
416,144,16759,1,0,0:0:0:0:
360,200,16925,2,0,B|304:231|304:231|328:287|297:322,1,160,0|8,0:0|0:0,0:0:0:0:
213,322,17425,2,0,B|183:287|207:231|207:231|152:200,1,160
216,152,17925,2,0,B|144:112,1,80,8|0,0:0|0:0,0:0:0:0:
72,80,18259,6,0,B|88:88|104:112|88:136|72:144,2,80,4|0|8,0:0|0:0|0:0,0:0:0:0:
0,112,18759,1,0,0:0:0:0:
0,192,18925,2,0,B|-16:200|-32:224|-16:248|0:256,1,80
72,224,19259,1,8,0:0:0:0:
72,304,19425,1,0,0:0:0:0:
136,352,19592,2,0,B|160:296|216:304|216:304|216:232,1,160,0|8,0:0|0:0,0:0:0:0:
296,244,20092,2,0,B|296:304|296:304|352:296|376:352,1,160,0|0,0:0|0:0,0:0:0:0:
448,376,20592,2,0,B|432:368|416:344|432:320|448:312,1,80,8|0,0:0|0:0,0:0:0:0:
512,264,20925,6,0,B|456:208,1,80,0|0,0:0|0:0,0:0:0:0:
504,144,21259,2,0,B|416:128,1,80,8|0,0:0|0:0,0:0:0:0:
440,48,21592,2,0,B|360:72,1,80,0|8,0:0|0:0,0:0:0:0:
288,48,21925,2,0,B|256:24|256:24|224:48,1,80,8|8,0:0|0:0,0:0:0:0:
256,120,22259,5,4,0:0:0:0:
136,328,22759,1,4,0:0:0:0:
376,328,23259,1,4,0:0:0:0:
256,360,23592,6,0,B|256:216,1,119.999996423721,4|2,0:0|0:0,0:0:0:0:
256,120,24259,1,0,0:0:0:0:
184,96,24425,1,0,0:0:0:0:
160,168,24592,1,2,0:0:0:0:
160,168,24925,2,0,B|144:232,2,59.9999982118607,0|0|2,0:0|0:0|0:0,0:0:0:0:
224,208,25425,2,0,B|256:264|192:264|224:320,1,119.999996423721
296,344,25925,6,0,B|416:352,1,119.999996423721,2|0,0:0|0:0,0:0:0:0:
304,264,26592,2,0,B|424:272,1,119.999996423721,2|0,0:0|0:0,0:0:0:0:
472,216,27092,1,0,0:0:0:0:
400,200,27259,2,0,B|384:128|440:80,1,119.999996423721,2|0,0:0|0:0,0:0:0:0:
400,24,27759,2,0,B|344:64,1,59.9999982118607,0|2,0:0|0:0,0:0:0:0:
280,40,28092,2,0,B|224:0|160:16,1,119.999996423721,0|0,0:0|0:0,0:0:0:0:
96,40,28592,1,2,0:0:0:0:
40,168,28925,6,0,B|96:208|152:168,2,119.999996423721,0|2|0,0:0|0:0|0:0,0:0:0:0:
16,240,29759,1,0,0:0:0:0:
88,264,29925,2,0,B|128:320|88:376,1,119.999996423721,2|0,0:0|0:0,0:0:0:0:
152,344,30425,1,0,0:0:0:0:
224,328,30592,1,2,0:0:0:0:
296,344,30759,2,0,B|352:360|432:360,1,119.999996423721
488,336,31259,2,0,B|448:288|472:224,1,119.999996423721,2|0,0:0|0:0,0:0:0:0:
504,80,31925,1,2,0:0:0:0:
368,24,32259,2,0,B|288:48,2,59.9999982118607,0|0|2,0:0|0:0|0:0,0:0:0:0:
440,144,32925,6,0,B|416:208,1,59.9999982118607
368,256,33259,1,2,0:0:0:0:
296,232,33425,2,0,B|240:200|176:224,1,119.999996423721
112,256,33925,1,2,0:0:0:0:
40,112,34259,5,4,0:0:0:0:
168,192,34592,1,2,0:0:0:0:
208,56,34925,1,0,0:0:0:0:
104,152,35259,1,2,0:0:0:0:
240,128,35592,2,0,B|312:120,1,59.9999982118607
360,160,35925,1,2,0:0:0:0:
408,104,36092,2,0,B|464:144|456:216,1,119.999996423721
456,280,36592,1,2,0:0:0:0:
344,368,36925,5,0,0:0:0:0:
256,256,37259,1,2,0:0:0:0:
168,368,37592,2,0,B|104:368,2,59.9999982118607,0|0|2,0:0|0:0|0:0,0:0:0:0:
88,248,38259,2,0,B|40:192,1,59.9999982118607
120,176,38592,2,0,B|96:112,1,59.9999982118607,2|0,0:0|0:0,0:0:0:0:
224,48,39092,1,0,0:0:0:0:
224,48,39259,1,2,0:0:0:0:
256,192,39592,5,0,0:0:0:0:
288,336,39925,1,2,0:0:0:0:
328,200,40259,1,0,0:0:0:0:
224,296,40592,1,2,0:0:0:0:
368,264,40925,1,0,0:0:0:0:
432,224,41092,2,0,B|480:152,1,59.9999982118607,0|2,0:0|0:0,0:0:0:0:
392,160,41425,2,0,B|416:120|416:120|408:80|368:56,1,119.999996423721
312,24,41925,1,2,0:0:0:0:
200,80,42259,6,0,B|80:40,1,119.999996423721,0|2,0:0|0:0,0:0:0:0:
40,176,42925,2,0,B|153:138,1,119.999996423721,0|2,0:0|0:0,0:0:0:0:
200,272,43592,2,0,B|86:234,1,119.999996423721,0|2,0:0|0:0,0:0:0:0:
40,176,44092,2,0,B|0:264|80:264|40:352,1,179.999994635582,0|10,0:0|0:0,0:0:0:0:
112,376,44759,1,8,0:0:0:0:
192,368,44925,6,0,B|216:328|256:312|296:328|320:368,1,160,4|8,0:0|0:0,0:0:0:0:
472,256,46259,2,0,B|520:192|520:192|472:128,1,160,0|8,0:0|0:0,0:0:0:0:
320,16,47592,2,0,B|296:56|256:72|216:56|192:16,1,160,0|8,0:0|0:0,0:0:0:0:
40,128,48925,2,0,B|-8:192|-8:192|40:256,1,160,0|8,0:0|0:0,0:0:0:0:
112,192,49925,1,8,0:0:0:0:
160,112,50259,5,4,0:0:0:0:
352,112,50925,1,8,0:0:0:0:
352,304,51592,1,0,0:0:0:0:
160,304,52259,1,8,0:0:0:0:
256,136,52925,5,0,0:0:0:0:
256,328,53592,1,8,0:0:0:0:
168,160,54259,1,4,0:0:0:0:
208,248,54592,1,0,0:0:0:0:
304,248,54925,1,4,0:0:0:0:
344,160,55259,1,8,0:0:0:0:
304,72,55592,6,0,B|232:16|144:40,1,160,4|8,0:0|0:0,0:0:0:0:
80,64,56092,2,0,B|136:144|88:232,1,160,2|2,0:0|0:0,0:0:0:0:
56,288,56592,1,8,0:0:0:0:
120,336,56759,1,0,0:0:0:0:
200,312,56925,2,0,B|288:288|320:176,1,160,2|8,0:0|0:0,0:0:0:0:
320,128,57425,2,0,B|328:216|408:264,1,160,2|2,0:0|0:0,0:0:0:0:
336,312,57925,2,0,B|288:232|208:224,1,160,8|2,0:0|0:0,0:0:0:0:
136,248,58425,5,0,0:0:0:0:
64,208,58592,1,8,0:0:0:0:
80,128,58759,2,0,B|168:104|176:8,1,160,2|2,0:0|0:0,0:0:0:0:
240,64,59259,1,8,0:0:0:0:
312,32,59425,1,0,0:0:0:0:
376,80,59592,2,0,B|448:128|480:200,1,160,2|8,0:0|0:0,0:0:0:0:
400,200,60092,2,0,B|448:272|424:360,1,160,2|0,0:0|0:0,0:0:0:0:
360,304,60592,2,0,B|360:360|320:384|320:384|248:368,1,160,10|4,0:0|0:0,0:0:0:0:
176,352,61092,5,0,0:0:0:0:
136,280,61259,1,8,0:0:0:0:
56,296,61425,1,2,0:0:0:0:
56,296,61759,1,2,0:0:0:0:
16,224,61925,2,0,B|32:144,1,80,8|0,0:0|0:0,0:0:0:0:
96,192,62259,2,0,B|144:120,1,80,2|0,0:0|0:0,0:0:0:0:
184,192,62592,2,0,B|264:160,1,80,8|2,0:0|0:0,0:0:0:0:
336,136,62925,5,0,0:0:0:0:
256,272,63259,1,8,0:0:0:0:
176,136,63592,2,0,B|112:152|88:88|88:88|40:89,1,160,2|8,0:0|0:0,0:0:0:0:
184,24,64259,2,0,B|232:22|232:22|256:86|320:70,1,160,2|8,0:0|0:0,0:0:0:0:
480,48,64925,2,0,B|400:112|440:208,1,160,2|8,0:0|0:0,0:0:0:0:
448,272,65425,2,0,B|424:184|328:176,1,160,2|2,0:0|0:0,0:0:0:0:
256,160,65925,1,10,0:0:0:0:
96,192,66259,5,4,0:0:0:0:
144,256,66425,1,0,0:0:0:0:
216,288,66592,1,8,0:0:0:0:
288,256,66759,2,0,B|336:168|448:200,1,160,2|2,0:0|0:0,0:0:0:0:
496,216,67259,1,8,0:0:0:0:
424,72,67592,5,2,0:0:0:0:
360,120,67759,1,0,0:0:0:0:
296,72,67925,1,8,0:0:0:0:
232,120,68092,2,0,B|176:216|72:176,1,160,2|2,0:0|0:0,0:0:0:0:
40,128,68592,2,0,B|104:184|80:280,1,160,8|2,0:0|0:0,0:0:0:0:
24,328,69092,6,0,B|88:376,1,80,0|10,0:0|0:0,0:0:0:0:
144,320,69425,2,0,B|208:312|208:248|304:256,1,160,0|2,0:0|0:0,0:0:0:0:
272,336,69925,2,0,B|320:336|368:280,1,80,8|0,0:0|0:0,0:0:0:0:
400,360,70259,2,0,B|432:336|448:280,2,80,2|0|8,0:0|0:0|0:0,0:0:0:0:
480,384,70759,1,2,0:0:0:0:
496,224,71092,5,2,0:0:0:0:
472,144,71259,1,8,0:0:0:0:
400,112,71425,1,0,0:0:0:0:
328,152,71592,2,0,B|360:184|328:224|328:224|360:264|328:296,1,160,4|8,0:0|0:0,0:0:0:0:
256,152,72259,2,0,B|256:240,1,80,2|0,0:0|0:0,0:0:0:0:
256,312,72592,1,8,0:0:0:0:
184,152,72925,2,0,B|152:184|184:224|184:224|152:264|184:296,1,160,2|8,0:0|0:0,0:0:0:0:
208,368,73425,2,0,B|128:376,1,80,2|0,0:0|0:0,0:0:0:0:
56,352,73759,1,8,0:0:0:0:
32,280,73925,1,8,0:0:0:0:
16,120,74259,6,0,B|168:40|168:200|320:120,1,320,4|0,0:0|0:0,0:0:0:0:
456,40,75259,1,8,0:0:0:0:
480,200,75592,1,4,0:0:0:0:
368,312,75925,1,0,0:0:0:0:
368,312,76092,1,4,0:0:0:0:
208,288,76425,1,0,0:0:0:0:
208,288,76592,1,4,0:0:0:0:
208,288,76759,1,0,0:0:0:0:
176,216,76925,6,0,B|152:121|216:71,1,160,4|8,0:0|0:0,0:0:0:0:
296,72,77425,2,0,B|360:121|336:217,1,160,2|2,0:0|0:0,0:0:0:0:
256,232,77925,2,0,B|256:128,1,80,8|0,0:0|0:0,0:0:0:0:
256,72,78259,2,0,B|352:48|400:160,1,160,4|8,0:0|0:0,0:0:0:0:
440,72,78759,2,0,B|488:136|464:232,1,160,2|2,0:0|0:0,0:0:0:0:
448,304,79259,1,8,0:0:0:0:
376,328,79425,1,2,0:0:0:0:
296,344,79592,6,0,B|368:280|296:192,1,160,4|8,0:0|0:0,0:0:0:0:
208,201,80092,2,0,B|144:280|216:344,1,160,2|2,0:0|0:0,0:0:0:0:
256,272,80592,1,8,0:0:0:0:
256,112,80925,1,6,0:0:0:0:
104,56,81259,1,0,0:0:0:0:
104,56,81425,1,4,0:0:0:0:
24,192,81759,1,0,0:0:0:0:
24,192,81925,1,4,0:0:0:0:
104,328,82259,6,0,B|176:288|264:320,1,160,4|8,0:0|0:0,0:0:0:0:
336,344,82759,2,0,B|248:312|232:224,1,160,2|2,0:0|0:0,0:0:0:0:
224,152,83259,1,8,0:0:0:0:
288,104,83425,1,2,0:0:0:0:
360,144,83592,2,0,B|288:224|200:176|248:112|160:64|88:144,1,320,4|0,0:0|0:0,0:0:0:0:
256,192,84925,12,4,86259,0:0:0:0:
168,224,86925,5,8,0:0:0:0:
256,360,87259,1,8,0:0:0:0:
344,224,87592,1,4,0:0:0:0:
152,328,98259,5,4,0:0:0:0:
256,264,98592,1,2,0:0:0:0:
360,328,98925,1,0,0:0:0:0:
400,264,99092,1,0,0:0:0:0:
360,200,99259,1,2,0:0:0:0:
360,200,99592,2,0,B|368:136,2,59.9999982118607,0|0|2,0:0|0:0|0:0,0:0:0:0:
296,160,100092,2,0,B|240:192|240:128|184:160,1,119.999996423721
112,176,100592,6,0,B|136:104,1,59.9999982118607,2|0,0:0|0:0,0:0:0:0:
152,48,100925,2,0,B|208:32|272:40,1,119.999996423721,0|2,0:0|0:0,0:0:0:0:
400,96,101592,1,0,0:0:0:0:
408,168,101759,1,0,0:0:0:0:
456,224,101925,2,0,B|472:296|416:344,1,119.999996423721,2|0,0:0|0:0,0:0:0:0:
376,280,102425,2,0,B|320:240,1,59.9999982118607,0|2,0:0|0:0,0:0:0:0:
288,304,102759,2,0,B|232:336|168:328,1,119.999996423721
104,304,103259,1,2,0:0:0:0:
152,168,103592,6,0,B|96:128|40:168,2,119.999996423721,0|2|0,0:0|0:0|0:0,0:0:0:0:
208,216,104425,1,0,0:0:0:0:
280,208,104592,1,2,0:0:0:0:
400,128,104925,2,0,B|432:64,1,59.9999982118607
352,64,105259,1,2,0:0:0:0:
280,80,105425,2,0,B|216:40|144:64,1,119.999996423721
96,72,105925,1,2,0:0:0:0:
8,192,106259,5,0,0:0:0:0:
64,320,106592,1,2,0:0:0:0:
208,344,106925,2,0,B|288:320,2,59.9999982118607,0|0|2,0:0|0:0|0:0,0:0:0:0:
120,232,107592,6,0,B|152:176,1,59.9999982118607
176,112,107925,1,2,0:0:0:0:
232,160,108092,2,0,B|288:192|352:168,1,119.999996423721
416,144,108592,1,2,0:0:0:0:
472,272,108925,5,4,0:0:0:0:
328,256,109259,1,2,0:0:0:0:
416,368,109592,1,0,0:0:0:0:
344,360,109759,1,0,0:0:0:0:
272,352,109925,1,2,0:0:0:0:
240,208,110259,2,0,B|168:216,1,59.9999982118607
128,264,110592,1,2,0:0:0:0:
56,272,110759,2,0,B|0:232|8:160,1,119.999996423721
24,96,111259,1,2,0:0:0:0:
152,32,111592,5,0,0:0:0:0:
256,128,111925,1,2,0:0:0:0:
360,32,112259,2,0,B|424:32,2,59.9999982118607,0|0|2,0:0|0:0|0:0,0:0:0:0:
456,144,112925,2,0,B|504:192,2,59.9999982118607,0|0|2,0:0|0:0|0:0,0:0:0:0:
384,128,113425,2,0,B|360:192|392:264,1,119.999996423721
416,312,113925,1,2,0:0:0:0:
296,232,114259,5,0,0:0:0:0:
240,96,114592,1,2,0:0:0:0:
168,224,114925,1,0,0:0:0:0:
104,192,115092,1,0,0:0:0:0:
104,120,115259,1,2,0:0:0:0:
104,120,115592,1,0,0:0:0:0:
40,152,115759,2,0,B|-8:192,1,59.9999982118607,0|2,0:0|0:0,0:0:0:0:
48,240,116092,2,0,B|72:288|32:304|56:360,1,119.999996423721
128,368,116592,1,2,0:0:0:0:
256,304,116925,6,0,B|328:320|384:256,1,119.999996423721,0|2,0:0|0:0,0:0:0:0:
366,129,117592,2,0,B|327:82|255:98,1,119.999996423721,0|2,0:0|0:0,0:0:0:0:
360,200,118259,2,0,B|240:200,1,119.999996423721,0|2,0:0|0:0,0:0:0:0:
168,216,118759,2,0,B|128:128|208:128|168:40,1,179.999994635582,0|2,0:0|0:0,0:0:0:0:
240,24,119425,1,2,0:0:0:0:
312,40,119592,6,0,B|352:64|368:104|352:144|312:168,1,160,4|8,0:0|0:0,0:0:0:0:
200,40,120925,2,0,B|160:64|144:104|160:144|200:168,1,160,0|8,0:0|0:0,0:0:0:0:
400,224,122259,2,0,B|320:376,1,160,0|8,0:0|0:0,0:0:0:0:
112,224,123592,2,0,B|192:376,1,160,0|8,0:0|0:0,0:0:0:0:
256,240,124592,1,8,0:0:0:0:
256,96,124925,5,4,0:0:0:0:
40,280,125592,1,8,0:0:0:0:
200,40,126259,1,0,0:0:0:0:
472,280,126925,1,8,0:0:0:0:
312,40,127592,5,0,0:0:0:0:
256,320,128259,1,8,0:0:0:0:
168,56,128925,1,4,0:0:0:0:
208,144,129259,1,0,0:0:0:0:
304,144,129592,1,4,0:0:0:0:
344,56,129925,1,0,0:0:0:0:
472,152,130259,6,0,B|392:200|440:320,1,160,4|8,0:0|0:0,0:0:0:0:
504,320,130759,2,0,B|416:288|344:352,1,160,2|2,0:0|0:0,0:0:0:0:
280,376,131259,1,8,0:0:0:0:
208,336,131425,1,0,0:0:0:0:
184,256,131592,2,0,B|160:168|48:136,1,160,2|8,0:0|0:0,0:0:0:0:
136,88,132092,2,0,B|152:176|256:208,1,160,2|2,0:0|0:0,0:0:0:0:
264,280,132592,2,0,B|312:200|392:192,1,160,8|2,0:0|0:0,0:0:0:0:
472,176,133092,5,0,0:0:0:0:
496,96,133259,1,8,0:0:0:0:
456,24,133425,2,0,B|392:32|376:88|304:88,1,160,2|2,0:0|0:0,0:0:0:0:
240,120,133925,1,8,0:0:0:0:
168,96,134092,1,0,0:0:0:0:
104,144,134259,2,0,B|32:192|0:264,1,160,2|8,0:0|0:0,0:0:0:0:
48,328,134759,2,0,B|96:264|184:232,1,160,2|0,0:0|0:0,0:0:0:0:
256,240,135259,2,0,B|256:160,2,80,10|0|4,0:0|0:0|0:0,0:0:0:0:
256,320,135759,5,0,0:0:0:0:
328,360,135925,1,8,0:0:0:0:
368,288,136092,1,2,0:0:0:0:
368,288,136425,1,2,0:0:0:0:
440,256,136592,2,0,B|424:176,1,80,8|0,0:0|0:0,0:0:0:0:
496,136,136925,2,0,B|448:64,1,80,2|2,0:0|0:0,0:0:0:0:
384,112,137259,2,0,B|304:80,1,80,8|2,0:0|0:0,0:0:0:0:
232,56,137592,5,0,0:0:0:0:
64,120,137925,1,10,0:0:0:0:
152,256,138259,2,0,B|232:240|304:320,1,160,2|8,0:0|0:0,0:0:0:0:
208,176,138925,2,0,B|270:105|350:121,1,160,2|8,0:0|0:0,0:0:0:0:
448,248,139592,2,0,B|384:328|288:288,1,160,2|8,0:0|0:0,0:0:0:0:
272,368,140092,2,0,B|248:280|152:272,1,160,2|2,0:0|0:0,0:0:0:0:
80,272,140592,1,8,0:0:0:0:
16,128,140925,6,0,B|48:48,1,80,4|0,0:0|0:0,0:0:0:0:
104,112,141259,1,8,0:0:0:0:
144,184,141425,2,0,B|192:272|304:240,1,160,2|2,0:0|0:0,0:0:0:0:
352,216,141925,1,8,0:0:0:0:
480,120,142259,5,2,0:0:0:0:
416,168,142425,1,0,0:0:0:0:
352,120,142592,1,8,0:0:0:0:
288,168,142759,2,0,B|240:256|128:224,1,160,2|2,0:0|0:0,0:0:0:0:
96,176,143259,2,0,B|160:232|136:328,1,160,8|2,0:0|0:0,0:0:0:0:
200,368,143759,6,0,B|264:320,1,80,0|8,0:0|0:0,0:0:0:0:
328,368,144092,2,0,B|336:304|400:304|392:208,1,160,2|2,0:0|0:0,0:0:0:0:
456,272,144592,2,0,B|464:224|456:176,1,80,8|0,0:0|0:0,0:0:0:0:
448,112,144925,2,0,B|384:32|304:64,1,160,2|10,0:0|0:0,0:0:0:0:
232,80,145425,1,0,0:0:0:0:
16,160,145759,1,2,0:0:0:0:
40,240,145925,1,8,0:0:0:0:
112,272,146092,1,2,0:0:0:0:
184,232,146259,6,0,B|152:200|184:160|184:160|152:120|184:88,1,160,4|10,0:0|0:0,0:0:0:0:
256,232,146925,2,0,B|256:144,1,80,2|0,0:0|0:0,0:0:0:0:
256,72,147259,1,10,0:0:0:0:
328,232,147592,2,0,B|360:200|328:160|328:160|360:120|328:88,1,160,2|8,0:0|0:0,0:0:0:0:
304,16,148092,2,0,B|384:8,1,80,2|2,0:0|0:0,0:0:0:0:
456,32,148425,1,0,0:0:0:0:
480,104,148592,1,10,0:0:0:0:
256,192,148925,12,0,149925,0:0:0:0:
128,192,150259,1,4,0:0:0:0:
256,96,150592,1,0,0:0:0:0:
256,96,150759,1,4,0:0:0:0:
384,192,151092,1,0,0:0:0:0:
384,192,151259,1,4,0:0:0:0:
384,192,151425,1,0,0:0:0:0:
320,240,151592,6,0,B|352:320|352:320|280:385,1,160,4|8,0:0|0:0,0:0:0:0:
214,369,152092,2,0,B|160:320|160:320|192:240,1,160,2|2,0:0|0:0,0:0:0:0:
256,288,152592,2,0,B|256:184,1,80,8|0,0:0|0:0,0:0:0:0:
312,152,152925,2,0,B|357:114|365:58|294:26,1,160,4|8,0:0|0:0,0:0:0:0:
216,27,153425,2,0,B|146:58|154:114|200:152,1,160,2|2,0:0|0:0,0:0:0:0:
256,96,153925,1,8,0:0:0:0:
320,240,154259,6,0,B|392:304|464:240,1,160,4|8,0:0|0:0,0:0:0:0:
400,192,154759,2,0,B|464:120|400:48,1,160,2|2,0:0|0:0,0:0:0:0:
328,24,155259,1,8,0:0:0:0:
176,56,155592,1,4,0:0:0:0:
88,192,155925,1,0,0:0:0:0:
88,192,156092,1,4,0:0:0:0:
192,312,156425,1,0,0:0:0:0:
192,312,156592,1,4,0:0:0:0:
192,312,156759,1,0,0:0:0:0:
264,344,156925,6,0,B|336:384|424:352,1,160,4|8,0:0|0:0,0:0:0:0:
496,328,157425,2,0,B|504:248|440:176,1,160,2|2,0:0|0:0,0:0:0:0:
384,128,157925,1,8,0:0:0:0:
312,160,158092,1,2,0:0:0:0:
256,104,158259,2,0,B|208:24|72:32|8:144|64:232,1,320,4|0,0:0|0:0,0:0:0:0:
256,192,159592,12,4,160925,0:0:0:0:
256,24,161592,6,0,B|256:184,1,160,0|8,0:0|0:0,0:0:0:0:
256,264,162092,1,8,0:0:0:0:
256,344,162259,5,4,0:0:0:0:
176,352,162425,2,0,B|82:328|89:235,1,160,2|0,0:0|0:0,0:0:0:0:
89,156,162925,2,0,B|81:63|177:39,1,160,2|8,0:0|0:0,0:0:0:0:
256,24,163425,1,2,0:0:0:0:
336,40,163592,6,0,B|408:152|264:152|336:264,1,240,4|0,0:0|0:0,0:0:0:0:
368,336,164759,1,0,0:0:0:0:
440,304,164925,5,4,0:0:0:0:
408,232,165092,2,0,B|461:155|405:83,1,160,2|0,0:0|0:0,0:0:0:0:
352,24,165592,2,0,B|275:77|203:21,1,160,2|0,0:0|0:0,0:0:0:0:
128,40,166092,1,2,0:0:0:0:
96,112,166259,6,0,B|168:168,1,80,4|0,0:0|0:0,0:0:0:0:
80,184,166592,2,0,B|144:248,1,80,2|0,0:0|0:0,0:0:0:0:
56,256,166925,2,0,B|104:320,1,80,2|0,0:0|0:0,0:0:0:0:
168,368,167259,1,2,0:0:0:0:
328,376,167592,5,4,0:0:0:0:
368,304,167759,2,0,B|352:216|448:176,1,160,2|0,0:0|0:0,0:0:0:0:
512,216,168259,2,0,B|544:120|472:64,1,160,2|0,0:0|0:0,0:0:0:0:
408,40,168759,1,2,0:0:0:0:
408,40,168925,1,4,0:0:0:0:
256,128,170259,5,4,0:0:0:0:
216,200,170425,2,0,B|163:277|219:349,1,160,2|0,0:0|0:0,0:0:0:0:
293,347,170925,2,0,B|349:277|296:200,1,160,2|0,0:0|0:0,0:0:0:0:
256,128,171425,1,2,0:0:0:0:
176,128,171592,2,0,B|128:80|176:32|176:32|224:64,1,160,2|0,0:0|0:0,0:0:0:0:
293,60,172092,2,0,B|336:32|336:32|384:80|336:128,1,160,2|0,0:0|0:0,0:0:0:0:
256,128,172592,2,0,B|256:224,2,80,2|0|4,0:0|0:0|0:0,0:0:0:0:
256,192,182259,12,0,183925,0:0:0:0:
256,192,184925,5,0,0:0:0:0:
256,272,185259,1,0,0:0:0:0:
256,352,185592,1,8,0:0:0:0:
80,192,186592,1,0,0:0:0:0:
112,120,186925,1,8,0:0:0:0:
256,192,187592,5,0,0:0:0:0:
256,112,187925,1,0,0:0:0:0:
256,32,188259,1,8,0:0:0:0:
432,192,189259,1,0,0:0:0:0:
400,264,189592,1,8,0:0:0:0:
400,264,189759,1,0,0:0:0:0:
336,312,190092,1,0,0:0:0:0:
336,312,190259,5,0,0:0:0:0:
256,328,190592,1,0,0:0:0:0:
176,312,190925,1,8,0:0:0:0:
256,88,191925,1,0,0:0:0:0:
256,168,192259,1,8,0:0:0:0:
96,192,192925,5,0,0:0:0:0:
80,112,193259,1,0,0:0:0:0:
144,64,193592,1,8,0:0:0:0:
256,280,194592,1,0,0:0:0:0:
256,200,194925,1,8,0:0:0:0:
256,160,195092,1,0,0:0:0:0:
368,64,195592,5,0,0:0:0:0:
432,112,195925,1,0,0:0:0:0:
416,192,196259,2,0,B|400:232|416:280,1,80,8|0,0:0|0:0,0:0:0:0:
432,352,196925,1,8,0:0:0:0:
352,368,197259,1,0,0:0:0:0:
304,304,197592,2,0,B|288:264|288:216,1,80,8|0,0:0|0:0,0:0:0:0:
256,152,198259,5,0,0:0:0:0:
184,120,198592,1,0,0:0:0:0:
152,192,198925,2,0,B|128:232|152:272,1,80,8|0,0:0|0:0,0:0:0:0:
200,328,199592,1,8,0:0:0:0:
272,352,199925,2,0,B|312:336|328:296,1,80,0|8,0:0|0:0,0:0:0:0:
336,256,200425,1,0,0:0:0:0:
328,136,200925,5,0,0:0:0:0:
256,96,201259,1,0,0:0:0:0:
184,136,201592,1,8,0:0:0:0:
40,328,202592,1,0,0:0:0:0:
8,256,202925,1,8,0:0:0:0:
256,192,203592,5,4,0:0:0:0:
432,296,204592,1,0,0:0:0:0:
488,192,204925,1,4,0:0:0:0:
488,192,205425,1,4,0:0:0:0:
488,192,205925,1,4,0:0:0:0:
432,88,206259,6,0,B|360:32|272:56,1,160,4|8,0:0|0:0,0:0:0:0:
208,80,206759,2,0,B|264:160|216:248,1,160,2|2,0:0|0:0,0:0:0:0:
152,272,207259,1,8,0:0:0:0:
104,208,207425,1,0,0:0:0:0:
24,192,207592,2,0,B|48:104|160:72,1,160,2|8,0:0|0:0,0:0:0:0:
208,80,208092,2,0,B|216:168|296:216,1,160,2|0,0:0|0:0,0:0:0:0:
280,288,208592,2,0,B|328:208|408:200,1,160,8|2,0:0|0:0,0:0:0:0:
488,192,209092,5,0,0:0:0:0:
456,264,209259,1,8,0:0:0:0:
376,280,209425,2,0,B|288:256|280:160,1,160,2|2,0:0|0:0,0:0:0:0:
272,88,209925,1,8,0:0:0:0:
328,32,210092,1,2,0:0:0:0:
408,56,210259,2,0,B|496:72|512:176,1,160,2|8,0:0|0:0,0:0:0:0:
432,160,210759,2,0,B|464:248|392:312,1,160,2|0,0:0|0:0,0:0:0:0:
328,264,211259,2,0,B|305:305|264:328,2,80,10|0|4,0:0|0:0|0:0,0:0:0:0:
360,192,211759,5,0,0:0:0:0:
320,120,211925,1,8,0:0:0:0:
240,136,212092,1,2,0:0:0:0:
240,136,212425,1,2,0:0:0:0:
160,152,212592,2,0,B|136:112|144:72,1,80,8|2,0:0|0:0,0:0:0:0:
64,80,212925,2,0,B|64:40|112:8,1,80,2|0,0:0|0:0,0:0:0:0:
184,16,213259,2,0,B|224:16|264:48,1,80,8|2,0:0|0:0,0:0:0:0:
328,80,213592,5,0,0:0:0:0:
392,128,213759,2,0,B|440:120|456:72,2,80,2|8|0,0:0|0:0|0:0,0:0:0:0:
440,192,214259,2,0,B|432:285|339:298,1,160,2|8,0:0|0:0,0:0:0:0:
171,297,214925,2,0,B|79:285|72:192,1,160,2|8,0:0|0:0,0:0:0:0:
160,56,215592,2,0,B|231:103|216:195,1,160,2|8,0:0|0:0,0:0:0:0:
295,195,216092,2,0,B|280:103|352:56,1,160,2|0,0:0|0:0,0:0:0:0:
432,32,216592,1,8,0:0:0:0:
488,96,216759,1,0,0:0:0:0:
408,112,216925,6,0,B|368:176|400:272,1,160,4|8,0:0|0:0,0:0:0:0:
416,344,217425,2,0,B|368:256|256:288,1,160,2|2,0:0|0:0,0:0:0:0:
208,312,217925,1,8,0:0:0:0:
312,192,218259,5,2,0:0:0:0:
272,120,218425,1,0,0:0:0:0:
224,56,218592,1,8,0:0:0:0:
176,120,218759,2,0,B|128:208|16:176,1,160,2|2,0:0|0:0,0:0:0:0:
32,104,219259,2,0,B|96:160|72:256,1,160,8|2,0:0|0:0,0:0:0:0:
32,320,219759,6,0,B|56:352|104:368,1,80,0|8,0:0|0:0,0:0:0:0:
152,304,220092,2,0,B|216:296|216:232|312:240,1,160,2|2,0:0|0:0,0:0:0:0:
352,184,220592,2,0,B|392:176|440:224,1,80,8|2,0:0|0:0,0:0:0:0:
440,288,220925,2,0,B|398:356,2,80,2|0|8,0:0|0:0|0:0,0:0:0:0:
504,336,221425,1,2,0:0:0:0:
488,176,221759,6,0,B|504:144|496:96,1,80,2|8,0:0|0:0,0:0:0:0:
440,40,222092,1,2,0:0:0:0:
360,40,222259,2,0,B|200:40,1,160,4|8,0:0|0:0,0:0:0:0:
56,112,222925,2,0,B|216:112,1,160,2|8,0:0|0:0,0:0:0:0:
360,184,223592,2,0,B|200:184,1,160,2|8,0:0|0:0,0:0:0:0:
208,264,224092,2,0,B|168:256|128:272,1,80,2|0,0:0|0:0,0:0:0:0:
72,328,224425,1,2,0:0:0:0:
16,272,224592,1,8,0:0:0:0:
24,112,224925,6,0,B|176:32|176:192|328:112,1,320,4|0,0:0|0:0,0:0:0:0:
368,48,225759,2,0,B|424:120,2,80,0|8|0,0:0|0:0|0:0,0:0:0:0:
440,24,226259,1,4,0:0:0:0:
488,176,226592,1,0,0:0:0:0:
488,176,226759,1,4,0:0:0:0:
400,312,227092,1,0,0:0:0:0:
400,312,227259,1,4,0:0:0:0:
400,312,227425,1,0,0:0:0:0:
328,344,227592,6,0,B|233:368|183:304,1,160,4|10,0:0|0:0,0:0:0:0:
128,360,228092,2,0,B|64:311|88:215,1,160,0|2,0:0|0:0,0:0:0:0:
16,184,228592,2,0,B|56:112,1,80,8|2,0:0|0:0,0:0:0:0:
128,72,228925,2,0,B|224:48|272:160,1,160,4|10,0:0|0:0,0:0:0:0:
320,88,229425,2,0,B|368:152|344:248,1,160,0|2,0:0|0:0,0:0:0:0:
328,320,229925,1,8,0:0:0:0:
256,352,230092,1,2,0:0:0:0:
184,320,230259,6,0,B|128:248|184:168,1,160,4|10,0:0|0:0,0:0:0:0:
184,88,230759,2,0,B|261:141|333:85,1,160,0|2,0:0|0:0,0:0:0:0:
400,48,231259,1,10,0:0:0:0:
256,128,231592,1,4,0:0:0:0:
112,64,231925,1,0,0:0:0:0:
112,64,232092,1,4,0:0:0:0:
24,200,232425,1,0,0:0:0:0:
24,200,232592,1,4,0:0:0:0:
184,224,232925,6,0,B|256:184|344:216,1,160,4|10,0:0|0:0,0:0:0:0:
408,176,233425,2,0,B|400:256|464:328,1,160,0|2,0:0|0:0,0:0:0:0:
392,368,233925,2,0,B|352:344|312:344,1,80,8|2,0:0|0:0,0:0:0:0:
240,360,234259,2,0,B|144:320|136:216,1,160,4|10,0:0|0:0,0:0:0:0:
24,136,234925,2,0,B|40:48|144:8,1,160,0|10,0:0|0:0,0:0:0:0:
256,192,235592,12,4,236925,0:0:0:0:
352,272,238259,2,0,B|352:296|352:296|328:320|328:320|328:360,1,80,4|0,0:0|0:0,0:0:0:0:
256,384,238592,2,0,B|256:304,1,80,8|0,0:0|0:0,0:0:0:0:
184,343,238925,2,0,B|184:321|184:321|160:297|160:297|160:273,1,80
216,208,239259,2,0,B|296:208,1,80,8|0,0:0|0:0,0:0:0:0:
344,144,239592,2,0,B|336:80|336:80|304:64|304:64|297:5,1,160,0|8,0:0|0:0,0:0:0:0:
216,5,240092,2,0,B|208:64|208:64|176:80|176:80|168:144,1,160
104,88,240592,2,0,B|96:168,1,80,8|0,0:0|0:0,0:0:0:0:
24,136,240925,6,0,B|32:224,1,80
40,296,241259,1,8,0:0:0:0:
96,352,241425,1,0,0:0:0:0:
152,296,241592,2,0,B|208:352,2,80,0|0|8,0:0|0:0|0:0,0:0:0:0:
96,240,242092,1,0,0:0:0:0:
152,184,242259,2,0,B|208:153|208:153|184:97|215:62,1,160,0|8,0:0|0:0,0:0:0:0:
299,62,242759,2,0,B|329:97|305:153|305:153|360:184,1,160
296,232,243259,2,0,B|368:272,1,80,8|0,0:0|0:0,0:0:0:0:
440,304,243592,6,0,B|424:296|408:272|424:248|440:240,2,80,4|0|8,0:0|0:0|0:0,0:0:0:0:
512,272,244092,1,0,0:0:0:0:
512,192,244259,2,0,B|528:184|544:160|528:136|512:128,1,80
440,160,244592,1,8,0:0:0:0:
440,80,244759,1,0,0:0:0:0:
376,32,244925,2,0,B|352:88|296:80|296:80|296:152,1,160,0|8,0:0|0:0,0:0:0:0:
216,140,245425,2,0,B|216:80|216:80|160:88|136:32,1,160,0|0,0:0|0:0,0:0:0:0:
64,8,245925,2,0,B|80:16|96:40|80:64|64:72,1,80,8|0,0:0|0:0,0:0:0:0:
0,120,246259,6,0,B|56:176,1,80,4|0,0:0|0:0,0:0:0:0:
8,240,246592,2,0,B|96:256,1,80,8|0,0:0|0:0,0:0:0:0:
72,336,246925,2,0,B|152:312,1,80,0|0,0:0|0:0,0:0:0:0:
200,376,247259,2,0,B|232:288,1,80,8|0,0:0|0:0,0:0:0:0:
304,304,247592,6,0,B|264:224|320:144,1,160,0|8,0:0|0:0,0:0:0:0:
344,80,248092,2,0,B|320:160|224:176,1,160,0|8,0:0|0:0,0:0:0:0:
152,192,248592,1,8,0:0:0:0:
256,192,248759,12,0,252925,0:0:0:0:
