osu file format v12

[General]
AudioFilename: 01 - Senketsu no Chikai.mp3
AudioLeadIn: 0
PreviewTime: 130260
Countdown: 2
SampleSet: Soft
StackLeniency: 0.5
Mode: 0
LetterboxInBreaks: 0
EpilepsyWarning: 1

[Editor]
Bookmarks: 23593,44927,55593,87593,119593,184927,238260
DistanceSpacing: 1
BeatDivisor: 4
GridSize: 4

[Metadata]
Title:Senketsu no Chikai
TitleUnicode:鮮血の誓い
Artist:Yousei Teikoku
ArtistUnicode:妖精帝國
Creator:Saten
Version:Insanity
Source:Renkin Sankyuu Magical Pokaan
Tags:Magipoka Weez Weezy Mafiamaster Nekoo[] Saten-san Loctav
BeatmapID:142954
BeatmapSetID:27104

[Difficulty]
HPDrainRate:7
CircleSize:4
OverallDifficulty:7
ApproachRate:9
SliderMultiplier:2
SliderTickRate:2

[Events]
//Background and Video events
0,0,"BG01.jpg",0,0
Video,0,"Renkin San-kyuu Magical Pokaan OP.avi"
//Break Periods
2,98459,108325
//Storyboard Layer 0 (Background)
Sprite,Background,Centre,"BG01.jpg",320,240 M,0,130259,,320,240 S,0,130259,,0.625 F,0,130259,153592,1 F,0,153592,162259,0 F,0,162259,183592,1 F,0,183592,184925,1,0 F,0,184925,,0 F,0,184925,185009,0,0.06 F,0,185009,185592,0.06,0 F,0,185592,,0 F,0,185592,187592,0 F,0,187592,187675,0,0.08 F,0,187675,188259,0.08,0 F,0,188259,190259,0 F,0,190259,190342,0,0.1 F,0,190342,190925,0.1,0 F,0,190925,192925,0 F,0,192925,193009,0,0.12 F,0,193009,193592,0.12,0 F,0,193592,195592,0 F,0,195592,195675,0,0.14 F,0,195675,196259,0.14,0 F,0,196259,198259,0 F,0,198259,198342,0,0.16 F,0,198342,198925,0.16,0 F,0,198925,200925,0 F,0,200925,201592,0,0.18 F,0,201592,202259,0.18,0 F,0,202259,203592,0,1 F,0,203592,204925,1 F,0,203592,206259,0 F,0,204925,230259,1 F,0,206259,230259,0 F,0,230259,238259,0 F,0,238259,248592,1 F,0,248592,252925,1,0
Sprite,Background,Centre,"SB\01 uma.jpg",320,240 S,0,87592,,1.068327 M,0,87592,90259,320,509,320,-26
Sprite,Background,Centre,"SB\02 pachira.jpg",320,240 F,0,90259,,1 S,0,90259,,1.068327 M,0,90259,92925,320,-21,320,507
Sprite,Background,Centre,"SB\03 aiko.jpg",320,240 F,0,92925,,1 S,0,92925,,1.068328 M,0,92925,95592,320,507,320,-30
Sprite,Background,Centre,"SB\04 liru.jpg",320,240 F,0,95592,,1 S,0,95592,,1.068327 M,0,95592,96884,320,-27,320,227
//Storyboard Layer 1 (Fail)
//Storyboard Layer 2 (Pass)
//Storyboard Layer 3 (Foreground)
Sprite,Foreground,Centre,"SB\BG01P.jpg",320,240 F,0,203592,204259,1,0 S,0,203592,204259,0.8086832,1.013665 F,0,205009,205425,1 S,0,205009,205425,0.8496799 F,0,205425,205509,0 F,0,205509,205925,1 S,0,205509,205925,0.9316725 F,0,205925,206009,0 F,0,206009,206259,1 S,0,206009,206259,1
Sprite,Foreground,Centre,"SB\03 aiko.jpg",320,240 S,0,96925,,0.5490392 M,0,96925,97384,150,240
Sprite,Foreground,Centre,"SB\04 liru.jpg",320,240 S,0,96925,,0.5490391 M,0,96925,97384,479,240
Sprite,Foreground,Centre,"SB\02 pachira.jpg",320,240 S,0,97425,,0.5217083 M,0,97425,97884,352,240
Sprite,Foreground,Centre,"SB\03 aiko.jpg",320,240 S,0,97425,,0.5217083 M,0,97425,97884,99,240
Sprite,Foreground,Centre,"SB\04 liru.jpg",320,240 S,0,97425,,0.5217081 M,0,97425,97884,581,240
Sprite,Foreground,Centre,"SB\02 pachira.jpg",320,240 M,0,97925,,253,240 S,0,97925,,0.5080428 F,0,97925,98175,1 F,0,98175,98259,1,0
Sprite,Foreground,Centre,"SB\01 uma.jpg",320,240 M,0,97925,,485,240 S,0,97925,,0.5080426 F,0,97925,98175,1 F,0,98175,98259,1,0
Sprite,Foreground,Centre,"SB\03 aiko.jpg",320,240 M,0,97925,,26,240 S,0,97925,,0.5080429 F,0,97925,98175,1 F,0,98175,98259,1,0
Sprite,Foreground,Centre,"SB\04 liru.jpg",320,240 M,0,97925,,653,240 S,0,97925,,0.5080428 F,0,97925,98175,1 F,0,98175,98259,1,0
Sprite,Foreground,Centre,"SB\All.jpg",320,240 F,0,119592,129925,0.4670463 M,0,119592,130259,1097,240,-454,240 F,0,129925,130259,0.4670463,0
Sprite,Foreground,Centre,"SB\END\01.png",320,240 M,0,151592,152259,320,240,466,240 S,0,151592,152259,1.218648,0.7198576 F,0,151592,154925,1
Sprite,Foreground,Centre,"SB\END\02.png",320,240 M,0,152925,153592,320,240,173,240 S,0,152925,153592,1,0.7198576 F,0,152925,156259,1
Sprite,Foreground,Centre,"SB\END\03.png",320,240 M,0,154259,154925,320,240,467,240 S,0,154259,154925,1,0.7198578 F,0,154259,156925,1
Sprite,Foreground,Centre,"SB\END\04.png",320,240 M,0,155592,156259,320,240,173,240 S,0,155592,156259,1,0.7198576 F,0,155592,156925,1
Sprite,Foreground,Centre,"SB\BG01P.jpg",320,240 M,0,166259,,320,240 F,0,166259,167592,1,0 S,0,166259,167592,0.8086833,1.040997
Sprite,Foreground,Centre,"SB\BG01P.jpg",320,240 M,0,163592,,320,240 F,0,163592,164259,1,0 S,0,163592,164259,0.808683,1.136655
Sprite,Foreground,Centre,"SB\BG01P.jpg",320,240 F,0,166259,167592,1,0 S,0,166259,167592,0.8086832,0.6720284
Sprite,Foreground,Centre,"SB\BG01PG.jpg",320,240 M,0,168925,,320,240 S,0,168925,,0.8086832 F,0,168925,170259,1,0
Sprite,Foreground,Centre,"SB\991438.jpg",320,240 S,0,156924,,0.9385055 M,0,156924,162258,264,240,373,240
Sprite,Foreground,Centre,"SB\END\01.png",320,240 M,0,227592,228259,320,240,139,240 S,0,227592,228259,1,0.7130249 M,0,228259,230925,139,240
Sprite,Foreground,Centre,"SB\END\02.png",320,240 M,0,228925,229592,320,240,483,240 S,0,228925,229592,1,0.7130249 M,0,229592,232259,483,240
Sprite,Foreground,Centre,"SB\END\03.png",320,240 M,0,230259,230925,320,240,140,240 S,0,230259,230925,1,0.7130249 S,0,230925,,0.7130249 M,0,230925,232925,140,240
Sprite,Foreground,Centre,"SB\END\04.png",320,240 M,0,231592,232259,320,240,482,240 S,0,231592,232259,1,0.713025 M,0,232259,232925,482,240
Sprite,Foreground,Centre,"SB\BG.jpg",320,240 M,0,232925,238259,320,240 S,0,232925,238259,1,0.8086834
Sprite,Foreground,Centre,"SB\circle 2.jpg",320,240 S,0,98258,98424,0.8,0.9 F,0,98258,98924,0,1 R,0,98258,108924,6.778079,13.13253 S,0,98424,98591,0.9,0.8 S,0,98591,100924,0.8 F,0,98924,107591,1,0.5 S,0,100924,101091,0.8,0.9 S,0,101091,101258,0.9,0.8 S,0,101258,103591,0.8 S,0,103591,103758,0.8,0.9 S,0,103758,103924,0.9,0.8 S,0,103924,106258,0.8 S,0,106258,106424,0.8,0.9 S,0,106424,106591,0.9,0.8 F,0,107591,108924,0.5,0
Animation,Foreground,Centre,"SB\Animate\Frame00.png",320,240,64,19,LoopForever F,0,108759,108925,0,1 M,0,108925,,320,240 M,0,108925,118259,320,240 F,0,108925,118259,1 F,0,118259,119259,1,0.007507503
Sprite,Foreground,Centre,"SB\Circle.png",320,240 F,0,184592,184925,0,1 M,0,184925,,320,240 S,0,184925,,0.6037012 F,0,184925,200925,1 R,0,184925,202259,0,9.483844 F,0,200925,202259,1,0
Sprite,Foreground,Centre,"SB\White.jpg",320,240 M,0,87591,,320,240 S,0,87591,,2.065907 F,0,87591,87758,1,0 M,0,90258,,320,240 S,0,90258,,2.011245 F,0,90258,90425,1,0 M,0,92924,,320,240 S,0,92924,,2.052242 F,0,92924,93092,1,0 M,0,95591,,320,240 S,0,95591,,2.038576 F,0,95591,95758,1,0 S,0,130258,,2.024911 F,0,130258,130424,1,0 F,0,151592,151925,1,0 M,0,156924,,320,240 S,0,156924,,2.011245 F,0,156924,157258,1,0 S,0,162259,,2.011245 F,0,162259,162425,1,0 M,0,163592,,320,240 S,0,163592,,2.038576 F,0,163592,163759,1,0 S,0,166259,,2.011245 F,0,166259,166425,1,0 S,0,168925,,2.052242 F,0,168925,169092,1,0 S,0,203592,,2.024911 F,0,203592,203759,1,0 S,0,206259,,2.024911 F,0,206259,206425,1,0 M,0,227592,,320,240 S,0,227592,,2.024911 F,0,227592,227759,1,0 M,0,232925,,320,240 S,0,232925,,2.024911 F,0,232925,233092,1,0 F,0,238257,238424,1,0 S,0,238259,,2.052242
//Storyboard Sound Samples
//Background Colour Transformations
3,100,0,0,0

[TimingPoints]
926,333.333333333333,4,2,1,80,1,0
12925,-100,4,2,1,100,0,0
23592,-133.333333333333,4,2,1,70,0,0
34259,-100,4,2,1,80,0,0
44925,-200,4,2,1,100,0,0
55592,-100,4,2,1,100,0,1
84925,-100,4,2,1,100,0,0
98259,-133.333333333333,4,2,1,70,0,0
108925,-50,4,2,1,80,0,0
119592,-200,4,2,1,100,0,0
130259,-100,4,2,1,100,0,1
159592,-100,4,2,1,100,0,0
162259,-100,4,2,1,100,0,1
163592,-200,4,2,1,100,0,1
164592,-100,4,2,1,100,0,1
168925,-200,4,2,1,100,0,1
170259,-100,4,2,1,100,0,1
182259,-100,4,2,1,100,0,0
183592,-100,4,2,1,50,0,0
184259,-100,4,2,1,15,0,0
184925,-200,4,2,1,70,0,0
200925,-133.333333333333,4,2,1,80,0,0
203592,-133.333333333333,4,2,1,90,0,0
206259,-100,4,2,1,100,0,1
232592,-100,4,2,1,100,0,0
250258,-100,4,2,1,60,0,0
251258,-100,4,2,1,40,0,0
252258,-100,4,2,1,20,0,0
252925,-100,4,2,1,0,0,0

[Colours]
Combo1 : 255,255,102
Combo2 : 91,255,91
Combo3 : 255,108,182
Combo4 : 169,83,255

[HitObjects]
80,192,12425,1,0,0:0:0:0:
84,216,12509,1,0,0:0:0:0:
96,240,12592,1,0,0:0:0:0:
112,260,12675,1,0,0:0:0:0:
132,272,12759,1,0,0:0:0:0:
156,276,12842,1,0,0:0:0:0:
180,272,12925,6,0,B|228:244|224:188,1,100,4|0,0:0|0:0,0:0:0:0:
88,40,13259,2,0,B|36:60|20:108,1,100,8|0,0:0|0:0,0:0:0:0:
408,276,13592,2,0,B|456:252|460:196,1,100
408,112,13925,1,8,0:0:0:0:
256,192,14092,1,0,0:0:0:0:
156,88,14259,2,0,B|64:132,2,100,0|0|8,0:0|0:0|0:0,0:0:0:0:
356,296,14759,2,0,B|448:252,2,100
256,316,15259,6,0,B|200:312|168:276|152:224|180:168,1,200,8|0,0:0|0:0,0:0:0:0:
331,216,15759,1,0,0:0:0:0:
182,50,15925,1,8,0:0:0:0:
328,331,16092,1,0,0:0:0:0:
280,116,16259,1,0,0:0:0:0:
231,267,16425,1,0,0:0:0:0:
396,118,16592,1,8,0:0:0:0:
114,264,16759,1,0,0:0:0:0:
384,180,16925,6,0,B|416:220|404:276,1,100
404,274,17175,1,0,0:0:0:0:
404,274,17259,1,8,0:0:0:0:
128,204,17425,6,0,B|96:164|108:108,1,100
107,109,17675,1,0,0:0:0:0:
107,109,17759,1,0,0:0:0:0:
184,44,17925,2,0,B|240:52|280:88|288:140|256:192,1,200,8|4,0:0|0:0,0:0:0:0:
180,256,18425,5,0,0:0:0:0:
256,191,18592,1,8,0:0:0:0:
256,340,18759,1,0,0:0:0:0:
256,191,18925,1,0,0:0:0:0:
380,348,19092,1,0,0:0:0:0:
256,191,19259,1,8,0:0:0:0:
488,284,19425,1,0,0:0:0:0:
256,191,19592,6,0,B|204:172|176:124,1,100
179,129,19842,1,0,0:0:0:0:
179,129,19925,1,8,0:0:0:0:
256,64,20092,2,0,B|308:52|360:64|396:104|404:160,1,200
179,260,20592,2,0,B|172:192|204:160|248:136|304:152,1,200,8|0,0:0|0:0,0:0:0:0:
364,236,21092,5,0,0:0:0:0:
40,20,21259,1,8,0:0:0:0:
256,280,21425,1,0,0:0:0:0:
148,64,21592,1,0,0:0:0:0:
148,320,21759,1,0,0:0:0:0:
256,104,21926,1,8,0:0:0:0:
40,364,22092,1,0,0:0:0:0:
364,148,22259,5,12,0:0:0:0:
256,300,22759,1,8,0:0:0:0:
256,280,23259,1,8,0:0:0:0:
256,260,23592,6,0,B|256:220|240:184|204:164|160:168,1,149.999995529652,4|2,0:0|0:0,0:0:0:0:
16,140,24259,1,0,0:0:0:0:
64,64,24425,1,0,0:0:0:0:
152,40,24592,1,2,0:0:0:0:
256,184,24925,2,0,B|256:260,2,74.9999977648259,0|0|2,0:0|0:0|0:0,0:0:0:0:
304,108,25425,2,0,B|348:104|384:112|408:144|416:184,1,150.000005722046
415,183,25925,1,2,0:0:0:0:
256,268,26259,6,0,B|216:288|180:284|144:256|136:220,1,149.999995529652,0|2,0:0|0:0,0:0:0:0:
256,84,26925,1,0,0:0:0:0:
176,40,27092,1,0,0:0:0:0:
84,40,27259,1,2,0:0:0:0:
32,212,27592,5,0,0:0:0:0:
108,260,27759,1,0,0:0:0:0:
192,232,27925,1,2,0:0:0:0:
204,144,28092,1,0,0:0:0:0:
128,92,28259,2,0,B|100:128|116:164,1,74.9999977648259
280,192,28592,2,0,B|308:156|292:120,1,74.9999977648259,2|0,0:0|0:0,0:0:0:0:
192,232,28925,6,0,B|200:272|228:300|272:304|308:292,1,150.000005722046,0|2,0:0|0:0,0:0:0:0:
456,192,29592,1,0,0:0:0:0:
388,132,29759,1,0,0:0:0:0:
320,192,29925,2,0,B|277:204|240:189|218:158|215:117,1,149.999995529652,2|0,0:0|0:0,0:0:0:0:
256,36,30425,1,0,0:0:0:0:
168,52,30592,1,2,0:0:0:0:
108,120,30759,1,0,0:0:0:0:
112,208,30925,2,0,B|120:244|152:272,1,74.9999977648259
236,144,31259,6,0,B|212:108|180:92|132:92|108:120,1,149.999995529652,2|0,0:0|0:0,0:0:0:0:
112,208,31759,1,0,0:0:0:0:
196,244,31925,2,0,B|272:236,1,74.9999977648259,2|0,0:0|0:0,0:0:0:0:
472,280,32259,2,0,B|396:288,1,74.9999977648259
348,132,32592,6,0,B|360:96|392:68|432:60|472:68,1,149.999995529652,2|0,0:0|0:0,0:0:0:0:
469,67,33092,1,0,0:0:0:0:
469,67,33259,1,2,0:0:0:0:
468,68,33425,1,0,0:0:0:0:
256,312,33759,1,0,0:0:0:0:
176,268,33925,1,2,0:0:0:0:
140,184,34092,1,0,0:0:0:0:
160,88,34259,6,0,B|256:60,1,100,4|0,0:0|0:0,0:0:0:0:
352,176,34592,2,0,B|256:204,1,100,2|0,0:0|0:0,0:0:0:0:
160,228,34925,1,0,0:0:0:0:
64,192,35092,1,0,0:0:0:0:
40,96,35259,1,2,0:0:0:0:
104,20,35425,1,0,0:0:0:0:
204,24,35592,6,0,B|204:124,1,100,0|2,0:0|0:0,0:0:0:0:
308,360,35925,2,0,B|308:260,1,100
256,176,36259,1,2,0:0:0:0:
156,176,36425,1,0,0:0:0:0:
96,256,36592,1,2,0:0:0:0:
132,348,36759,1,0,0:0:0:0:
232,352,36925,6,0,B|316:296,1,100,2|0,0:0|0:0,0:0:0:0:
392,164,37259,2,0,B|308:220,1,100
208,228,37592,1,2,0:0:0:0:
112,200,37759,1,0,0:0:0:0:
84,104,37925,1,0,0:0:0:0:
144,24,38092,1,0,0:0:0:0:
244,28,38259,6,0,B|292:52|304:104,1,100,2|0,0:0|0:0,0:0:0:0:
92,280,38592,2,0,B|44:256|32:204,1,100,0|2,0:0|0:0,0:0:0:0:
112,144,38925,1,0,0:0:0:0:
200,192,39092,1,2,0:0:0:0:
296,172,39259,1,0,0:0:0:0:
396,180,39425,1,0,0:0:0:0:
444,268,39592,6,0,B|472:364,2,100,2|0|0,0:0|0:0|0:0,0:0:0:0:
148,216,40092,6,0,B|176:312,2,100,2|0|0,0:0|0:0|0:0,0:0:0:0:
296,240,40592,6,0,B|324:336,2,100,2|0|0,0:0|0:0|0:0,0:0:0:0:
0,188,41092,6,0,B|28:284,2,100,2|0|0,0:0|0:0|0:0,0:0:0:0:
28,92,41592,1,2,0:0:0:0:
116,44,41759,1,0,0:0:0:0:
216,32,41925,6,0,B|416:32,1,200,2|2,0:0|0:0,0:0:0:0:
444,128,42425,1,0,0:0:0:0:
380,204,42592,1,2,0:0:0:0:
340,112,42759,5,0,0:0:0:0:
280,192,42925,1,0,0:0:0:0:
320,284,43092,1,2,0:0:0:0:
380,204,43259,5,0,0:0:0:0:
420,296,43425,1,0,0:0:0:0:
360,376,43592,1,2,0:0:0:0:
256,344,43759,1,0,0:0:0:0:
152,376,43925,1,0,0:0:0:0:
52,332,44092,1,2,0:0:0:0:
60,232,44259,5,0,0:0:0:0:
60,232,44342,1,2,0:0:0:0:
60,232,44425,1,0,0:0:0:0:
124,156,44592,2,0,B|184:104|216:132|252:164|312:104,1,200,2|4,0:0|0:0,0:0:0:0:
120,40,45259,5,0,0:0:0:0:
60,232,45592,1,8,0:0:0:0:
60,232,45759,1,0,0:0:0:0:
256,280,46092,5,0,0:0:0:0:
256,280,46259,2,0,B|448:220,1,200,0|8,0:0|0:0,0:0:0:0:
324,64,47259,5,0,0:0:0:0:
144,128,47592,1,0,0:0:0:0:
324,192,47925,1,0,0:0:0:0:
144,260,48259,5,8,0:0:0:0:
236,296,48425,1,0,0:0:0:0:
332,328,48592,1,0,0:0:0:0:
280,244,48759,1,0,0:0:0:0:
228,160,48925,5,2,0:0:0:0:
324,192,49092,1,0,0:0:0:0:
420,224,49259,1,2,0:0:0:0:
368,140,49425,1,0,0:0:0:0:
316,56,49592,5,8,0:0:0:0:
412,88,49759,1,2,0:0:0:0:
508,120,49925,1,0,0:0:0:0:
508,120,50009,1,0,0:0:0:0:
508,120,50092,1,0,0:0:0:0:
504,220,50259,6,0,B|500:268|456:304|396:308|344:280,1,200,4|8,0:0|0:0,0:0:0:0:
256,236,51092,1,0,0:0:0:0:
256,36,51425,5,0,0:0:0:0:
256,36,51592,2,0,B|208:32|156:48|120:96|120:152,1,200,0|8,0:0|0:0,0:0:0:0:
212,192,52425,1,0,0:0:0:0:
412,192,52759,5,0,0:0:0:0:
412,192,52925,2,0,B|424:240|404:296|352:324|300:328,1,200,4|8,0:0|0:0,0:0:0:0:
256,236,53759,1,0,0:0:0:0:
164,196,53925,1,0,0:0:0:0:
64,208,54092,1,0,0:0:0:0:
20,116,54259,5,4,0:0:0:0:
96,48,54425,1,0,0:0:0:0:
196,56,54592,1,2,0:0:0:0:
256,136,54759,1,0,0:0:0:0:
256,236,54925,5,4,0:0:0:0:
300,328,55092,1,0,0:0:0:0:
400,344,55259,1,2,0:0:0:0:
424,336,55342,1,0,0:0:0:0:
444,320,55425,1,0,0:0:0:0:
456,296,55509,1,0,0:0:0:0:
460,272,55592,6,0,B|460:172,1,100,4|0,0:0|0:0,0:0:0:0:
256,136,55925,2,0,B|256:236,1,100,8|0,0:0|0:0,0:0:0:0:
52,272,56259,2,0,B|52:172,1,100,0|0,0:0|0:0,0:0:0:0:
256,36,56592,2,0,B|256:136,1,100,8|0,0:0|0:0,0:0:0:0:
228,224,56925,5,0,0:0:0:0:
128,236,57092,1,0,0:0:0:0:
52,172,57259,2,0,B|56:72,1,100,8|0,0:0|0:0,0:0:0:0:
256,36,57592,2,0,B|336:96,1,100
368,296,57925,2,0,B|320:332|264:320|224:276|228:224,2,200,8|0|8,0:0|0:0|0:0,0:0:0:0:
48,52,58925,5,0,0:0:0:0:
20,148,59092,1,0,0:0:0:0:
80,228,59259,1,8,0:0:0:0:
180,236,59425,1,0,0:0:0:0:
256,172,59592,2,0,B|308:180|348:216|364:268|348:324,1,200,0|8,0:0|0:0,0:0:0:0:
91,328,60092,2,0,B|104:276|156:248|208:244|256:268,1,200
192,344,60592,6,0,B|139:331|111:279|107:227|131:179,2,200,8|4|8,0:0|0:0|0:0,0:0:0:0:
452,192,61592,2,0,B|408:104,1,100
256,88,61925,2,0,B|168:132,1,100,8|0,0:0|0:0,0:0:0:0:
124,224,62259,1,0,0:0:0:0:
180,304,62425,1,0,0:0:0:0:
280,316,62592,6,0,B|336:248|304:224|268:200|320:132,1,200,8|0,0:0|0:0,0:0:0:0:
400,192,63092,1,0,0:0:0:0:
304,224,63259,1,8,0:0:0:0:
208,192,63425,1,0,0:0:0:0:
164,100,63592,6,0,B|184:52|236:32,1,100,4|0,0:0|0:0,0:0:0:0:
366,113,63925,2,0,B|328:160|280:156,1,100,8|0,0:0|0:0,0:0:0:0:
84,103,64259,2,0,B|96:152|152:172,1,100
248,200,64592,1,8,0:0:0:0:
268,300,64759,1,0,0:0:0:0:
188,360,64925,6,0,B|104:304,1,100
424,260,65259,2,0,B|368:344,1,100,8|0,0:0|0:0,0:0:0:0:
324,24,65592,2,0,B|408:80,1,100
88,124,65926,2,0,B|144:40,1,100,8|0,0:0|0:0,0:0:0:0:
256,68,66259,5,4,0:0:0:0:
320,256,66425,1,0,0:0:0:0:
156,140,66592,1,8,0:0:0:0:
356,140,66759,1,0,0:0:0:0:
192,256,66925,5,0,0:0:0:0:
256,12,67092,1,0,0:0:0:0:
340,300,67259,1,8,0:0:0:0:
104,120,67425,1,0,0:0:0:0:
408,120,67592,5,0,0:0:0:0:
172,300,67759,1,0,0:0:0:0:
164,200,67925,1,8,0:0:0:0:
256,156,68092,2,0,B|312:160|356:200|364:260|340:300,1,200
172,301,68592,6,0,B|148:260|156:200|200:160|256:156,1,200,8|4,0:0|0:0,0:0:0:0:
256,292,69092,1,0,0:0:0:0:
256,92,69259,1,8,0:0:0:0:
326,262,69425,1,0,0:0:0:0:
185,121,69592,1,0,0:0:0:0:
356,192,69759,1,0,0:0:0:0:
155,192,69926,1,8,0:0:0:0:
256,192,70259,5,4,0:0:0:0:
76,192,70425,1,0,0:0:0:0:
435,192,70592,1,8,0:0:0:0:
128,64,70759,1,0,0:0:0:0:
383,319,70925,1,0,0:0:0:0:
256,12,71092,1,0,0:0:0:0:
256,371,71259,1,8,0:0:0:0:
256,192,71592,6,0,B|265:136|293:90|355:81|403:101,1,200,4|8,0:0|0:0,0:0:0:0:
360,192,72092,1,0,0:0:0:0:
256,192,72259,6,0,B|200:182|154:154|145:92|165:44,1,200,0|8,0:0|0:0,0:0:0:0:
256,88,72759,1,0,0:0:0:0:
256,192,72925,6,0,B|246:247|218:293|156:302|108:282,1,200,0|8,0:0|0:0,0:0:0:0:
152,192,73425,1,0,0:0:0:0:
256,192,73592,6,0,B|311:201|357:229|366:291|346:339,1,200,0|8,0:0|0:0,0:0:0:0:
256,296,74092,1,0,0:0:0:0:
256,192,74259,6,0,B|236:160|236:160|280:144|280:144|236:116|236:116|292:88|292:88|232:56|232:56|256:36,2,300,4|0|8,0:0|0:0|0:0,0:0:0:0:
256,192,75592,6,0,B|216:228|152:220|108:184|108:128,1,200,4|8,0:0|0:0,0:0:0:0:
351,8,76092,2,0,B|344:64|308:104|256:124|208:116,1,200,4|0,0:0|0:0,0:0:0:0:
208,116,76592,1,4,0:0:0:0:
136,44,76759,1,0,0:0:0:0:
44,80,76925,6,0,B|8:112|0:168,1,100,4|0,0:0|0:0,0:0:0:0:
452,288,77259,2,0,B|468:235|444:191,1,100,8|0,0:0|0:0,0:0:0:0:
16,244,77592,2,0,B|-4:288|24:344,1,100
264,296,77925,2,0,B|267:240|231:204,1,100,8|0,0:0|0:0,0:0:0:0:
160,276,78259,5,4,0:0:0:0:
184,372,78425,1,0,0:0:0:0:
284,380,78592,1,8,0:0:0:0:
352,308,78759,1,0,0:0:0:0:
352,208,78925,2,0,B|352:108,1,100
160,176,79259,2,0,B|160:276,1,100,8|0,0:0|0:0,0:0:0:0:
256,252,79592,5,4,0:0:0:0:
256,116,79759,1,0,0:0:0:0:
256,252,79925,1,8,0:0:0:0:
142,48,80092,1,0,0:0:0:0:
256,252,80259,1,0,0:0:0:0:
14,18,80425,1,0,0:0:0:0:
256,252,80592,6,0,B|244:300|188:328|128:324|88:292,2,200,8|4|8,0:0|0:0|0:0,0:0:0:0:
256,252,81425,2,0,B|268:300|324:328|384:324|424:292,1,200,4|0,0:0|0:0,0:0:0:0:
344,224,81925,2,0,B|308:184|256:168|204:184|168:224,1,200,8|4,0:0|0:0,0:0:0:0:
88,292,82425,5,0,0:0:0:0:
16,224,82592,1,8,0:0:0:0:
32,124,82759,2,0,B|120:80,2,100
104,192,83259,6,0,B|148:216|208:208|248:172|256:116,1,200,8|4,0:0|0:0,0:0:0:0:
256,16,83759,1,0,0:0:0:0:
255,115,83925,2,0,B|264:172|304:208|364:216|408:192,1,200,8|0,0:0|0:0,0:0:0:0:
488,132,84425,1,0,0:0:0:0:
428,52,84592,1,8,0:0:0:0:
328,44,84759,1,0,0:0:0:0:
256,116,84925,5,4,0:0:0:0:
256,220,85092,1,0,0:0:0:0:
256,116,85259,1,8,0:0:0:0:
332,264,85425,1,0,0:0:0:0:
256,116,85592,1,0,0:0:0:0:
419,278,85759,1,0,0:0:0:0:
256,116,85925,1,8,0:0:0:0:
505,264,86092,1,0,0:0:0:0:
256,116,86259,5,4,0:0:0:0:
6,264,86425,1,0,0:0:0:0:
256,116,86592,1,8,0:0:0:0:
92,278,86759,1,0,0:0:0:0:
256,116,86925,1,0,0:0:0:0:
179,264,87092,1,0,0:0:0:0:
256,116,87259,1,8,0:0:0:0:
256,220,87425,1,8,0:0:0:0:
256,116,87592,6,0,B|240:64|192:44,1,100,4|0,0:0|0:0,0:0:0:0:
63,195,87925,2,0,B|120:216|159:192,1,100,8|0,0:0|0:0,0:0:0:0:
448,188,88259,2,0,B|392:168|352:191,1,100
256,268,88592,2,0,B|272:320|320:340,1,100,8|0,0:0|0:0,0:0:0:0:
420,348,88925,5,0,0:0:0:0:
360,268,89092,1,0,0:0:0:0:
360,268,89175,1,0,0:0:0:0:
360,268,89259,1,8,0:0:0:0:
284,204,89425,2,0,B|244:176|224:120|240:64|284:32,1,200
352,104,89925,6,0,B|324:144|268:164|212:148|180:104,1,200,8|0,0:0|0:0,0:0:0:0:
96,48,90425,1,0,0:0:0:0:
416,336,90592,1,8,0:0:0:0:
256,192,90759,1,0,0:0:0:0:
84,260,90925,2,0,B|180:284,1,100
428,260,91259,2,0,B|332:284,1,100,8|0,0:0|0:0,0:0:0:0:
256,192,91592,6,0,B|224:140|244:84|296:60|352:76,1,200,0|8,0:0|0:0,0:0:0:0:
256,192,92092,6,0,B|226:245|168:256|121:223|107:166,1,200
256,192,92592,6,0,B|317:190|355:235|350:292|308:333,1,200,8|4,0:0|0:0,0:0:0:0:
216,368,93092,5,0,0:0:0:0:
296,16,93259,1,8,0:0:0:0:
103,288,93425,1,0,0:0:0:0:
408,95,93592,1,0,0:0:0:0:
80,151,93759,1,0,0:0:0:0:
432,231,93926,1,8,0:0:0:0:
256,192,94092,1,0,0:0:0:0:
128,136,94259,6,0,B|168:44,1,100
168,44,94509,1,0,0:0:0:0:
168,44,94592,1,8,0:0:0:0:
256,92,94759,2,0,B|256:192,1,100
256,192,95009,1,8,0:0:0:0:
256,192,95092,1,8,0:0:0:0:
256,292,95259,6,0,B|304:312|360:312|400:280|420:228,1,200,8|0,0:0|0:0,0:0:0:0:
404,64,95759,1,0,0:0:0:0:
328,220,95925,1,8,0:0:0:0:
256,92,96092,1,0,0:0:0:0:
184,220,96259,1,0,0:0:0:0:
108,64,96425,1,0,0:0:0:0:
92,227,96592,5,8,0:0:0:0:
256,292,96759,1,0,0:0:0:0:
421,227,96925,1,12,0:0:0:0:
48,156,97425,1,8,0:0:0:0:
464,156,97925,1,8,0:0:0:0:
256,48,98259,5,4,0:0:0:0:
338,192,108925,5,4,0:0:0:0:
173,192,109092,1,0,0:0:0:0:
314,250,109259,1,0,0:0:0:0:
198,134,109425,1,0,0:0:0:0:
256,274,109592,1,2,0:0:0:0:
256,109,109759,1,0,0:0:0:0:
198,250,109925,1,0,0:0:0:0:
314,134,110092,1,0,0:0:0:0:
144,192,110259,5,2,0:0:0:0:
368,192,110425,1,0,0:0:0:0:
177,113,110592,1,0,0:0:0:0:
335,271,110759,1,2,0:0:0:0:
256,80,110925,1,0,0:0:0:0:
256,304,111092,1,0,0:0:0:0:
335,113,111259,1,2,0:0:0:0:
177,271,111425,1,0,0:0:0:0:
400,192,111592,5,2,0:0:0:0:
109,192,111759,1,0,0:0:0:0:
357,293,111925,1,0,0:0:0:0:
152,88,112092,1,2,0:0:0:0:
256,336,112259,1,0,0:0:0:0:
256,45,112425,1,0,0:0:0:0:
152,293,112592,1,2,0:0:0:0:
357,88,112759,1,0,0:0:0:0:
82,192,112925,5,2,0:0:0:0:
430,192,113092,1,0,0:0:0:0:
133,69,113259,1,0,0:0:0:0:
380,316,113425,1,2,0:0:0:0:
256,18,113592,1,0,0:0:0:0:
256,366,113759,1,0,0:0:0:0:
380,69,113925,1,2,0:0:0:0:
133,316,114092,1,0,0:0:0:0:
256,68,114259,5,2,0:0:0:0:
335,311,114425,1,0,0:0:0:0:
127,166,114592,1,0,0:0:0:0:
383,166,114759,1,0,0:0:0:0:
176,311,114925,5,2,0:0:0:0:
256,43,115092,1,0,0:0:0:0:
351,333,115259,1,0,0:0:0:0:
102,159,115425,1,0,0:0:0:0:
409,159,115592,5,2,0:0:0:0:
159,333,115759,1,0,0:0:0:0:
256,22,115925,1,0,0:0:0:0:
364,356,116092,1,2,0:0:0:0:
79,155,116259,1,0,0:0:0:0:
430,155,116425,1,0,0:0:0:0:
146,356,116592,1,2,0:0:0:0:
146,356,116925,5,2,0:0:0:0:
430,155,117091,1,0,0:0:0:0:
79,155,117258,1,0,0:0:0:0:
364,356,117425,1,2,0:0:0:0:
256,22,117591,5,0,0:0:0:0:
118,333,117759,1,2,0:0:0:0:
434,186,117925,1,0,0:0:0:0:
88,125,118092,1,0,0:0:0:0:
335,372,118259,5,2,0:0:0:0:
283,24,118425,1,0,0:0:0:0:
96,308,118592,1,2,0:0:0:0:
431,218,118759,1,2,0:0:0:0:
100,96,118925,1,0,0:0:0:0:
302,383,119092,1,2,0:0:0:0:
312,32,119258,1,0,0:0:0:0:
256,192,119592,6,0,B|200:212|152:192|120:144|132:88,1,200,4|8,0:0|0:0,0:0:0:0:
131,88,120425,1,0,0:0:0:0:
324,36,120759,5,0,0:0:0:0:
324,36,120925,2,0,B|372:48|412:96|408:148|364:192,1,200,0|8,0:0|0:0,0:0:0:0:
164,192,121925,5,0,0:0:0:0:
256,368,122259,1,0,0:0:0:0:
232,168,122592,1,0,0:0:0:0:
64,60,122925,5,8,0:0:0:0:
64,60,123092,2,0,B|32:104|40:156,1,100
116,216,123592,5,2,0:0:0:0:
136,228,123675,1,0,0:0:0:0:
160,236,123759,1,0,0:0:0:0:
184,240,123842,1,0,0:0:0:0:
208,240,123925,1,2,0:0:0:0:
232,232,124009,1,0,0:0:0:0:
252,216,124092,1,0,0:0:0:0:
264,192,124175,1,0,0:0:0:0:
268,168,124259,5,8,0:0:0:0:
256,144,124342,1,0,0:0:0:0:
236,132,124425,1,2,0:0:0:0:
212,128,124509,1,0,0:0:0:0:
188,120,124592,1,2,0:0:0:0:
168,104,124675,1,0,0:0:0:0:
160,80,124759,1,0,0:0:0:0:
164,56,124842,1,0,0:0:0:0:
180,36,124925,6,0,B|380:36,1,200,4|8,0:0|0:0,0:0:0:0:
380,36,125759,1,0,0:0:0:0:
480,208,126092,5,0,0:0:0:0:
480,208,126259,2,0,B|460:256|416:284|360:280|312:240,1,200,0|8,0:0|0:0,0:0:0:0:
313,241,127092,1,0,0:0:0:0:
92,40,127592,6,0,B|52:76|40:124|48:176|104:208,1,200,4|8,0:0|0:0,0:0:0:0:
204,216,128425,1,0,0:0:0:0:
288,160,128592,1,0,0:0:0:0:
276,60,128759,1,0,0:0:0:0:
188,16,128925,6,0,B|92:40,1,100,4|0,0:0|0:0,0:0:0:0:
24,228,129592,1,4,0:0:0:0:
92,304,129759,1,0,0:0:0:0:
188,324,129925,1,0,0:0:0:0:
212,316,130009,1,0,0:0:0:0:
232,300,130092,1,0,0:0:0:0:
244,276,130175,1,0,0:0:0:0:
244,252,130259,6,0,B|240:200|196:168,1,100,4|0,0:0|0:0,0:0:0:0:
68,180,130592,2,0,B|88:236|136:248,1,100,8|0,0:0|0:0,0:0:0:0:
312,192,130925,1,0,0:0:0:0:
304,92,131092,1,0,0:0:0:0:
216,44,131259,2,0,B|164:48|116:88|116:140|140:192,1,200,8|0,0:0|0:0,0:0:0:0:
236,156,131759,5,0,0:0:0:0:
336,140,131925,1,8,0:0:0:0:
412,204,132092,2,0,B|424:256|416:308|376:344|316:352,1,200
256,276,132592,2,0,B|256:76,2,200,8|0|8,0:0|0:0|0:0,0:0:0:0:
76,192,133592,5,0,0:0:0:0:
116,100,133759,1,0,0:0:0:0:
200,48,133925,2,0,B|400:48,1,200,8|0,0:0|0:0,0:0:0:0:
460,128,134425,1,0,0:0:0:0:
400,208,134592,1,8,0:0:0:0:
320,268,134759,2,0,B|264:268|220:248|192:200|200:144,1,200
311,142,135259,2,0,B|320:200|292:248|248:268|192:268,2,200,8|4|8,0:0|0:0|0:0,0:0:0:0:
120,200,136259,5,0,0:0:0:0:
48,132,136425,1,0,0:0:0:0:
192,268,136592,2,0,B|292:268,1,100,8|0,0:0|0:0,0:0:0:0:
228,80,136925,2,0,B|128:80,1,100
304,180,137259,6,0,B|344:208|404:200|448:168|460:108,1,200,8|0,0:0|0:0,0:0:0:0:
412,20,137759,1,0,0:0:0:0:
312,24,137925,1,8,0:0:0:0:
228,80,138092,1,0,0:0:0:0:
212,180,138259,6,0,B|216:232|268:256,1,100,4|0,0:0|0:0,0:0:0:0:
136,324,138592,2,0,B|88:312|64:256,1,100,8|0,0:0|0:0,0:0:0:0:
52,160,138925,1,0,0:0:0:0:
128,96,139092,1,0,0:0:0:0:
228,80,139259,6,0,B|428:80,1,200,8|0,0:0|0:0,0:0:0:0:
472,168,139759,1,0,0:0:0:0:
412,248,139925,1,8,0:0:0:0:
372,156,140092,5,0,0:0:0:0:
312,236,140259,1,0,0:0:0:0:
348,328,140425,1,0,0:0:0:0:
412,248,140592,6,0,B|398:194|359:153|303:146|256:164,1,200,8|4,0:0|0:0,0:0:0:0:
256,264,141092,1,0,0:0:0:0:
256,120,141259,1,8,0:0:0:0:
256,308,141425,1,0,0:0:0:0:
256,76,141592,2,0,B|208:56|156:68,1,100
100,148,141925,2,0,B|112:200|160:236|216:232|256:192,1,200,8|0,0:0|0:0,0:0:0:0:
256,76,142425,5,0,0:0:0:0:
256,308,142592,1,8,0:0:0:0:
173,109,142759,1,0,0:0:0:0:
338,274,142926,1,0,0:0:0:0:
139,192,143092,1,0,0:0:0:0:
372,192,143259,1,8,0:0:0:0:
173,274,143592,5,4,0:0:0:0:
256,76,143759,1,0,0:0:0:0:
338,274,143925,1,8,0:0:0:0:
160,258,144092,5,0,0:0:0:0:
276,77,144259,1,0,0:0:0:0:
322,286,144425,1,0,0:0:0:0:
149,240,144592,6,0,B|154:182|188:141|246:130|295:149,1,200,8|0,0:0|0:0,0:0:0:0:
256,287,145092,1,0,0:0:0:0:
293,149,145259,1,8,0:0:0:0:
144,343,145425,1,0,0:0:0:0:
293,149,145592,1,0,0:0:0:0:
24,368,145759,1,0,0:0:0:0:
293,149,145925,6,0,B|328:116|384:100|440:120|468:168,1,200,8|4,0:0|0:0,0:0:0:0:
460,268,146425,1,0,0:0:0:0:
380,332,146592,1,8,0:0:0:0:
280,320,146759,1,0,0:0:0:0:
256,224,146925,2,0,B|256:124,1,100
112,172,147259,2,0,B|116:272,1,100,8|0,0:0|0:0,0:0:0:0:
396,271,147592,6,0,B|428:228|424:172|388:128|336:112,1,200,0|8,0:0|0:0,0:0:0:0:
256,172,148092,1,0,0:0:0:0:
175,112,148259,2,0,B|124:128|88:172|84:228|115:271,1,200,0|8,0:0|0:0,0:0:0:0:
204,316,148759,1,0,0:0:0:0:
292,272,148925,5,4,0:0:0:0:
188,36,149092,1,0,0:0:0:0:
328,178,149259,1,8,0:0:0:0:
93,67,149425,1,0,0:0:0:0:
76,268,149592,2,0,B|176:248,1,100
308,100,149925,2,0,B|208:116,1,100,8|0,0:0|0:0,0:0:0:0:
204,316,150259,6,0,B|244:352|300:356|352:336|380:288,1,200,4|8,0:0|0:0,0:0:0:0:
308,100,150759,2,0,B|250:116|226:164|234:220|290:252,1,200,4|0,0:0|0:0,0:0:0:0:
380,292,151259,1,4,0:0:0:0:
444,216,151425,1,0,0:0:0:0:
428,116,151592,5,4,0:0:0:0:
160,51,151759,1,0,0:0:0:0:
351,51,151925,1,8,0:0:0:0:
84,116,152092,1,0,0:0:0:0:
256,88,152259,5,0,0:0:0:0:
188,276,152425,1,0,0:0:0:0:
356,168,152592,1,8,0:0:0:0:
156,168,152759,1,0,0:0:0:0:
324,276,152925,1,4,0:0:0:0:
256,35,153092,5,0,0:0:0:0:
154,318,153258,1,8,0:0:0:0:
406,156,153425,1,0,0:0:0:0:
105,156,153592,1,0,0:0:0:0:
358,318,153758,1,0,0:0:0:0:
256,192,153925,6,0,B|244:156|244:156|272:136|272:136|236:112|236:112|256:84|256:84|256:36,1,200,8|4,0:0|0:0,0:0:0:0:
256,349,154425,1,0,0:0:0:0:
112,80,154592,1,8,0:0:0:0:
400,304,154759,1,0,0:0:0:0:
106,156,154925,2,0,B|92:208|120:252,1,100
407,156,155259,2,0,B|372:112|320:108,1,100,8|0,0:0|0:0,0:0:0:0:
358,318,155592,6,0,B|408:328|460:304|484:256|480:196,1,200,4|8,0:0|0:0,0:0:0:0:
239,49,156092,2,0,B|220:100|232:156|276:192|328:196,1,200,4|0,0:0|0:0,0:0:0:0:
512,115,156592,2,0,B|508:60|464:28|412:24|360:48,1,200,8|4,0:0|0:0,0:0:0:0:
155,335,157092,5,0,0:0:0:0:
428,162,157259,1,8,0:0:0:0:
83,221,157425,1,0,0:0:0:0:
398,293,157592,1,0,0:0:0:0:
113,90,157759,1,0,0:0:0:0:
399,89,157925,6,0,B|342:113|329:158|320:202|256:224,1,200,8|4,0:0|0:0,0:0:0:0:
256,124,158425,1,0,0:0:0:0:
112,89,158592,2,0,B|169:113|182:158|191:202|256:224,1,200,8|0,0:0|0:0,0:0:0:0:
188,300,159092,1,0,0:0:0:0:
116,232,159259,1,8,0:0:0:0:
128,132,159425,1,0,0:0:0:0:
207,73,159592,6,0,B|307:73,1,100,4|0,0:0|0:0,0:0:0:0:
305,311,159925,2,0,B|205:311,1,100,8|0,0:0|0:0,0:0:0:0:
140,232,160259,1,0,0:0:0:0:
208,156,160425,1,0,0:0:0:0:
304,156,160592,1,8,0:0:0:0:
372,232,160759,1,0,0:0:0:0:
388,332,160925,5,4,0:0:0:0:
124,52,161092,1,0,0:0:0:0:
444,192,161259,1,8,0:0:0:0:
68,192,161426,1,0,0:0:0:0:
256,192,161592,5,0,0:0:0:0:
256,192,161675,1,8,0:0:0:0:
256,192,161759,1,0,0:0:0:0:
184,264,161925,1,8,0:0:0:0:
84,264,162092,1,0,0:0:0:0:
16,192,162259,6,0,B|12:144|48:100,1,100,4|0,0:0|0:0,0:0:0:0:
496,192,162592,2,0,B|500:240|464:284,1,100,8|0,0:0|0:0,0:0:0:0:
168,364,162925,1,0,0:0:0:0:
344,364,163092,1,0,0:0:0:0:
84,192,163259,1,8,0:0:0:0:
428,192,163425,1,0,0:0:0:0:
256,140,163592,6,2,B|276:84|336:72|384:92|440:116|500:80|508:28,1,300,4|2,0:0|0:0,0:0:0:0:
256,28,164925,5,4,0:0:0:0:
104,292,165092,1,0,0:0:0:0:
408,292,165259,1,8,0:0:0:0:
371,76,165425,1,0,0:0:0:0:
77,155,165592,1,0,0:0:0:0:
292,370,165759,1,0,0:0:0:0:
420,192,165925,1,8,0:0:0:0:
156,40,166092,1,0,0:0:0:0:
40,244,166259,5,4,0:0:0:0:
48,268,166342,1,0,0:0:0:0:
64,288,166425,1,0,0:0:0:0:
88,296,166509,1,0,0:0:0:0:
112,304,166592,5,2,0:0:0:0:
136,300,166675,1,0,0:0:0:0:
156,284,166759,1,0,0:0:0:0:
172,264,166842,1,0,0:0:0:0:
188,244,166925,5,2,0:0:0:0:
208,228,167009,1,0,0:0:0:0:
232,220,167092,1,0,0:0:0:0:
256,224,167175,1,0,0:0:0:0:
272,244,167259,6,2,B|292:292|352:312|404:296|432:240,1,200,2|4,0:0|0:0,0:0:0:0:
256,144,167759,1,0,0:0:0:0:
52,240,167925,1,8,0:0:0:0:
256,100,168092,1,0,0:0:0:0:
460,200,168259,1,0,0:0:0:0:
256,56,168425,1,0,0:0:0:0:
24,156,168592,1,8,0:0:0:0:
256,12,168759,1,0,0:0:0:0:
488,112,168925,6,4,P|430:291|256:256,1,400
283,148,170425,5,0,0:0:0:0:
256,256,170592,1,8,0:0:0:0:
181,102,170759,1,0,0:0:0:0:
256,256,170925,1,0,0:0:0:0:
370,60,171092,1,0,0:0:0:0:
256,256,171259,1,8,0:0:0:0:
97,18,171425,1,0,0:0:0:0:
256,256,171592,6,0,B|210:290|154:282|114:254|114:190,1,200,0|8,0:0|0:0,0:0:0:0:
356,100,172092,1,0,0:0:0:0:
156,100,172259,1,8,0:0:0:0:
256,108,172425,1,8,0:0:0:0:
400,191,172592,1,8,0:0:0:0:
400,216,172675,1,8,0:0:0:0:
392,240,172759,1,8,0:0:0:0:
376,260,172842,1,8,0:0:0:0:
356,276,172925,6,0,B|256:288,1,100,4|0,0:0|0:0,0:0:0:0:
12,192,173259,2,0,B|112:180,1,100,8|0,0:0|0:0,0:0:0:0:
208,164,173592,1,0,0:0:0:0:
16,104,173759,1,0,0:0:0:0:
208,56,173925,1,8,0:0:0:0:
12,192,174092,1,0,0:0:0:0:
116,272,174259,6,0,B|164:300|220:288|256:256|256:192,1,200,0|8,0:0|0:0,0:0:0:0:
264,92,174759,1,0,0:0:0:0:
348,40,174925,1,0,0:0:0:0:
348,40,175009,1,8,0:0:0:0:
348,40,175092,1,0,0:0:0:0:
444,72,175259,6,0,B|480:108|488:168|464:212|404:232,1,200,8|0,0:0|0:0,0:0:0:0:
107,231,175759,1,0,0:0:0:0:
368,160,175925,1,8,0:0:0:0:
144,160,176092,1,0,0:0:0:0:
320,96,176259,1,0,0:0:0:0:
192,96,176425,1,0,0:0:0:0:
256,48,176592,1,8,0:0:0:0:
256,248,176759,1,0,0:0:0:0:
256,148,176925,5,0,0:0:0:0:
180,300,177092,1,0,0:0:0:0:
332,300,177259,1,8,0:0:0:0:
72,280,177425,2,0,B|28:248|28:196,1,100
27,194,177675,1,8,0:0:0:0:
27,194,177759,1,0,0:0:0:0:
44,96,177925,1,8,0:0:0:0:
132,48,178092,1,0,0:0:0:0:
232,52,178259,5,4,0:0:0:0:
252,68,178342,1,0,0:0:0:0:
260,92,178425,1,0,0:0:0:0:
260,116,178509,1,0,0:0:0:0:
248,136,178592,1,10,0:0:0:0:
232,156,178675,1,0,0:0:0:0:
216,176,178759,1,0,0:0:0:0:
200,196,178842,1,0,0:0:0:0:
196,220,178925,5,2,0:0:0:0:
204,244,179009,1,0,0:0:0:0:
220,264,179092,1,0,0:0:0:0:
240,280,179175,1,0,0:0:0:0:
264,288,179259,1,10,0:0:0:0:
288,284,179342,1,0,0:0:0:0:
308,272,179425,1,0,0:0:0:0:
324,252,179509,1,0,0:0:0:0:
328,228,179592,5,2,0:0:0:0:
320,204,179675,1,0,0:0:0:0:
312,180,179759,1,0,0:0:0:0:
312,156,179842,1,0,0:0:0:0:
324,136,179925,1,8,0:0:0:0:
340,120,180009,1,0,0:0:0:0:
360,108,180092,1,0,0:0:0:0:
384,108,180175,1,0,0:0:0:0:
408,116,180259,5,2,0:0:0:0:
432,128,180342,1,0,0:0:0:0:
448,148,180425,1,8,0:0:0:0:
452,172,180509,1,0,0:0:0:0:
448,196,180592,1,10,0:0:0:0:
440,220,180675,1,0,0:0:0:0:
424,240,180759,1,0,0:0:0:0:
400,252,180842,1,0,0:0:0:0:
376,252,180925,5,2,0:0:0:0:
352,248,181009,1,0,0:0:0:0:
328,236,181092,1,0,0:0:0:0:
304,228,181175,1,0,0:0:0:0:
280,224,181259,1,8,0:0:0:0:
256,232,181342,1,0,0:0:0:0:
236,244,181425,1,0,0:0:0:0:
220,264,181509,1,0,0:0:0:0:
208,288,181592,5,2,0:0:0:0:
188,304,181675,1,0,0:0:0:0:
164,312,181759,1,0,0:0:0:0:
140,312,181842,1,0,0:0:0:0:
120,296,181925,1,10,0:0:0:0:
108,272,182009,1,0,0:0:0:0:
108,248,182092,1,0,0:0:0:0:
116,224,182175,1,0,0:0:0:0:
136,208,182259,1,4,0:0:0:0:
256,192,182342,12,0,184259,0:0:0:0:
256,338,184925,6,0,B|204:334|164:298|152:242|191:192,1,200,0|0,0:0|0:0,0:0:0:0:
392,192,185925,1,0,0:0:0:0:
191,191,186259,2,0,B|152:141|164:85|204:49|256:45,2,200
364,292,187925,1,0,0:0:0:0:
364,92,188259,1,0,0:0:0:0:
192,192,188592,5,0,0:0:0:0:
72,32,188925,2,0,B|28:64|16:112|32:168,2,150
256,116,190259,1,0,0:0:0:0:
156,292,190592,1,0,0:0:0:0:
356,292,190925,2,0,B|408:276|440:232|440:176|408:128,2,200,0|0|0,0:0|0:0|0:0,0:0:0:0:
184,192,192592,1,0,0:0:0:0:
384,192,192925,6,0,B|392:140|368:88|316:60|264:68,2,200
184,192,194592,1,0,0:0:0:0:
364,284,194925,1,0,0:0:0:0:
364,284,195092,1,0,0:0:0:0:
200,32,195592,6,0,B|148:32|100:56|64:96|56:152,2,200
256,224,197259,1,0,0:0:0:0:
256,224,197425,2,0,B|300:260|352:256|400:236,1,150
320,52,198259,5,0,0:0:0:0:
176,192,198592,1,0,0:0:0:0:
176,192,198759,2,0,B|156:240|176:296|224:320,1,150
256,120,199592,1,0,0:0:0:0:
68,192,199925,1,0,0:0:0:0:
68,192,200092,2,0,B|40:236|51:294|95:325,1,150
256,376,200925,6,0,B|340:372|392:320|400:224|336:156,1,299.999991059304
256,376,202259,6,0,B|172:372|120:320|112:224|176:156,1,299.999991059304
256,376,203592,6,0,B|320:280|256:236|192:192|256:96,2,299.999991059304,4|0|4,0:0|0:0|0:0,0:0:0:0:
236,364,205425,1,4,0:0:0:0:
216,352,205925,1,4,0:0:0:0:
168,296,206092,5,0,0:0:0:0:
168,296,206175,1,0,0:0:0:0:
168,296,206259,2,0,B|152:248|176:200,1,100,4|0,0:0|0:0,0:0:0:0:
387,180,206592,2,0,B|372:232|320:248,1,100,8|0,0:0|0:0,0:0:0:0:
80,232,206925,1,0,0:0:0:0:
56,136,207092,1,0,0:0:0:0:
120,60,207259,2,0,B|220:40,1,100,8|0,0:0|0:0,0:0:0:0:
342,279,207592,6,0,B|284:276|244:232|240:180|256:132,1,200,0|8,0:0|0:0,0:0:0:0:
483,67,208092,2,0,B|488:124|464:168|408:188|352:176,1,200
256,40,208592,2,0,B|256:240,2,200,8|0|8,0:0|0:0|0:0,0:0:0:0:
20,192,209592,1,0,0:0:0:0:
84,268,209759,1,0,0:0:0:0:
184,260,209925,6,0,B|184:160,1,100,8|0,0:0|0:0,0:0:0:0:
328,160,210259,2,0,B|364:196|376:256|348:304|296:324,1,200,0|8,0:0|0:0,0:0:0:0:
85,199,210759,2,0,B|132:164|180:160|232:184|256:232,1,200
160,264,211259,2,0,B|112:296|56:292|8:264|4:208,2,200,8|4|8,0:0|0:0|0:0,0:0:0:0:
160,264,212259,5,0,0:0:0:0:
352,120,212425,1,0,0:0:0:0:
92,192,212592,1,8,0:0:0:0:
420,192,212759,1,0,0:0:0:0:
103,95,212925,1,0,0:0:0:0:
410,290,213092,1,0,0:0:0:0:
192,44,213259,6,0,B|244:24|296:32|336:68|352:120,1,200,8|0,0:0|0:0,0:0:0:0:
320,212,213759,1,0,0:0:0:0:
228,248,213925,2,0,B|176:240|140:180|156:128|208:100,2,200,8|4|8,0:0|0:0|0:0,0:0:0:0:
320,212,214759,1,0,0:0:0:0:
420,192,214925,1,0,0:0:0:0:
187,298,215092,1,0,0:0:0:0:
488,260,215259,1,8,0:0:0:0:
256,368,215425,1,0,0:0:0:0:
256,16,215592,5,4,0:0:0:0:
92,192,215759,1,0,0:0:0:0:
324,85,215925,1,8,0:0:0:0:
23,123,216092,1,0,0:0:0:0:
100,56,216259,1,0,0:0:0:0:
100,56,216342,1,0,0:0:0:0:
100,56,216425,1,0,0:0:0:0:
188,108,216592,2,0,B|188:208,1,100,8|0,0:0|0:0,0:0:0:0:
256,284,216925,5,4,0:0:0:0:
256,100,217092,1,0,0:0:0:0:
190,257,217259,1,8,0:0:0:0:
321,126,217426,1,0,0:0:0:0:
72,191,217592,1,0,0:0:0:0:
440,192,217759,1,0,0:0:0:0:
125,61,217925,1,8,0:0:0:0:
386,322,218092,1,0,0:0:0:0:
256,192,218259,6,0,B|216:160|216:104,1,100
256,192,218592,2,0,B|296:224|296:280,1,100,8|0,0:0|0:0,0:0:0:0:
220,344,218925,1,0,0:0:0:0:
132,296,219092,1,0,0:0:0:0:
92,204,219259,2,0,B|116:156|172:132|228:144|256:192,1,200,8|4,0:0|0:0,0:0:0:0:
200,276,219759,5,0,0:0:0:0:
312,108,219925,1,8,0:0:0:0:
256,360,220092,2,0,B|308:364|356:340|380:288|360:232,1,200
224,101,220592,2,0,B|180:144|180:196|208:244|264:256,1,200,8|0,0:0|0:0,0:0:0:0:
384,172,221092,5,0,0:0:0:0:
264,256,221259,1,8,0:0:0:0:
444,112,221425,1,0,0:0:0:0:
264,256,221592,1,0,0:0:0:0:
504,48,221759,1,0,0:0:0:0:
264,256,221925,2,0,B|216:280|160:276|120:240|104:188,1,200,8|4,0:0|0:0,0:0:0:0:
412,88,222425,5,0,0:0:0:0:
100,88,222592,1,8,0:0:0:0:
256,104,222759,1,0,0:0:0:0:
204,196,222925,2,0,B|100:196,1,100
308,196,223259,2,0,B|412:196,1,100,8|0,0:0|0:0,0:0:0:0:
28,132,223592,5,0,0:0:0:0:
484,252,223759,1,0,0:0:0:0:
180,28,223925,1,8,0:0:0:0:
332,356,224092,1,0,0:0:0:0:
84,48,224259,1,0,0:0:0:0:
428,336,224425,1,0,0:0:0:0:
64,224,224592,1,8,0:0:0:0:
448,160,224759,1,0,0:0:0:0:
192,192,224925,6,0,B|164:156|160:96|180:48|224:12|288:12|332:48|352:96|348:156|320:192,1,400,4|0,0:0|0:0,0:0:0:0:
256,376,225925,1,8,0:0:0:0:
388,192,226259,6,0,B|412:148|404:96,1,100,4|0,0:0|0:0,0:0:0:0:
256,192,226592,1,8,0:0:0:0:
312,52,226759,2,0,B|212:52,1,100,4|0,0:0|0:0,0:0:0:0:
212,52,227009,1,8,0:0:0:0:
212,52,227092,1,0,0:0:0:0:
136,116,227259,1,12,0:0:0:0:
152,216,227425,1,0,0:0:0:0:
228,284,227592,6,0,B|276:280|320:244,1,100,4|0,0:0|0:0,0:0:0:0:
128,32,227925,2,0,B|72:40|52:88,1,100,8|0,0:0|0:0,0:0:0:0:
368,320,228259,2,0,B|412:296|428:244,1,100
280,44,228592,2,0,B|228:48|192:84,1,100,8|0,0:0|0:0,0:0:0:0:
156,180,228925,5,4,0:0:0:0:
356,204,229092,1,0,0:0:0:0:
96,316,229259,1,8,0:0:0:0:
414,66,229426,1,0,0:0:0:0:
244,292,229592,1,0,0:0:0:0:
268,92,229759,1,0,0:0:0:0:
380,350,229925,1,8,0:0:0:0:
130,32,230092,1,0,0:0:0:0:
356,204,230259,6,0,B|404:220|452:192,1,100,4|0,0:0|0:0,0:0:0:0:
156,180,230592,2,0,B|108:164|60:192,1,100,8|0,0:0|0:0,0:0:0:0:
268,92,230925,2,0,B|300:52|292:-4,1,100
244,292,231259,2,0,B|212:332|220:388,1,100,8|0,0:0|0:0,0:0:0:0:
320,368,231592,6,0,B|372:344|400:296|392:236|356:204,1,200,4|8,0:0|0:0,0:0:0:0:
192,16,232092,2,0,B|140:40|112:88|120:148|156:180,1,200,4|0,0:0|0:0,0:0:0:0:
256,292,232592,2,0,B|256:92,1,200,8|4,0:0|0:0,0:0:0:0:
160,120,233092,5,0,0:0:0:0:
352,120,233259,1,8,0:0:0:0:
92,192,233425,1,0,0:0:0:0:
420,192,233592,1,0,0:0:0:0:
20,264,233759,1,0,0:0:0:0:
492,264,233926,1,8,0:0:0:0:
256,192,234259,12,4,235592,0:0:0:0:
256,344,235925,6,0,B|304:356|356:336,1,100,8|0,0:0|0:0,0:0:0:0:
376,208,236259,2,0,B|350:250|299:273,1,100
296,186,236592,2,0,B|316:135|304:88,1,100,8|0,0:0|0:0,0:0:0:0:
230,131,236925,6,0,B|205:174|156:196,1,100,4|0,0:0|0:0,0:0:0:0:
56,196,237259,1,8,0:0:0:0:
12,108,237425,1,0,0:0:0:0:
92,48,237592,1,0,0:0:0:0:
92,48,237675,1,8,0:0:0:0:
92,48,237759,1,0,0:0:0:0:
156,124,237925,1,8,0:0:0:0:
152,224,238092,1,0,0:0:0:0:
100,312,238259,6,0,B|124:356|184:360,1,100,4|0,0:0|0:0,0:0:0:0:
256,292,238592,2,0,B|256:192,1,100,8|0,0:0|0:0,0:0:0:0:
256,92,238925,1,0,0:0:0:0:
348,52,239092,1,0,0:0:0:0:
444,76,239259,1,8,0:0:0:0:
496,160,239425,1,0,0:0:0:0:
480,260,239592,6,0,B|468:308|416:340|364:336|320:292,1,200,0|8,0:0|0:0,0:0:0:0:
32,124,240092,2,0,B|44:76|96:44|148:48|192:92,1,200
256,192,240592,2,0,B|244:240|192:272|136:264|92:224,1,200,8|0,0:0|0:0,0:0:0:0:
120,128,241092,5,0,0:0:0:0:
208,76,241259,2,0,B|308:76,1,100,8|0,0:0|0:0,0:0:0:0:
304,308,241592,2,0,B|204:308,1,100
112,264,241925,1,8,0:0:0:0:
44,192,242092,1,0,0:0:0:0:
120,128,242259,6,0,B|216:156,1,100
216,156,242509,1,0,0:0:0:0:
216,156,242592,1,8,0:0:0:0:
256,248,242759,2,0,B|296:276|360:264|400:228|400:168,1,200
279,8,243259,2,0,B|232:44|224:100|252:144|300:172,1,200,8|4,0:0|0:0,0:0:0:0:
399,168,243759,1,0,0:0:0:0:
340,88,243925,6,0,B|240:88,1,100,8|0,0:0|0:0,0:0:0:0:
172,296,244259,2,0,B|272:296,1,100
412,160,244592,2,0,B|341:89,1,100,8|0,0:0|0:0,0:0:0:0:
100,224,244926,2,0,B|170:294,1,100
412,260,245259,2,0,B|411:160,1,100,8|0,0:0|0:0,0:0:0:0:
100,124,245593,2,0,B|99:224,1,100
256,192,245925,6,0,B|267:140|255:87|221:53|162:45,1,200,8|4,0:0|0:0,0:0:0:0:
100,124,246425,1,0,0:0:0:0:
96,224,246592,1,8,0:0:0:0:
172,288,246759,1,0,0:0:0:0:
272,268,246925,2,0,B|324:264|360:228,1,100
240,116,247259,2,0,B|188:120|152:156,1,100,8|0,0:0|0:0,0:0:0:0:
132,256,247592,5,0,0:0:0:0:
380,128,247759,1,0,0:0:0:0:
213,324,247925,1,8,0:0:0:0:
298,59,248092,1,0,0:0:0:0:
320,316,248259,1,0,0:0:0:0:
191,67,248426,1,8,0:0:0:0:
256,192,248592,5,4,0:0:0:0:
256,192,248675,12,0,252925,0:0:0:0:
