osu file format v12

[General]
AudioFilename: 01 - Senketsu no Chikai.mp3
AudioLeadIn: 0
PreviewTime: 130260
Countdown: 2
SampleSet: Soft
StackLeniency: 0.7
Mode: 0
LetterboxInBreaks: 0
EpilepsyWarning: 1

[Editor]
Bookmarks: 23593,44927,55593,87593,98260,119593,184927,238260
DistanceSpacing: 0.5
BeatDivisor: 4
GridSize: 4

[Metadata]
Title:Senketsu no Chikai
TitleUnicode:鮮血の誓い
Artist:Yousei Teikoku
ArtistUnicode:妖精帝國
Creator:Saten
Version:Insane
Source:Renkin Sankyuu Magical Pokaan
Tags:Magipoka Weez Weezy Mafiamaster Nekoo[] Saten-san Loctav
BeatmapID:112817
BeatmapSetID:27104

[Difficulty]
HPDrainRate:6
CircleSize:4
OverallDifficulty:6
ApproachRate:9
SliderMultiplier:2
SliderTickRate:2

[Events]
//Background and Video events
0,0,"BG01.jpg",0,0
Video,0,"Renkin San-kyuu Magical Pokaan OP.avi"
//Break Periods
2,98459,108325
//Storyboard Layer 0 (Background)
Sprite,Background,Centre,"BG01.jpg",320,240 M,0,130259,,320,240 S,0,130259,,0.625 F,0,130259,153592,1 F,0,153592,162259,0 F,0,162259,183592,1 F,0,183592,184925,1,0 F,0,184925,,0 F,0,184925,185009,0,0.06 F,0,185009,185592,0.06,0 F,0,185592,,0 F,0,185592,187592,0 F,0,187592,187675,0,0.08 F,0,187675,188259,0.08,0 F,0,188259,190259,0 F,0,190259,190342,0,0.1 F,0,190342,190925,0.1,0 F,0,190925,192925,0 F,0,192925,193009,0,0.12 F,0,193009,193592,0.12,0 F,0,193592,195592,0 F,0,195592,195675,0,0.14 F,0,195675,196259,0.14,0 F,0,196259,198259,0 F,0,198259,198342,0,0.16 F,0,198342,198925,0.16,0 F,0,198925,200925,0 F,0,200925,201592,0,0.18 F,0,201592,202259,0.18,0 F,0,202259,203592,0,1 F,0,203592,204925,1 F,0,203592,206259,0 F,0,204925,230259,1 F,0,206259,230259,0 F,0,230259,238259,0 F,0,238259,248592,1 F,0,248592,252925,1,0
Sprite,Background,Centre,"SB\01 uma.jpg",320,240 S,0,87592,,1.068327 M,0,87592,90259,320,509,320,-26
Sprite,Background,Centre,"SB\02 pachira.jpg",320,240 F,0,90259,,1 S,0,90259,,1.068327 M,0,90259,92925,320,-21,320,507
Sprite,Background,Centre,"SB\03 aiko.jpg",320,240 F,0,92925,,1 S,0,92925,,1.068328 M,0,92925,95592,320,507,320,-30
Sprite,Background,Centre,"SB\04 liru.jpg",320,240 F,0,95592,,1 S,0,95592,,1.068327 M,0,95592,96884,320,-27,320,227
//Storyboard Layer 1 (Fail)
//Storyboard Layer 2 (Pass)
//Storyboard Layer 3 (Foreground)
Sprite,Foreground,Centre,"SB\BG01P.jpg",320,240 F,0,203592,204259,1,0 S,0,203592,204259,0.8086832,1.013665 F,0,205009,205425,1 S,0,205009,205425,0.8496799 F,0,205425,205509,0 F,0,205509,205925,1 S,0,205509,205925,0.9316725 F,0,205925,206009,0 F,0,206009,206259,1 S,0,206009,206259,1
Sprite,Foreground,Centre,"SB\03 aiko.jpg",320,240 S,0,96925,,0.5490392 M,0,96925,97384,150,240
Sprite,Foreground,Centre,"SB\04 liru.jpg",320,240 S,0,96925,,0.5490391 M,0,96925,97384,479,240
Sprite,Foreground,Centre,"SB\02 pachira.jpg",320,240 S,0,97425,,0.5217083 M,0,97425,97884,352,240
Sprite,Foreground,Centre,"SB\03 aiko.jpg",320,240 S,0,97425,,0.5217083 M,0,97425,97884,99,240
Sprite,Foreground,Centre,"SB\04 liru.jpg",320,240 S,0,97425,,0.5217081 M,0,97425,97884,581,240
Sprite,Foreground,Centre,"SB\02 pachira.jpg",320,240 M,0,97925,,253,240 S,0,97925,,0.5080428 F,0,97925,98175,1 F,0,98175,98259,1,0
Sprite,Foreground,Centre,"SB\01 uma.jpg",320,240 M,0,97925,,485,240 S,0,97925,,0.5080426 F,0,97925,98175,1 F,0,98175,98259,1,0
Sprite,Foreground,Centre,"SB\03 aiko.jpg",320,240 M,0,97925,,26,240 S,0,97925,,0.5080429 F,0,97925,98175,1 F,0,98175,98259,1,0
Sprite,Foreground,Centre,"SB\04 liru.jpg",320,240 M,0,97925,,653,240 S,0,97925,,0.5080428 F,0,97925,98175,1 F,0,98175,98259,1,0
Sprite,Foreground,Centre,"SB\All.jpg",320,240 F,0,119592,129925,0.4670463 M,0,119592,130259,1097,240,-454,240 F,0,129925,130259,0.4670463,0
Sprite,Foreground,Centre,"SB\END\01.png",320,240 M,0,151592,152259,320,240,466,240 S,0,151592,152259,1.218648,0.7198576 F,0,151592,154925,1
Sprite,Foreground,Centre,"SB\END\02.png",320,240 M,0,152925,153592,320,240,173,240 S,0,152925,153592,1,0.7198576 F,0,152925,156259,1
Sprite,Foreground,Centre,"SB\END\03.png",320,240 M,0,154259,154925,320,240,467,240 S,0,154259,154925,1,0.7198578 F,0,154259,156925,1
Sprite,Foreground,Centre,"SB\END\04.png",320,240 M,0,155592,156259,320,240,173,240 S,0,155592,156259,1,0.7198576 F,0,155592,156925,1
Sprite,Foreground,Centre,"SB\BG01P.jpg",320,240 M,0,166259,,320,240 F,0,166259,167592,1,0 S,0,166259,167592,0.8086833,1.040997
Sprite,Foreground,Centre,"SB\BG01P.jpg",320,240 M,0,163592,,320,240 F,0,163592,164259,1,0 S,0,163592,164259,0.808683,1.136655
Sprite,Foreground,Centre,"SB\BG01P.jpg",320,240 F,0,166259,167592,1,0 S,0,166259,167592,0.8086832,0.6720284
Sprite,Foreground,Centre,"SB\BG01PG.jpg",320,240 M,0,168925,,320,240 S,0,168925,,0.8086832 F,0,168925,170259,1,0
Sprite,Foreground,Centre,"SB\991438.jpg",320,240 S,0,156924,,0.9385055 M,0,156924,162258,264,240,373,240
Sprite,Foreground,Centre,"SB\END\01.png",320,240 M,0,227592,228259,320,240,139,240 S,0,227592,228259,1,0.7130249 M,0,228259,230925,139,240
Sprite,Foreground,Centre,"SB\END\02.png",320,240 M,0,228925,229592,320,240,483,240 S,0,228925,229592,1,0.7130249 M,0,229592,232259,483,240
Sprite,Foreground,Centre,"SB\END\03.png",320,240 M,0,230259,230925,320,240,140,240 S,0,230259,230925,1,0.7130249 S,0,230925,,0.7130249 M,0,230925,232925,140,240
Sprite,Foreground,Centre,"SB\END\04.png",320,240 M,0,231592,232259,320,240,482,240 S,0,231592,232259,1,0.713025 M,0,232259,232925,482,240
Sprite,Foreground,Centre,"SB\BG.jpg",320,240 M,0,232925,238259,320,240 S,0,232925,238259,1,0.8086834
Sprite,Foreground,Centre,"SB\circle 2.jpg",320,240 S,0,98258,98424,0.8,0.9 F,0,98258,98924,0,1 R,0,98258,108924,6.778079,13.13253 S,0,98424,98591,0.9,0.8 S,0,98591,100924,0.8 F,0,98924,107591,1,0.5 S,0,100924,101091,0.8,0.9 S,0,101091,101258,0.9,0.8 S,0,101258,103591,0.8 S,0,103591,103758,0.8,0.9 S,0,103758,103924,0.9,0.8 S,0,103924,106258,0.8 S,0,106258,106424,0.8,0.9 S,0,106424,106591,0.9,0.8 F,0,107591,108924,0.5,0
Animation,Foreground,Centre,"SB\Animate\Frame00.png",320,240,64,19,LoopForever F,0,108759,108925,0,1 M,0,108925,,320,240 M,0,108925,118259,320,240 F,0,108925,118259,1 F,0,118259,119259,1,0.007507503
Sprite,Foreground,Centre,"SB\Circle.png",320,240 F,0,184592,184925,0,1 M,0,184925,,320,240 S,0,184925,,0.6037012 F,0,184925,200925,1 R,0,184925,202259,0,9.483844 F,0,200925,202259,1,0
Sprite,Foreground,Centre,"SB\White.jpg",320,240 M,0,87591,,320,240 S,0,87591,,2.065907 F,0,87591,87758,1,0 M,0,90258,,320,240 S,0,90258,,2.011245 F,0,90258,90425,1,0 M,0,92924,,320,240 S,0,92924,,2.052242 F,0,92924,93092,1,0 M,0,95591,,320,240 S,0,95591,,2.038576 F,0,95591,95758,1,0 S,0,130258,,2.024911 F,0,130258,130424,1,0 F,0,151592,151925,1,0 M,0,156924,,320,240 S,0,156924,,2.011245 F,0,156924,157258,1,0 S,0,162259,,2.011245 F,0,162259,162425,1,0 M,0,163592,,320,240 S,0,163592,,2.038576 F,0,163592,163759,1,0 S,0,166259,,2.011245 F,0,166259,166425,1,0 S,0,168925,,2.052242 F,0,168925,169092,1,0 S,0,203592,,2.024911 F,0,203592,203759,1,0 S,0,206259,,2.024911 F,0,206259,206425,1,0 M,0,227592,,320,240 S,0,227592,,2.024911 F,0,227592,227759,1,0 M,0,232925,,320,240 S,0,232925,,2.024911 F,0,232925,233092,1,0 F,0,238257,238424,1,0 S,0,238259,,2.052242
//Storyboard Sound Samples
//Background Colour Transformations
3,100,0,0,0

[TimingPoints]
926,333.333333333333,4,2,1,70,1,0
12925,-100,4,2,1,100,0,0
23592,-133.333333333333,4,2,1,70,0,0
34259,-100,4,2,1,80,0,0
44925,-200,4,2,1,100,0,0
55592,-100,4,2,1,100,0,1
84925,-100,4,2,1,100,0,0
88925,-83.3333333333333,4,2,1,100,0,0
89925,-100,4,2,1,100,0,0
98259,-100,4,2,1,70,0,0
108925,-100,4,2,1,80,0,0
119592,-200,4,2,1,100,0,0
130259,-100,4,2,1,100,0,1
159592,-100,4,2,1,100,0,0
162259,-100,4,2,1,100,0,1
163592,-200,4,2,1,100,0,1
164592,-100,4,2,1,100,0,1
168925,-200,4,2,1,100,0,1
170259,-100,4,2,1,100,0,1
182259,-100,4,2,1,100,0,0
183592,-100,4,2,1,50,0,0
184259,-100,4,2,1,15,0,0
184925,-200,4,2,1,70,0,0
200925,-133.333333333333,4,2,1,80,0,0
203592,-133.333333333333,4,2,1,90,0,0
206259,-100,4,2,1,100,0,1
223842,-100,4,2,2,100,0,1
224009,-100,4,2,1,100,0,1
224509,-100,4,2,2,100,0,1
224675,-100,4,2,1,100,0,1
232592,-100,4,2,1,100,0,0
250258,-100,4,2,1,60,0,0
251258,-100,4,2,1,40,0,0
252258,-100,4,2,1,20,0,0
252925,-100,4,2,1,0,0,0

[Colours]
Combo1 : 255,255,102
Combo2 : 91,255,91
Combo3 : 255,108,182
Combo4 : 169,83,255

[HitObjects]
256,336,12425,2,0,B|212:304|212:248,1,100
260,11,12925,5,4,0:0:0:0:
355,42,13091,1,0,0:0:0:0:
414,123,13258,1,8,0:0:0:0:
414,223,13425,1,0,0:0:0:0:
356,304,13592,2,0,B|292:228,1,100
156,80,13925,2,0,B|220:156,1,100,8|0,0:0|0:0,0:0:0:0:
204,256,14259,2,0,B|155:280|98:259|66:201|88:152,1,200,0|8,0:0|0:0,0:0:0:0:
308,128,14759,2,0,B|356:103|413:124|445:182|424:232,1,200,0|0,0:0|0:0,0:0:0:0:
356,304,15259,6,0,B|288:268|288:232|288:200|220:164,1,200,8|0,0:0|0:0,0:0:0:0:
124,192,15759,1,0,0:0:0:0:
92,288,15925,1,8,0:0:0:0:
156,364,16092,1,0,0:0:0:0:
248,324,16259,2,0,B|288:232,1,100
264,60,16592,2,0,B|224:152,1,100,8|0,0:0|0:0,0:0:0:0:
324,148,16925,2,0,B|376:156|428:132|452:80|440:24,1,200,0|8,0:0|0:0,0:0:0:0:
188,236,17425,2,0,B|136:228|84:252|60:304|72:360,1,200
172,348,17925,6,0,B|224:348|276:324|300:276|288:220,1,200,8|4,0:0|0:0,0:0:0:0:
256,124,18425,1,0,0:0:0:0:
168,76,18592,1,8,0:0:0:0:
80,120,18759,1,0,0:0:0:0:
36,208,18925,2,0,B|28:308,1,100
120,348,19259,2,0,B|128:248,1,100,8|0,0:0|0:0,0:0:0:0:
164,156,19592,2,0,B|220:156|244:208|272:260|328:260,1,200,0|8,0:0|0:0,0:0:0:0:
348,156,20092,2,0,B|292:156|268:208|240:260|184:260,1,200
84,252,20592,6,0,B|48:208|48:156|72:108|116:76,1,200,8|0,0:0|0:0,0:0:0:0:
208,44,21092,1,0,0:0:0:0:
276,116,21259,1,8,0:0:0:0:
256,212,21425,1,0,0:0:0:0:
180,276,21592,2,0,B|140:248|128:192,2,100,0|0|8,0:0|0:0|0:0,0:0:0:0:
280,292,22092,1,8,0:0:0:0:
360,232,22259,5,12,0:0:0:0:
60,252,22759,1,8,0:0:0:0:
256,24,23259,1,8,0:0:0:0:
256,240,23592,6,0,B|224:264|184:272|144:256|124:220,1,149.999995529652,4|2,0:0|0:0,0:0:0:0:
148,72,24259,2,0,B|200:72|212:104|224:136|280:136,1,149.999995529652,0|2,0:0|0:0,0:0:0:0:
416,192,24925,1,0,0:0:0:0:
392,264,25092,1,0,0:0:0:0:
336,312,25259,1,2,0:0:0:0:
260,316,25425,2,0,B|204:296|204:268|204:240|148:224,1,149.999995529652
128,296,25925,6,0,B|84:280|68:248|64:208|96:172,1,149.999995529652,2|0,0:0|0:0,0:0:0:0:
244,192,26592,2,0,B|280:192|320:176|344:140|344:100,1,149.999995529652,2|0,0:0|0:0,0:0:0:0:
288,48,27092,1,0,0:0:0:0:
216,64,27259,1,2,0:0:0:0:
140,192,27592,1,0,0:0:0:0:
184,252,27759,1,0,0:0:0:0:
256,264,27925,1,2,0:0:0:0:
324,228,28092,2,0,B|352:196|356:156|332:120|292:108,1,149.999995529652
268,180,28592,6,0,B|224:180|192:172|164:140|160:100,1,149.999995529652,2|0,0:0|0:0,0:0:0:0:
296,40,29259,1,2,0:0:0:0:
424,120,29592,1,0,0:0:0:0:
440,192,29759,1,0,0:0:0:0:
400,256,29925,1,2,0:0:0:0:
256,300,30259,2,0,B|216:288|192:252|192:208|216:180,1,149.999995529652,0|2,0:0|0:0,0:0:0:0:
276,224,30759,2,0,B|316:212|344:184|348:144|336:104,1,149.999995529652
272,64,31259,1,2,0:0:0:0:
136,124,31592,6,0,B|92:192|92:264|140:332|216:368|296:368|372:332|420:264|420:192|376:124,1,599.999982118607
328,68,33092,1,0,0:0:0:0:
300,140,33259,2,0,B|292:180|256:204|216:208|180:184,1,149.999995529652,2|0,0:0|0:0,0:0:0:0:
136,124,33759,1,0,0:0:0:0:
184,68,33925,1,2,0:0:0:0:
256,256,34259,6,0,B|296:288|348:288,1,100,4|0,0:0|0:0,0:0:0:0:
444,256,34592,2,0,B|432:156,1,100,2|0,0:0|0:0,0:0:0:0:
380,72,34925,2,0,B|284:48,1,100
184,68,35259,1,2,0:0:0:0:
136,156,35425,1,0,0:0:0:0:
160,252,35592,6,0,B|256:280,1,100,0|2,0:0|0:0,0:0:0:0:
328,212,35925,2,0,B|232:184,1,100,0|2,0:0|0:0,0:0:0:0:
88,316,36259,2,0,B|184:344,1,100,0|0,0:0|0:0,0:0:0:0:
284,348,36592,6,0,B|336:352|384:328|416:280|412:224,1,200,2|2,0:0|0:0,0:0:0:0:
376,132,37092,1,0,0:0:0:0:
288,80,37259,2,0,B|188:68,1,100
128,148,37592,2,0,B|228:160,1,100,2|0,0:0|0:0,0:0:0:0:
164,236,37925,2,0,B|64:224,1,100,0|0,0:0|0:0,0:0:0:0:
28,132,38259,6,0,B|44:81|81:47|139:40|187:68,1,200,2|0,0:0|0:0,0:0:0:0:
484,132,38759,2,0,B|467:81|430:47|372:40|324:68,1,200,2|0,0:0|0:0,0:0:0:0:
256,140,39259,1,2,0:0:0:0:
160,316,39592,6,0,B|105:341|55:321|25:277|44:214,1,200,2|2,0:0|0:0,0:0:0:0:
256,98,40092,2,0,B|266:159|242:207|191:230|143:228,1,200
0,156,40592,2,0,B|12:108|60:84|116:88|156:128,1,200,2|0,0:0|0:0,0:0:0:0:
206,300,41092,2,0,B|148:316|96:288|68:240|80:192,1,200,2|0,0:0|0:0,0:0:0:0:
188,44,41592,6,0,B|236:68|260:124|232:180|180:200,2,200,2|2|2,0:0|0:0|0:0,0:0:0:0:
88,56,42425,1,0,0:0:0:0:
20,132,42592,1,2,0:0:0:0:
40,228,42759,1,0,0:0:0:0:
124,284,42925,2,0,B|224:284,1,100,0|2,0:0|0:0,0:0:0:0:
304,156,43259,2,0,B|204:156,1,100
172,368,43592,2,0,B|220:384|276:388|336:372|364:320|372:260|352:220,1,300,2|2,0:0|0:0,0:0:0:0:
264,268,44259,1,0,0:0:0:0:
172,232,44425,1,0,0:0:0:0:
128,140,44592,6,0,B|136:88|184:60|240:48|288:84,1,200,2|4,0:0|0:0,0:0:0:0:
364,268,45259,1,0,0:0:0:0:
171,315,45592,2,0,B|120:304|76:272|56:224|71:170,1,200,8|0,0:0|0:0,0:0:0:0:
256,92,46592,1,0,0:0:0:0:
440,170,46925,6,0,B|456:224|436:272|392:304|340:316,1,200,8|0,0:0|0:0,0:0:0:0:
256,132,47925,1,0,0:0:0:0:
72,56,48259,2,0,B|44:96|64:152|64:152|40:196|64:248,1,200,8|0,0:0|0:0,0:0:0:0:
256,192,49259,1,0,0:0:0:0:
447,248,49592,6,0,B|472:196|448:152|448:152|468:96|440:56,2,200,8|4|8,0:0|0:0|0:0,0:0:0:0:
256,308,51259,1,0,0:0:0:0:
108,172,51592,2,0,B|108:120|152:76|212:72|256:104,1,200,0|8,0:0|0:0,0:0:0:0:
256,308,52592,1,0,0:0:0:0:
254,101,52925,6,0,B|228:148|239:208|288:246|340:240,2,200,4|8|2,0:0|0:0|0:0,0:0:0:0:
444,40,54592,1,0,0:0:0:0:
492,232,54925,1,2,0:0:0:0:
420,300,55092,5,2,0:0:0:0:
396,308,55175,1,0,0:0:0:0:
372,312,55259,1,2,0:0:0:0:
348,312,55342,1,0,0:0:0:0:
324,304,55425,1,0,0:0:0:0:
300,292,55509,1,0,0:0:0:0:
284,272,55592,6,0,B|260:228|280:172,1,100,4|0,0:0|0:0,0:0:0:0:
375,51,55925,2,0,B|400:104|376:148,1,100,8|0,0:0|0:0,0:0:0:0:
207,132,56259,2,0,B|232:88|292:92,1,100
376,148,56592,1,8,0:0:0:0:
336,240,56759,1,0,0:0:0:0:
256,300,56925,6,0,B|204:288|164:248|156:188|176:144,1,200,0|8,0:0|0:0,0:0:0:0:
257,17,57425,2,0,B|300:52|316:104|304:160|264:192,1,200
80,216,57925,2,0,B|72:160|104:116|152:96|208:108,2,200,8|0|8,0:0|0:0|0:0,0:0:0:0:
164,276,58759,1,0,0:0:0:0:
256,240,58925,2,0,B|256:140,1,100
328,68,59259,6,0,B|328:168,1,100,8|0,0:0|0:0,0:0:0:0:
364,260,59592,2,0,B|416:244|444:192|444:136|400:100,1,200,0|8,0:0|0:0,0:0:0:0:
254,25,60092,2,0,B|220:72|228:128|272:164|328:168,1,200
328,68,60592,2,0,B|158:174,2,200,8|4|8,0:0|0:0|0:0,0:0:0:0:
412,120,61425,5,0,0:0:0:0:
432,216,61592,1,0,0:0:0:0:
356,280,61759,1,0,0:0:0:0:
256,264,61925,2,0,B|304:176,1,100,8|0,0:0|0:0,0:0:0:0:
204,172,62259,2,0,B|276:104,1,100
184,60,62592,2,0,B|280:28,1,100,8|0,0:0|0:0,0:0:0:0:
244,124,62925,6,0,B|284:160|288:220|252:264|196:280,2,200,0|8|4,0:0|0:0|0:0,0:0:0:0:
148,100,63759,1,0,0:0:0:0:
56,140,63925,1,8,0:0:0:0:
28,236,64092,1,0,0:0:0:0:
96,308,64259,6,0,B|192:332,1,100
256,252,64592,2,0,B|256:152,1,100,8|0,0:0|0:0,0:0:0:0:
348,116,64925,2,0,B|400:136|428:184|416:240|368:276,1,200,0|8,0:0|0:0,0:0:0:0:
175,308,65425,2,0,B|176:252|196:204|256:184|304:196,1,200
256,284,65925,6,0,B|204:256|184:216|188:160|224:116,1,200,8|4,0:0|0:0,0:0:0:0:
320,80,66425,1,0,0:0:0:0:
412,120,66592,1,8,0:0:0:0:
440,216,66759,1,0,0:0:0:0:
392,304,66925,2,0,B|312:240,1,100
216,268,67259,2,0,B|296:332,1,100,8|0,0:0|0:0,0:0:0:0:
200,364,67592,6,0,B|144:356|104:316|96:264|132:216,1,200,0|8,0:0|0:0,0:0:0:0:
257,105,68092,2,0,B|296:152|300:204|264:252|216:268,1,200
132,216,68592,6,0,B|132:16,1,200,8|4,0:0|0:0,0:0:0:0:
44,64,69092,1,0,0:0:0:0:
132,116,69259,1,8,0:0:0:0:
216,168,69425,2,0,B|260:188|320:188|368:152|380:104,1,200
332,16,69925,6,0,B|132:16,2,200,8|0|8,0:0|0:0|0:0,0:0:0:0:
380,104,70759,1,0,0:0:0:0:
332,192,70925,2,0,B|256:256,1,100
356,268,71259,2,0,B|432:332,1,100,8|0,0:0|0:0,0:0:0:0:
340,368,71592,6,0,B|282:382|215:373|152:336|109:277|80:220|68:156|80:99|100:40|138:-20|224:-44|316:-44|411:-24|476:28|500:136|484:232|432:296|356:320|272:301|200:232|229:138,1,1200,4|0,0:0|0:0,0:0:0:0:
229,138,74259,5,4,0:0:0:0:
229,138,75259,5,0,0:0:0:0:
229,138,75592,2,0,B|220:188|252:236|304:256|360:240,1,200,4|8,0:0|0:0,0:0:0:0:
432,28,76092,2,0,B|480:52|504:104|496:160|448:192,1,200,4|8,0:0|0:0,0:0:0:0:
360,240,76592,2,0,B|300:232|276:192|252:148|192:140,1,200,4|4,0:0|0:0,0:0:0:0:
96,164,77092,5,0,0:0:0:0:
56,256,77259,1,8,0:0:0:0:
104,344,77425,2,0,B|156:356|208:348|252:308|256:256,1,200
255,255,77925,2,0,B|260:308|304:348|356:356|408:344,2,200,8|4|8,0:0|0:0|0:0,0:0:0:0:
256,156,78759,2,0,B|260:104|296:64|352:52|404:68,1,200
468,144,79259,1,8,0:0:0:0:
416,228,79425,1,0,0:0:0:0:
324,268,79592,6,0,B|268:268|236:224|204:184|148:184,1,200,4|8,0:0|0:0,0:0:0:0:
132,284,80092,2,0,B|80:280|40:240|28:184|60:136,1,200
156,108,80592,2,0,B|220:128|256:108|292:88|352:116,2,200,8|4|8,0:0|0:0|0:0,0:0:0:0:
128,204,81425,2,0,B|156:248|212:264|264:248|296:200,1,200,4|0,0:0|0:0,0:0:0:0:
216,200,81925,2,0,B|248:248|300:264|356:248|384:204,1,200,12|4,0:0|0:0,0:0:0:0:
428,116,82425,5,0,0:0:0:0:
356,44,82592,1,8,0:0:0:0:
256,44,82759,2,0,B|220:96|228:144|264:184|324:192,1,200
256,44,83259,2,0,B|292:96|284:144|248:184|188:192,2,200,8|4|8,0:0|0:0|0:0,0:0:0:0:
60,84,84259,1,0,0:0:0:0:
20,176,84425,1,0,0:0:0:0:
64,268,84592,1,8,0:0:0:0:
256,192,84925,12,0,87259,0:0:0:0:
256,192,87592,6,0,B|256:92,1,100,4|0,0:0|0:0,0:0:0:0:
160,128,87925,2,0,B|160:228,1,100,8|0,0:0|0:0,0:0:0:0:
352,228,88259,2,0,B|352:128,1,100
304,40,88592,1,8,0:0:0:0:
208,40,88759,1,0,0:0:0:0:
160,128,88925,6,0,B|182:193|228:232|294:241|352:228,1,239.999992675781,0|8,0:0|0:0,0:0:0:0:
352,128,89425,2,0,B|330:193|284:232|218:241|160:228,1,239.999992675781,0|0,0:0|0:0,0:0:0:0:
256,92,89925,2,0,B|256:292,1,200,8|0,0:0|0:0,0:0:0:0:
176,348,90425,5,0,0:0:0:0:
80,320,90592,1,8,0:0:0:0:
48,224,90759,1,0,0:0:0:0:
132,172,90925,2,0,B|216:224,1,100
380,212,91259,2,0,B|296:160,1,100,8|0,0:0|0:0,0:0:0:0:
220,224,91592,6,0,B|232:272|280:312|336:316|380:288,1,200,0|8,0:0|0:0,0:0:0:0:
295,160,92092,2,0,B|283:112|235:72|179:68|135:96,1,200
124,265,92592,2,0,B|68:264|24:228|12:168|36:124,1,200,8|4,0:0|0:0,0:0:0:0:
135,96,93092,5,0,0:0:0:0:
224,140,93259,1,8,0:0:0:0:
256,236,93425,1,0,0:0:0:0:
204,324,93592,2,0,B|108:352,1,100
308,324,93925,2,0,B|404:352,1,100,8|0,0:0|0:0,0:0:0:0:
436,256,94259,6,0,B|456:208|440:148|392:124|332:132,1,200,0|8,0:0|0:0,0:0:0:0:
164,232,94759,2,0,B|208:268|256:280|304:268|348:232,1,200
179,132,95259,2,0,B|120:124|72:148|56:208|76:256,1,200,8|0,0:0|0:0,0:0:0:0:
148,328,95759,5,0,0:0:0:0:
248,340,95925,1,8,0:0:0:0:
332,284,96092,1,0,0:0:0:0:
328,184,96259,2,0,B|268:104,1,100
196,172,96592,2,0,B|256:252,1,100,8|0,0:0|0:0,0:0:0:0:
328,184,96925,5,12,0:0:0:0:
64,40,97425,1,8,0:0:0:0:
192,312,97925,1,8,0:0:0:0:
196,112,98259,5,4,0:0:0:0:
256,64,108925,6,0,B|304:52|360:60,1,100,4|0,0:0|0:0,0:0:0:0:
428,128,109259,1,2,0:0:0:0:
396,224,109425,1,0,0:0:0:0:
308,272,109592,2,0,B|264:248|256:192,1,100,2|0,0:0|0:0,0:0:0:0:
204,272,109925,2,0,B|248:248|256:192,1,100
188,116,110259,5,2,0:0:0:0:
88,116,110425,1,0,0:0:0:0:
24,192,110592,1,0,0:0:0:0:
56,288,110759,1,2,0:0:0:0:
152,320,110925,2,0,B|200:324|256:300|276:248|256:192,1,200,0|2,0:0|0:0,0:0:0:0:
128,36,111592,6,0,B|32:64,1,100,2|0,0:0|0:0,0:0:0:0:
64,160,111925,2,0,B|152:208,1,100
448,224,112259,2,0,B|360:176,1,100,2|0,0:0|0:0,0:0:0:0:
384,348,112592,2,0,B|480:320,1,100
448,224,112925,5,2,0:0:0:0:
360,176,113092,1,0,0:0:0:0:
256,192,113259,2,0,B|256:292,1,100,2|0,0:0|0:0,0:0:0:0:
152,308,113592,2,0,B|152:208,1,100,2|0,0:0|0:0,0:0:0:0:
360,76,113925,2,0,B|360:176,1,100,2|0,0:0|0:0,0:0:0:0:
256,192,114259,6,0,B|208:176|180:132,1,100,2|0,0:0|0:0,0:0:0:0:
180,32,114592,2,0,B|228:48|256:92,1,100
256,192,114925,1,2,0:0:0:0:
172,244,115092,1,0,0:0:0:0:
72,224,115259,1,0,0:0:0:0:
24,136,115425,1,0,0:0:0:0:
84,56,115592,6,0,B|180:32,1,100,2|0,0:0|0:0,0:0:0:0:
428,56,115925,2,0,B|332:32,1,100,0|2,0:0|0:0,0:0:0:0:
24,136,116259,2,0,B|114:95,1,100
256,96,116592,2,0,B|288:136|280:196|248:236|184:244,1,200,2|2,0:0|0:0,0:0:0:0:
84,236,117092,5,2,0:0:0:0:
40,144,117259,1,0,0:0:0:0:
84,56,117425,1,2,0:0:0:0:
180,32,117592,2,0,B|256:96,1,100
332,352,117925,2,0,B|256:288,1,100,2|0,0:0|0:0,0:0:0:0:
224,192,118259,5,2,0:0:0:0:
256,96,118425,1,0,0:0:0:0:
344,52,118592,1,0,0:0:0:0:
444,68,118759,1,2,0:0:0:0:
480,160,118925,1,0,0:0:0:0:
480,160,119009,1,0,0:0:0:0:
480,160,119092,2,0,B|456:208|404:220,1,100,0|8,0:0|0:0,0:0:0:0:
316,176,119425,1,0,0:0:0:0:
256,96,119592,6,0,B|222:61|167:45|118:62|79:103,1,200,4|8,0:0|0:0,0:0:0:0:
256,192,120592,1,0,0:0:0:0:
433,279,120925,6,0,B|393:321|344:338|289:322|256:288,1,200,0|8,0:0|0:0,0:0:0:0:
364,120,121925,1,0,0:0:0:0:
172,64,122259,6,0,B|120:56|72:88|48:140|56:192,1,200,0|8,0:0|0:0,0:0:0:0:
256,192,123259,1,0,0:0:0:0:
172,320,123592,6,0,B|120:328|72:296|48:244|56:192,2,200,4|8|4,0:0|0:0|0:0,0:0:0:0:
256,140,125259,1,0,0:0:0:0:
340,320,125592,6,0,B|392:328|440:296|464:244|456:192,2,200,8|0|8,0:0|0:0|0:0,0:0:0:0:
256,32,127592,5,4,0:0:0:0:
256,40,128259,1,8,0:0:0:0:
256,136,128925,5,4,0:0:0:0:
256,144,129259,1,0,0:0:0:0:
256,248,129592,5,4,0:0:0:0:
256,256,129759,1,0,0:0:0:0:
256,344,129925,5,4,0:0:0:0:
256,348,130009,1,0,0:0:0:0:
256,352,130092,1,0,0:0:0:0:
256,356,130175,1,0,0:0:0:0:
256,360,130259,6,0,B|304:376|352:348,1,100,4|0,0:0|0:0,0:0:0:0:
416,272,130592,1,8,0:0:0:0:
400,172,130759,1,0,0:0:0:0:
340,92,130925,2,0,B|240:92,1,100
172,292,131259,2,0,B|272:292,1,100,8|0,0:0|0:0,0:0:0:0:
256,192,131592,6,0,B|211:165|155:165|111:196|85:244,1,200,0|8,0:0|0:0,0:0:0:0:
172,292,132092,2,0,B|172:92,1,200
85,140,132592,2,0,B|111:187|155:218|211:218|256:192,2,200,8|0|8,0:0|0:0|0:0,0:0:0:0:
120,44,133425,1,0,0:0:0:0:
216,20,133592,2,0,B|216:120,1,100
296,364,133925,6,0,B|296:264,1,100,8|0,0:0|0:0,0:0:0:0:
256,172,134259,2,0,B|200:156|148:180|124:224|128:280,1,200,0|8,0:0|0:0,0:0:0:0:
208,344,134759,2,0,B|268:332|292:296|316:260|384:252,1,200
460,192,135259,2,0,B|464:136|436:88|380:72|328:84,2,200,8|4|8,0:0|0:0|0:0,0:0:0:0:
256,192,136259,5,0,0:0:0:0:
176,136,136425,1,0,0:0:0:0:
156,36,136592,2,0,B|256:36,1,100,8|0,0:0|0:0,0:0:0:0:
356,36,136925,2,0,B|256:36,1,100
156,36,137259,2,0,B|112:68|96:120|104:172|144:212,1,200,8|0,0:0|0:0,0:0:0:0:
240,240,137759,5,0,0:0:0:0:
320,184,137925,2,0,B|320:84,1,100,8|0,0:0|0:0,0:0:0:0:
192,84,138259,2,0,B|192:184,1,100,4|0,0:0|0:0,0:0:0:0:
316,268,138592,2,0,B|412:232,1,100,8|0,0:0|0:0,0:0:0:0:
348,96,138925,2,0,B|256:60,1,100
108,96,139259,2,0,B|140:192,1,100,8|0,0:0|0:0,0:0:0:0:
288,192,139592,6,0,B|332:212|396:200|432:148|424:96,1,200,0|8,0:0|0:0,0:0:0:0:
356,24,140092,2,0,B|156:24,1,200
60,52,140592,1,8,0:0:0:0:
40,148,140759,1,0,0:0:0:0:
108,220,140925,6,0,B|160:236|216:216|240:160|216:104,1,200,4|8,0:0|0:0,0:0:0:0:
404,220,141425,2,0,B|352:236|296:216|272:160|296:104,1,200
368,40,141925,1,8,0:0:0:0:
464,64,142092,1,0,0:0:0:0:
496,160,142259,6,0,B|472:256,1,100
272,256,142592,2,0,B|296:160,1,100,8|0,0:0|0:0,0:0:0:0:
396,160,142925,2,0,B|372:256,1,100
172,256,143259,2,0,B|196:160,1,100,8|0,0:0|0:0,0:0:0:0:
272,256,143592,6,0,B|264:308|224:356|172:364|124:344,1,200,4|8,0:0|0:0,0:0:0:0:
24,171,144092,2,0,B|72:148|124:156|164:204|172:255,1,200
71,255,144592,2,0,B|80:204|120:156|172:148|219:171,1,200,8|0,0:0|0:0,0:0:0:0:
272,256,145092,5,0,0:0:0:0:
356,308,145259,1,8,0:0:0:0:
456,292,145425,1,0,0:0:0:0:
496,200,145592,2,0,B|492:152|452:112,1,100
290,185,145925,2,0,B|344:208|388:188,1,100,8|0,0:0|0:0,0:0:0:0:
400,23,146259,6,0,B|348:48|344:100,1,100,4|0,0:0|0:0,0:0:0:0:
388,188,146592,1,8,0:0:0:0:
344,280,146759,1,0,0:0:0:0:
256,324,146925,2,0,B|204:304|188:256,1,100
192,123,147259,2,0,B|144:140|124:192,1,100,8|0,0:0|0:0,0:0:0:0:
324,128,147592,2,0,B|308:80|256:60,1,100
319,260,147926,2,0,B|368:244|388:192,1,100,8|0,0:0|0:0,0:0:0:0:
324,128,148259,5,0,0:0:0:0:
192,124,148425,1,0,0:0:0:0:
188,256,148592,1,8,0:0:0:0:
320,260,148758,1,0,0:0:0:0:
256,192,148925,5,4,0:0:0:0:
256,192,149092,12,4,150259,0:0:0:0:
256,192,150592,6,0,B|256:292,1,100,8|4,0:0|0:0,0:0:0:0:
156,352,150925,1,0,0:0:0:0:
132,348,151009,1,0,0:0:0:0:
108,344,151092,1,8,0:0:0:0:
84,340,151175,1,0,0:0:0:0:
60,336,151259,2,0,B|32:284|52:236,1,100,4|0,0:0|0:0,0:0:0:0:
175,135,151592,6,0,B|188:196|152:228,1,100,4|0,0:0|0:0,0:0:0:0:
52,240,151925,1,8,0:0:0:0:
20,144,152092,2,0,B|18:88|48:42|111:24|156:39,1,200
335,136,152592,2,0,B|304:192|256:200|208:192|176:136,1,200,8|4,0:0|0:0,0:0:0:0:
256,72,153092,5,0,0:0:0:0:
336,136,153259,1,8,0:0:0:0:
340,236,153425,1,0,0:0:0:0:
256,292,153592,2,0,B|204:292|172:248,1,100
184,128,153925,2,0,B|236:140|256:192,1,100,8|0,0:0|0:0,0:0:0:0:
172,248,154259,6,0,B|112:248|68:208|68:152|108:108,1,200,4|8,0:0|0:0,0:0:0:0:
304,94,154759,2,0,B|308:152|276:196|220:208|168:188,1,200
204,92,155259,2,0,B|316:260,2,200,8|4|8,0:0|0:0|0:0,0:0:0:0:
120,144,156092,2,0,B|115:199|166:224|166:224|149:276|209:305,1,200,4|8,0:0|0:0,0:0:0:0:
392,144,156592,2,0,B|396:199|345:224|345:224|362:276|302:305,1,200,4|4,0:0|0:0,0:0:0:0:
256,216,157092,5,0,0:0:0:0:
280,120,157259,1,8,0:0:0:0:
364,64,157425,2,0,B|412:56|472:84|484:152|456:196,1,200
148,64,157925,2,0,B|100:56|40:84|28:152|56:196,1,200,8|4,0:0|0:0,0:0:0:0:
256,216,158592,5,8,0:0:0:0:
256,220,158925,1,0,0:0:0:0:
256,224,159259,1,8,0:0:0:0:
256,192,159592,12,0,161925,0:0:0:0:
256,384,162259,6,0,B|308:360|316:308,1,100,4|0,0:0|0:0,0:0:0:0:
196,157,162592,2,0,B|204:208|256:232,1,100,8|0,0:0|0:0,0:0:0:0:
356,220,162925,1,0,0:0:0:0:
436,160,163092,1,0,0:0:0:0:
440,60,163259,1,8,0:0:0:0:
352,12,163425,1,0,0:0:0:0:
256,40,163592,6,2,B|224:96|160:108|104:68|72:132|64:192|108:232,1,300,4|2,0:0|0:0,0:0:0:0:
256,364,164925,6,0,B|312:372|348:336,1,100,4|0,0:0|0:0,0:0:0:0:
164,264,165259,2,0,B|200:299|256:292,1,100,8|0,0:0|0:0,0:0:0:0:
119,162,165592,2,0,B|153:207|204:208,1,100
126,27,165926,2,0,B|126:78|172:112,1,100,8|0,0:0|0:0,0:0:0:0:
256,164,166259,6,0,B|308:176,3,50,6|0|0|0,0:0|0:0|0:0|0:0,0:0:0:0:
356,176,166592,2,0,B|400:152,3,50,2|0|0|0,0:0|0:0|0:0|0:0,0:0:0:0:
428,108,166925,2,0,B|448:64,3,50,2|0|0|0,0:0|0:0|0:0|0:0,0:0:0:0:
436,12,167259,6,2,B|388:0|336:16|296:56|300:116,1,200,2|4,0:0|0:0,0:0:0:0:
300,216,167759,1,0,0:0:0:0:
232,288,167925,1,8,0:0:0:0:
132,276,168092,1,0,0:0:0:0:
68,200,168259,2,0,B|64:148|104:108,1,100
268,159,168592,2,0,B|232:196|176:180,1,100,8|0,0:0|0:0,0:0:0:0:
172,80,168925,6,4,B|208:44|256:28|320:32|356:60|396:104|404:160|384:220|336:260,1,400,4|4,0:0|0:0,0:0:0:0:
240,280,170425,5,0,0:0:0:0:
148,244,170592,2,0,B|148:196|196:160,1,100,8|0,0:0|0:0,0:0:0:0:
303,127,170925,2,0,B|324:184|280:216,1,100
148,244,171259,2,0,B|100:232|76:180,1,100,8|0,0:0|0:0,0:0:0:0:
88,80,171592,2,0,B|123:36|178:21|235:42|256:90,1,200,0|8,0:0|0:0,0:0:0:0:
232,188,172092,5,0,0:0:0:0:
148,244,172259,1,8,0:0:0:0:
172,340,172425,1,8,0:0:0:0:
272,348,172592,1,8,0:0:0:0:
296,344,172675,1,8,0:0:0:0:
320,332,172759,1,8,0:0:0:0:
336,312,172842,1,8,0:0:0:0:
344,288,172925,6,0,B|356:236|312:200,1,100,4|0,0:0|0:0,0:0:0:0:
147,243,173259,2,0,B|184:280|240:268,1,100,8|0,0:0|0:0,0:0:0:0:
312,200,173592,2,0,B|256:116,1,100
156,124,173925,2,0,B|212:208,1,100,8|0,0:0|0:0,0:0:0:0:
312,200,174259,6,0,B|360:216|424:208|460:152|452:104,1,200,0|8,0:0|0:0,0:0:0:0:
264,87,174759,2,0,B|295:130|352:120,1,100
352,120,175009,1,8,0:0:0:0:
352,120,175092,1,0,0:0:0:0:
452,108,175259,6,0,B|472:152|472:204|444:252|384:272,1,200,8|0,0:0|0:0,0:0:0:0:
288,280,175759,1,0,0:0:0:0:
208,224,175925,2,0,B|208:124,1,100,8|0,0:0|0:0,0:0:0:0:
116,88,176259,2,0,B|116:188,1,100
120,288,176592,2,0,B|140:340|180:368|244:368|288:348,2,200,8|0|8,0:0|0:0|0:0,0:0:0:0:
116,188,177425,2,0,B|216:188,1,100
216,188,177675,1,8,0:0:0:0:
216,188,177759,1,0,0:0:0:0:
308,148,177925,2,0,B|256:64,1,100,8|0,0:0|0:0,0:0:0:0:
156,72,178259,6,0,B|112:96,3,50,6|0|0|0,0:0|0:0|0:0|0:0,0:0:0:0:
80,136,178592,2,0,B|68:184,3,50,2|0|0|0,0:0|0:0|0:0|0:0,0:0:0:0:
84,232,178925,2,0,B|112:272,3,50,2|0|0|0,0:0|0:0|0:0|0:0,0:0:0:0:
160,292,179259,2,0,B|208:280,3,50,2|0|0|0,0:0|0:0|0:0|0:0,0:0:0:0:
244,244,179592,6,0,B|256:196,7,50,2|0|0|0|0|0|0|0,0:0|0:0|0:0|0:0|0:0|0:0|0:0|0:0,0:0:0:0:
256,144,180259,2,0,B|236:100,7,50,2|0|0|0|0|0|0|0,0:0|0:0|0:0|0:0|0:0|0:0|0:0|0:0,0:0:0:0:
200,64,180925,6,0,B|152:48,16,50,2|0|0|0|0|0|0|0|0|0|0|0|0|0|0|0|4,0:0|0:0|0:0|0:0|0:0|0:0|0:0|0:0|0:0|0:0|0:0|0:0|0:0|0:0|0:0|0:0|0:0,0:0:0:0:
256,192,182342,12,0,184259,0:0:0:0:
116,336,184925,6,0,B|148:372|204:376|256:356|296:312|288:244|256:192,1,300
108,192,186259,1,0,0:0:0:0:
256,24,186759,1,0,0:0:0:0:
404,192,187259,1,0,0:0:0:0:
256,192,187592,2,0,B|196:212|176:264|196:316|256:336,1,200
404,340,188592,5,0,0:0:0:0:
404,192,188925,2,0,B|380:145|327:133|274:116|256:64,1,200
256,216,189925,1,0,0:0:0:0:
255,64,190259,2,0,B|237:116|184:133|131:145|108:192,2,200
256,364,192259,5,0,0:0:0:0:
112,324,192592,1,0,0:0:0:0:
44,192,192925,2,0,B|44:140|76:92|132:68|180:80,2,200
256,192,194592,1,0,0:0:0:0:
256,192,194759,2,0,B|404:192,1,150
324,76,195592,6,0,B|284:48|224:44|176:68|144:108,1,200
256,192,196592,1,0,0:0:0:0:
324,308,196925,2,0,B|284:336|224:340|176:316|144:276,1,200
256,192,197925,1,0,0:0:0:0:
116,192,198259,6,0,B|80:156|84:92|112:44|164:24,2,200
256,192,199925,1,0,0:0:0:0:
396,192,200259,2,0,B|432:228|428:292|400:340|348:360,2,200
220,104,202259,6,0,B|144:80|108:168|164:252|256:306|256:306|348:252|404:168|368:80|292:104,1,599.999982118607,0|4,0:0|0:0,0:0:0:0:
256,192,204592,5,0,0:0:0:0:
256,200,204925,5,4,0:0:0:0:
256,208,205425,5,4,0:0:0:0:
256,216,205925,5,4,0:0:0:0:
256,224,206092,5,0,0:0:0:0:
256,228,206175,1,0,0:0:0:0:
256,232,206259,2,0,B|296:264|352:256,1,100,4|0,0:0|0:0,0:0:0:0:
436,204,206592,1,8,0:0:0:0:
396,112,206759,1,0,0:0:0:0:
304,72,206925,2,0,B|204:72,1,100
156,160,207259,2,0,B|256:160,1,100,8|0,0:0|0:0,0:0:0:0:
324,232,207592,6,0,B|340:284|324:340|276:368|220:364,1,200,0|8,0:0|0:0,0:0:0:0:
33,254,208092,2,0,B|68:220|124:208|176:224|212:264,1,200
132,324,208592,2,0,B|97:289|85:233|101:181|141:145,2,200,8|0|8,0:0|0:0|0:0,0:0:0:0:
332,320,209592,1,0,0:0:0:0:
408,256,209759,1,0,0:0:0:0:
396,156,209925,6,0,B|300:128,1,100,8|0,0:0|0:0,0:0:0:0:
128,115,210259,2,0,B|120:176|148:216|208:236|256:220,1,200,0|8,0:0|0:0,0:0:0:0:
389,82,210759,2,0,B|348:56|288:56|240:84|216:128,1,200
256,220,211259,2,0,B|264:272|240:316|184:340|128:332,2,200,8|4|8,0:0|0:0|0:0,0:0:0:0:
56,192,212259,5,0,0:0:0:0:
68,92,212425,1,0,0:0:0:0:
156,44,212592,2,0,B|256:44,1,100,8|0,0:0|0:0,0:0:0:0:
356,124,212925,2,0,B|256:124,1,100
156,208,213259,2,0,B|154:257|191:301|250:314|302:291,1,200,8|0,0:0|0:0,0:0:0:0:
372,224,213759,5,0,0:0:0:0:
356,124,213925,2,0,B|344:76|288:44|232:52|192:88,2,200,8|4|8,0:0|0:0|0:0,0:0:0:0:
256,296,214925,1,0,0:0:0:0:
164,260,215092,1,0,0:0:0:0:
136,164,215259,1,8,0:0:0:0:
332,192,215592,6,0,B|384:206|437:177|460:125|440:72,1,200,0|8,0:0|0:0,0:0:0:0:
204,14,216092,2,0,B|204:72|240:108|300:124|348:108,1,200
440,72,216592,2,0,B|436:272,1,200,8|4,0:0|0:0,0:0:0:0:
356,332,217092,5,0,0:0:0:0:
256,316,217259,2,0,B|256:216,1,100,8|0,0:0|0:0,0:0:0:0:
176,156,217592,2,0,B|176:256,1,100
84,212,217925,2,0,B|48:172|52:116|76:68|132:48,1,200,8|0,0:0|0:0,0:0:0:0:
228,32,218425,5,0,0:0:0:0:
304,96,218592,1,8,0:0:0:0:
284,192,218759,2,0,B|232:172|192:132|200:76|228:32,1,200
304,96,219259,2,0,B|356:116|396:156|388:212|360:256,1,200,8|4,0:0|0:0,0:0:0:0:
268,300,219759,5,0,0:0:0:0:
180,252,219925,1,8,0:0:0:0:
140,160,220092,2,0,B|156:108|200:80|256:72|304:96,1,200
256,184,220592,2,0,B|204:168|176:124|168:68|192:20,2,200,8|0|8,0:0|0:0|0:0,0:0:0:0:
356,184,221425,1,0,0:0:0:0:
420,108,221592,2,0,B|348:40,1,100
256,184,221925,2,0,B|328:252,1,100,8|0,0:0|0:0,0:0:0:0:
192,360,222259,6,0,B|137:372|83:335|75:280|96:230,1,200,4|8,0:0|0:0,0:0:0:0:
156,152,222759,1,0,0:0:0:0:
252,124,222925,2,0,B|300:156|296:208,1,100
216,268,223259,2,0,B|168:284|124:244,1,100,8|0,0:0|0:0,0:0:0:0:
64,164,223592,6,0,B|32:113|37:59|67:7|122:-24|184:-17|233:17|259:65|251:124,2,400,0|0|4,0:0|0:0|0:0,0:0:0:0:
256,224,225259,1,8,0:0:0:0:
448,164,225592,1,0,0:0:0:0:
256,224,225925,5,8,0:0:0:0:
64,164,226259,2,0,B|52:216|76:264|136:284|192:264,1,200,4|8,0:0|0:0,0:0:0:0:
448,164,226759,2,0,B|460:216|436:264|376:284|320:264,1,200,4|8,0:0|0:0,0:0:0:0:
256,192,227259,6,0,B|224:128|256:96|288:64|256:0,2,200,4|4|8,0:0|0:0|0:0,0:0:0:0:
324,264,228092,1,0,0:0:0:0:
416,224,228259,2,0,B|348:152,1,100
231,40,228592,6,0,B|184:68|168:128|204:184|256:192,2,200,8|4|8,0:0|0:0|0:0,0:0:0:0:
332,36,229425,5,0,0:0:0:0:
420,80,229592,2,0,B|440:176,1,100
340,192,229925,2,0,B|319:94,1,100,8|0,0:0|0:0,0:0:0:0:
248,164,230259,6,0,B|236:216|248:264|300:296|360:292,1,200,4|8,0:0|0:0,0:0:0:0:
340,192,230759,1,0,0:0:0:0:
268,260,230925,2,0,B|224:292|164:292|124:248|116:196,2,200,0|8|4,0:0|0:0|0:0,0:0:0:0:
256,60,231925,5,8,0:0:0:0:
256,60,232092,1,4,0:0:0:0:
104,192,232425,5,8,0:0:0:0:
104,192,232592,1,4,0:0:0:0:
256,324,232925,6,0,B|304:332|352:304|372:244|348:188,1,200,4|8,0:0|0:0,0:0:0:0:
256,324,233425,2,0,B|208:332|160:304|140:244|164:188,1,200
256,232,233925,2,0,B|232:280|180:304|128:292|84:256,2,200,8|4|8,0:0|0:0|0:0,0:0:0:0:
256,132,234759,2,0,B|296:92|348:80|400:100|428:144,1,200
256,132,235259,6,0,B|216:92|164:80|112:100|84:144,2,200,8|4|8,0:0|0:0|0:0,0:0:0:0:
256,232,236092,1,0,0:0:0:0:
188,308,236259,2,0,B|100:352,1,100
116,256,236592,2,0,B|20:280,1,100,8|0,0:0|0:0,0:0:0:0:
16,180,236925,2,0,B|52:84,1,100,4|0,0:0|0:0,0:0:0:0:
100,176,237259,2,0,B|168:104,1,100,8|0,0:0|0:0,0:0:0:0:
256,56,237592,5,0,0:0:0:0:
256,56,237675,1,8,0:0:0:0:
256,56,237759,2,0,B|300:88|304:140,1,100,0|8,0:0|0:0,0:0:0:0:
256,228,238092,5,8,0:0:0:0:
256,228,238175,1,8,0:0:0:0:
256,228,238259,2,0,B|216:260|160:256,1,100,4|0,0:0|0:0,0:0:0:0:
100,176,238592,1,8,0:0:0:0:
160,96,238759,1,0,0:0:0:0:
256,128,238925,2,0,B|312:140|348:103,1,100
440,56,239259,2,0,B|488:68|512:120,1,100,8|0,0:0|0:0,0:0:0:0:
492,220,239592,6,0,B|460:256|400:272|348:260|312:216,1,200,0|8,0:0|0:0,0:0:0:0:
400,168,240092,2,0,B|404:368,1,200
304,380,240592,2,0,B|256:376|208:332|204:276|228:228,1,200,8|0,0:0|0:0,0:0:0:0:
296,156,241092,5,0,0:0:0:0:
256,64,241259,1,8,0:0:0:0:
160,40,241425,1,0,0:0:0:0:
80,100,241592,2,0,B|80:200,1,100
228,228,241925,2,0,B|228:128,1,100,8|0,0:0|0:0,0:0:0:0:
324,92,242259,5,0,0:0:0:0:
408,144,242425,1,0,0:0:0:0:
408,144,242509,1,0,0:0:0:0:
408,144,242592,2,0,B|424:196|388:236,1,100,8|0,0:0|0:0,0:0:0:0:
227,228,242925,2,0,B|252:184|308:176,1,100
388,236,243259,6,0,B|392:288|364:340|312:352|256:332,1,200,8|4,0:0|0:0,0:0:0:0:
172,280,243759,1,0,0:0:0:0:
168,180,243925,2,0,B|184:132|232:108,1,100,8|0,0:0|0:0,0:0:0:0:
256,204,244259,2,0,B|256:304,1,100
164,348,244592,5,8,0:0:0:0:
76,296,244759,1,0,0:0:0:0:
64,196,244925,1,0,0:0:0:0:
112,108,245092,1,0,0:0:0:0:
112,108,245175,1,0,0:0:0:0:
112,108,245259,2,0,B|212:108,1,100,8|0,0:0|0:0,0:0:0:0:
400,108,245592,2,0,B|300:108,1,100
256,200,245925,6,0,B|236:256|256:308|320:332|364:312,1,200,8|4,0:0|0:0,0:0:0:0:
448,256,246425,1,0,0:0:0:0:
484,164,246592,1,8,0:0:0:0:
400,108,246759,1,0,0:0:0:0:
296,108,246925,2,0,B|296:208,1,100
216,276,247259,2,0,B|216:176,1,100,8|0,0:0|0:0,0:0:0:0:
152,100,247592,5,0,0:0:0:0:
64,148,247759,1,0,0:0:0:0:
64,148,247842,1,0,0:0:0:0:
64,148,247925,2,0,B|64:248,1,100,8|0,0:0|0:0,0:0:0:0:
112,336,248259,1,0,0:0:0:0:
208,364,248425,1,8,0:0:0:0:
288,304,248592,1,4,0:0:0:0:
256,192,248675,12,0,252925,0:0:0:0:
