osu file format v5

[General]
AudioFilename: Yousei Teikoku - Senketsu no Chikai.mp3
AudioLeadIn: 0
PreviewTime: -1
Countdown: 3
SampleSet: Normal
StackLeniency: 0.7
Mode: 0
LetterboxInBreaks: 1
EditorDistanceSpacing: 1

[Metadata]
Title:Senketsu no Chikai
Artist:Yousei Teikoku
Creator:RaptorRed
Version:Pachira Normal
Source:Renkin San-Kyuu Magical Pokaan (Magipoka)
Tags:

[Difficulty]
HPDrainRate:5
CircleSize:5
OverallDifficulty:5
SliderMultiplier:2.1
SliderTickRate:3

[Events]
//Background and Video events
0,0,"wp_02.jpg"
1,0,"Senketsu no Chikai.flv"
//Break Periods
2,45588,47499
2,56466,64400
2,87800,95733
2,110465,113066
2,130466,133066
2,161132,163732
2,170466,183734
//Storyboard Layer 0 (Background)
//Storyboard Layer 1 (Failing)
//Storyboard Layer 2 (Passing)
//Storyboard Layer 3 (Foreground)
//Storyboard Sound Samples
//Background Colour Transformations
3,100,0,0,0

[TimingPoints]
12934,662.326666666667,4,1,0,67,1,0
55600,666.666666666667,4,1,0,67,1,0
98266,666.666666666667,4,1,0,67,1,0
184267,666.666666666667,4,1,0,67,1,0
206267,666.666666666667,4,1,0,67,1,0
6138266,666.666666666667,4,1,0,67,1,0

[Colours]
Combo1 : 128,0,64
Combo2 : 0,0,255

[HitObjects]
160,160,12933,1,0
160,160,14258,1,0
160,160,15583,1,0
160,160,16907,1,0
160,160,18232,1,0
160,160,19557,1,0
160,160,20881,1,0
352,256,22206,1,0
448,224,22868,1,0
384,128,23531,1,0
224,128,24193,1,0
224,224,24855,1,0
224,256,25518,1,0
352,288,26842,1,0
96,256,28167,1,0
192,96,29492,1,0
384,128,30816,1,0
64,160,32141,1,0
352,288,33466,1,0
96,224,34790,1,0
320,352,36115,1,0
64,160,37440,1,0
352,160,38764,1,0
224,288,40089,1,0
160,224,41414,1,0
384,352,42738,1,0
352,352,43401,1,0
288,64,44725,1,0
352,256,45388,1,0
32,288,48699,5,0
352,320,50024,1,0
96,128,51348,1,0
384,96,53335,1,0
384,320,54660,1,0
320,256,55322,1,4
320,320,55600,1,0
128,256,56266,1,0
224,160,65600,5,0
224,160,67600,1,0
224,160,68933,1,0
224,160,70933,1,0
224,160,72933,1,0
224,160,75600,1,0
384,224,76933,1,0
320,224,77600,1,0
256,224,78266,1,0
192,224,78933,1,0
128,224,79600,1,0
64,224,80266,1,0
64,288,80933,1,0
128,288,81600,1,0
192,288,82266,1,0
416,288,83600,1,0
352,288,84266,1,0
288,288,84933,1,0
288,224,86266,1,0
288,224,87600,1,0
256,224,96933,5,0
256,224,97600,1,0
256,224,98266,1,0
256,224,98932,1,0
352,160,99599,1,0
128,96,100932,1,0
352,256,102266,1,0
96,160,103599,1,0
224,352,104932,1,0
224,192,106266,1,0
384,192,107599,1,0
96,128,108932,2,0,B|256:256|384:288|448:160|384:96,1,420
160,160,114266,5,0
256,256,114932,1,0
288,352,115599,1,0
224,288,116266,1,0
352,256,116932,1,0
96,128,118266,1,0
192,256,119599,1,0
320,160,120932,1,0
416,288,122266,1,0
128,160,123599,1,0
128,320,124932,1,0
384,192,126266,1,0
96,288,127599,1,0
192,160,128932,1,0
64,96,130266,1,4
256,192,134266,12,0,136266
64,160,137599,5,0
192,192,138266,1,0
256,224,138932,1,0
384,224,140266,1,0
128,224,141599,1,0
384,160,142932,1,0
160,224,144266,1,0
320,224,145599,1,0
320,128,146932,1,0
160,192,148266,1,0
192,288,149599,1,0
352,224,150932,1,0
224,160,152266,1,0
64,256,153599,1,0
288,160,154932,1,0
384,288,156266,1,0
96,160,156932,1,0
192,256,158266,1,0
320,288,158932,1,0
352,288,159599,1,0
32,128,160932,1,4
416,128,164932,5,4
384,128,165599,1,4
352,128,168266,1,0
352,160,168932,1,0
352,160,169599,1,0
32,64,184267,6,0,B|384:288,1,280
256,192,187600,12,0,188933
256,160,190933,5,0
352,160,191600,1,0
352,160,192267,1,0
128,288,192933,1,0
288,288,194267,1,0
64,160,195600,1,0
320,224,196933,1,0
352,192,198267,1,0
384,128,199600,1,0
128,160,200933,1,0
160,224,201600,1,0
224,192,202267,1,0
256,288,202933,1,0
352,192,203600,1,0
128,96,204933,1,0
64,384,206933,2,0,B|64:32|64:32|160:32|160:32|160:160|96:160|96:160|256:320|256:320|288:352,1,840
320,256,212933,1,2
288,224,213600,1,0
160,160,214267,1,0
352,192,214933,1,0
256,64,215600,1,0
96,128,216267,1,0
160,288,216933,1,0
352,128,218267,1,0
160,96,219600,1,0
320,192,220933,1,0
384,160,222267,1,0
192,128,223600,1,0
160,160,224933,1,0
224,192,226267,1,0
128,256,227600,1,0
416,224,228933,1,0
256,64,230267,1,0
64,192,231600,1,0
320,192,232933,1,0
128,160,234267,1,0
256,160,234933,1,0
224,256,235600,1,0
64,192,236933,1,0
73,343,237600,2,4,B|71:245|71:245|80:29|80:29|187:26|187:26|229:87|229:87|193:127|193:127|76:124|76:125|76:125|246:343|246:343|258:129|258:129|258:47|258:47|323:5|323:5|404:6|404:6|416:37|416:37|394:94|394:94|365:138|365:138|319:157|319:157|281:161|281:161|327:239|327:239|373:318|373:318|415:389,1,1890
256,160,244933,5,0
384,256,245600,1,0
224,160,247600,2,0,B|480:256|544:128,1,280
160,160,251600,1,4
