osu file format v13

[General]
AudioFilename: 01 - Senketsu no Chikai.mp3
AudioLeadIn: 0
PreviewTime: 130283
Countdown: 2
SampleSet: Soft
StackLeniency: 0.5
Mode: 2
LetterboxInBreaks: 0
EpilepsyWarning: 1
WidescreenStoryboard: 1

[Editor]
Bookmarks: 248616
DistanceSpacing: 2
BeatDivisor: 4
GridSize: 4
TimelineZoom: 1.3

[Metadata]
Title:Senketsu no Chikai
TitleUnicode:鮮血の誓い
Artist:Yousei Teikoku
ArtistUnicode:妖精帝國
Creator:Kitokofox
Version:Rain
Source:Renkin Sankyuu Magical Pokaan
Tags:Magipoka
BeatmapID:527101
BeatmapSetID:225954

[Difficulty]
HPDrainRate:5
CircleSize:3.3
OverallDifficulty:8.7
ApproachRate:8.7
SliderMultiplier:1.75
SliderTickRate:2

[Events]
//Background and Video events
0,0,"BG01.jpg",0,0
//Break Periods
//Storyboard Layer 0 (Background)
//Storyboard Layer 1 (Fail)
//Storyboard Layer 2 (Pass)
//Storyboard Layer 3 (Foreground)
//Storyboard Sound Samples
//Background Colour Transformations
3,100,51,51,51

[TimingPoints]
950,333.333333333333,4,2,1,25,1,0
5033,-200,4,2,1,25,0,0
12449,-200,4,2,1,50,0,0
12616,-200,4,2,1,60,0,0
12783,-200,4,2,1,70,0,0
12949,-66.6666666666667,4,2,1,80,0,0
17949,-100,4,2,1,80,0,0
20949,-66.6666666666667,4,2,1,80,0,0
22283,-50,4,3,1,100,0,0
23616,-100,4,2,1,50,0,0
34199,-66.6666666666667,4,2,1,65,0,0
40949,-100,4,2,1,65,0,0
43949,-100,4,2,1,40,0,0
44283,-100,4,2,1,50,0,0
44616,-100,4,2,1,60,0,0
44949,-100,4,2,1,70,0,0
48949,-80,4,2,1,70,0,0
49283,-66.6666666666667,4,2,1,70,0,0
49616,-57.1428571428571,4,2,1,70,0,0
49949,-50,4,2,1,70,0,0
50283,-100,4,2,1,70,0,0
54283,-66.6666666666667,4,2,1,75,0,0
54949,-100,4,2,1,85,0,0
55616,-50,4,2,1,100,0,1
87616,-66.6666666666667,4,2,1,80,0,0
96949,-66.6666666666667,4,2,1,100,0,0
98283,-100,4,2,1,40,0,0
108949,-66.6666666666667,4,2,1,70,0,0
119616,-100,4,2,1,80,0,0
130283,-50,4,2,1,100,0,1
159616,-66.6666666666667,4,2,1,80,0,0
179949,-50,4,2,1,80,0,0
182283,-133.333333333333,4,2,1,60,0,0
182616,-133.333333333333,4,2,1,50,0,0
182949,-133.333333333333,4,2,1,40,0,0
183283,-133.333333333333,4,2,1,30,0,0
183616,-133.333333333333,4,2,1,20,0,0
183949,-133.333333333333,4,2,1,10,0,0
184116,-133.333333333333,4,2,1,5,0,0
184613,-133.333333333333,4,2,1,15,0,0
200949,-100,4,2,1,40,0,0
202283,-100,4,2,1,60,0,0
203616,-100,4,2,1,80,0,0
206283,-50,4,2,1,100,0,1
238283,-66.6666666666667,4,2,1,100,0,0
247616,-100,4,2,1,100,0,0
248949,-100,4,2,1,80,0,0
250283,-100,4,2,1,70,0,0
250616,-100,4,2,1,60,0,0
250949,-100,4,2,1,50,0,0
251283,-100,4,2,1,40,0,0
251616,-100,4,2,1,30,0,0
251949,-100,4,2,1,20,0,0
252283,-100,4,2,1,10,0,0
252616,-100,4,2,1,5,0,0

[Colours]
Combo1 : 255,255,102
Combo2 : 91,255,91
Combo3 : 255,108,182
Combo4 : 169,83,255

[HitObjects]
44,340,949,6,0,B|44:36|44:36|44:232|44:232|44:32|44:32,1,700
100,192,2783,1,0,0:0:0:0:
256,192,3283,1,0,0:0:0:0:
468,340,3616,6,0,B|468:36|468:36|468:232|468:232|468:32|468:32,1,700
184,192,5449,1,0,0:0:0:0:
384,192,5949,1,0,0:0:0:0:
184,192,6283,6,0,L|484:192,1,300
256,192,8283,1,0,0:0:0:0:
336,192,8616,1,0,0:0:0:0:
176,192,8949,6,0,L|140:112,1,87.5
336,192,9616,2,0,L|372:112,1,87.5
96,192,10283,6,0,L|60:112,1,87.5
416,192,10949,2,0,L|452:112,1,87.5
256,192,12449,5,0,0:0:0:0:
156,192,12616,1,0,0:0:0:0:
232,192,12699,1,0,0:0:0:0:
308,192,12783,1,0,0:0:0:0:
384,192,12866,1,0,0:0:0:0:
48,192,12949,6,0,L|68:60,1,131.25000500679
256,192,13283,2,0,L|256:60,1,131.25000500679
444,192,13616,2,0,L|464:60,1,131.25000500679
304,192,13949,1,0,0:0:0:0:
356,192,14116,1,0,0:0:0:0:
48,192,14283,5,0,0:0:0:0:
200,196,14449,2,0,L|112:96,1,131.25000500679
444,192,14783,1,0,0:0:0:0:
296,192,14949,2,0,L|432:192,2,131.25000500679,0|0|0,0:0|0:0|0:0,0:0:0:0:
40,192,15449,1,0,0:0:0:0:
148,192,15616,6,0,L|228:88,1,131.25000500679
56,192,15949,2,0,L|56:56,1,131.25000500679
364,192,16283,2,0,L|284:88,1,131.25000500679
456,192,16616,2,0,L|456:56,1,131.25000500679
284,192,16949,5,0,0:0:0:0:
164,192,17116,1,0,0:0:0:0:
284,192,17283,1,0,0:0:0:0:
364,192,17449,1,0,0:0:0:0:
164,192,17616,1,0,0:0:0:0:
364,192,17783,1,0,0:0:0:0:
364,192,17949,1,0,0:0:0:0:
76,192,18116,1,0,0:0:0:0:
32,192,18283,6,0,L|120:192,1,87.5,0|0,0:0|0:0,0:0:0:0:
280,192,18616,2,0,L|368:192,1,87.5
156,192,18949,2,0,L|244:192,1,87.5,0|0,0:0|0:0,0:0:0:0:
404,192,19282,2,0,L|492:192,1,87.5
32,196,19616,6,0,L|64:112,2,87.5,0|0|0,0:0|0:0|0:0,0:0:0:0:
480,196,20116,2,0,L|448:112,2,87.5,0|0|0,0:0|0:0|0:0,0:0:0:0:
320,192,20616,1,0,0:0:0:0:
368,192,20783,1,0,0:0:0:0:
100,192,20949,6,0,L|168:76,1,131.25000500679
436,192,21283,2,0,L|316:136,1,131.25000500679
184,192,21616,2,0,L|132:68,1,131.25000500679
328,192,21949,2,0,L|460:192,1,131.25000500679
61,295,22283,6,0,B|291:173|291:173|429:99|351:-53|351:-53,2,525,0|0|0,0:0|0:0|0:0,0:0:0:0:
252,192,23616,6,0,L|360:52,1,175
88,192,24283,2,0,L|132:20,1,175
448,248,24949,6,0,L|288:168,1,175
56,240,25449,2,0,L|216:168,1,175
448,248,25949,1,0,0:0:0:0:
268,232,26283,5,0,0:0:0:0:
408,144,26616,1,0,0:0:0:0:
144,160,26949,1,0,0:0:0:0:
288,64,27116,1,0,0:0:0:0:
144,160,27283,1,0,0:0:0:0:
164,68,27616,6,0,L|112:236,1,175,0|0,0:0|0:0,0:0:0:0:
312,240,28116,1,0,0:0:0:0:
312,240,28449,1,0,0:0:0:0:
144,240,28616,2,0,L|68:80,1,175
276,96,29283,1,0,0:0:0:0:
456,100,29616,2,0,L|368:100,2,87.5,0|0|0,0:0|0:0|0:0,0:0:0:0:
200,92,30283,1,0,0:0:0:0:
136,192,30616,1,0,0:0:0:0:
456,188,30949,2,0,L|368:188,2,87.5,0|0|0,0:0|0:0|0:0,0:0:0:0:
