osu file format v14

[General]
AudioFilename: 01 - Senketsu no Chikai.mp3
AudioLeadIn: 0
PreviewTime: 130283
Countdown: 2
SampleSet: Soft
StackLeniency: 0.5
Mode: 2
LetterboxInBreaks: 0
EpilepsyWarning: 1
WidescreenStoryboard: 1

[Editor]
Bookmarks: 248616
DistanceSpacing: 2
BeatDivisor: 4
GridSize: 4
TimelineZoom: 1.3

[Metadata]
Title:Senketsu no Chikai
TitleUnicode:鮮血の誓い
Artist:Yousei Teikoku
ArtistUnicode:妖精帝國
Creator:Kitokofox
Version:Apocalypse
Source:Renkin Sankyuu Magical Pokaan
Tags:Magipoka
BeatmapID:527100
BeatmapSetID:225954

[Difficulty]
HPDrainRate:6.2
CircleSize:4
OverallDifficulty:9.3
ApproachRate:9.3
SliderMultiplier:1.75
SliderTickRate:2

[Events]
//Background and Video events
0,0,"BG01.jpg",0,0
//Break Periods
//Storyboard Layer 0 (Background)
//Storyboard Layer 1 (Fail)
//Storyboard Layer 2 (Pass)
//Storyboard Layer 3 (Foreground)
//Storyboard Sound Samples

[TimingPoints]
950,333.333333333333,4,2,1,25,1,0
5033,-200,4,2,1,25,0,0
12449,-200,4,2,1,50,0,0
12616,-200,4,2,1,60,0,0
12783,-200,4,2,1,70,0,0
12949,-66.6666666666667,4,2,1,80,0,0
17949,-100,4,2,1,80,0,0
20949,-66.6666666666667,4,2,1,80,0,0
22283,-50,4,3,1,100,0,0
23616,-100,4,2,1,50,0,0
34199,-66.6666666666667,4,2,1,65,0,0
40949,-100,4,2,1,65,0,0
43949,-100,4,2,1,40,0,0
44283,-100,4,2,1,50,0,0
44616,-100,4,2,1,60,0,0
44949,-100,4,2,1,70,0,0
48949,-80,4,2,1,70,0,0
49283,-66.6666666666667,4,2,1,70,0,0
49616,-57.1428571428571,4,2,1,70,0,0
49949,-50,4,2,1,70,0,0
50283,-100,4,2,1,70,0,0
54283,-66.6666666666667,4,2,1,75,0,0
54949,-100,4,2,1,85,0,0
55616,-50,4,2,1,100,0,1
87616,-66.6666666666667,4,2,1,80,0,0
96949,-66.6666666666667,4,2,1,100,0,0
98283,-100,4,2,1,40,0,0
108949,-66.6666666666667,4,2,1,70,0,0
119616,-100,4,2,1,80,0,0
130283,-50,4,2,1,100,0,1
159616,-66.6666666666667,4,2,1,80,0,0
179949,-50,4,2,1,80,0,0
182283,-133.333333333333,4,2,1,60,0,0
182616,-133.333333333333,4,2,1,50,0,0
182949,-133.333333333333,4,2,1,40,0,0
183283,-133.333333333333,4,2,1,30,0,0
183616,-133.333333333333,4,2,1,20,0,0
183949,-133.333333333333,4,2,1,10,0,0
184116,-133.333333333333,4,2,1,5,0,0
184613,-133.333333333333,4,2,1,15,0,0
200949,-100,4,2,1,40,0,0
202283,-100,4,2,1,60,0,0
203616,-100,4,2,1,80,0,0
206283,-50,4,2,1,100,0,1
238283,-66.6666666666667,4,2,1,100,0,0
247616,-100,4,2,1,100,0,0
248949,-100,4,2,1,80,0,0
250283,-100,4,2,1,70,0,0
250616,-100,4,2,1,60,0,0
250949,-100,4,2,1,50,0,0
251283,-100,4,2,1,40,0,0
251616,-100,4,2,1,30,0,0
251949,-100,4,2,1,20,0,0
252283,-100,4,2,1,10,0,0
252616,-100,4,2,1,5,0,0

[Colours]
Combo1 : 255,255,102
Combo2 : 91,255,91
Combo3 : 255,108,182
Combo4 : 169,83,255

[HitObjects]
40,352,949,6,0,B|40:192|40:192|72:192|72:192|72:32|72:32|72:192|72:192|40:192|40:192|40:352|40:352,1,700
376,192,2783,1,0,0:0:0:0:
56,192,3283,1,0,0:0:0:0:
472,352,3616,6,0,B|472:192|472:192|440:192|440:192|440:32|440:32|440:192|440:192|472:192|472:192|472:352|472:352,1,700
372,192,5449,1,0,0:0:0:0:
140,192,5949,1,0,0:0:0:0:
372,192,6283,6,0,B|420:116|420:116|248:116|248:116|292:192|292:192,1,350
56,192,8283,1,0,0:0:0:0:
256,192,8616,1,0,0:0:0:0:
152,192,8949,6,0,L|64:192,1,87.5
360,192,9616,2,0,L|448:192,1,87.5
256,192,10283,12,0,11616,0:0:0:0:
256,192,12449,5,0,0:0:0:0:
104,192,12616,2,0,L|104:168,1,21.875
408,192,12783,2,0,L|408:168,1,21.875
256,192,12949,6,0,L|124:192,1,131.25000500679
352,192,13283,2,0,L|220:192,1,131.25000500679
452,192,13616,2,0,L|320:192,1,131.25000500679
180,192,13949,1,0,0:0:0:0:
468,192,14116,1,0,0:0:0:0:
40,192,14283,5,0,0:0:0:0:
204,192,14449,2,0,L|260:156,1,65.6250025033952
288,192,14616,1,0,0:0:0:0:
40,192,14783,1,0,0:0:0:0:
280,192,14949,2,0,L|388:116,1,131.25000500679
40,192,15283,1,0,0:0:0:0:
468,192,15449,1,0,0:0:0:0:
392,192,15616,6,0,L|328:76,1,131.25000500679
112,192,15949,2,0,L|48:76,1,131.25000500679
468,192,16283,2,0,L|404:76,1,131.25000500679
184,192,16616,2,0,L|116:192,2,65.6250025033952,0|0|0,0:0|0:0|0:0,0:0:0:0:
364,192,16950,5,0,0:0:0:0:
112,192,17116,2,0,L|72:64,1,131.25000500679,0|0,0:0|0:0,0:0:0:0:
184,192,17449,1,0,0:0:0:0:
112,192,17616,1,0,0:0:0:0:
464,192,17783,1,0,0:0:0:0:
56,192,17949,1,0,0:0:0:0:
111,192,18033,1,0,0:0:0:0:
158,192,18116,1,0,0:0:0:0:
209,192,18199,1,0,0:0:0:0:
260,192,18283,6,0,L|348:192,1,87.5
112,192,18616,2,0,L|208:192,1,87.5
464,192,18949,2,0,L|376:192,1,87.5
111,192,19283,2,0,L|64:192,1,43.75
228,192,19449,1,0,0:0:0:0:
368,192,19616,5,0,0:0:0:0:
68,192,19783,1,0,0:0:0:0:
464,192,19949,1,0,0:0:0:0:
164,192,20116,2,0,L|76:192,1,87.5
476,192,20449,2,0,L|388:192,2,87.5,0|0|0,0:0|0:0|0:0,0:0:0:0:
40,192,20949,5,0,0:0:0:0:
476,192,21116,1,0,0:0:0:0:
256,192,21283,2,0,L|388:192,1,131.25000500679,0|0,0:0|0:0,0:0:0:0:
120,192,21616,1,0,0:0:0:0:
188,136,21699,1,0,0:0:0:0:
256,80,21783,1,0,0:0:0:0:
392,192,21949,1,0,0:0:0:0:
324,136,22032,1,0,0:0:0:0:
256,80,22116,1,0,0:0:0:0:
256,288,22283,6,0,B|168:288|168:288|168:200|168:200|344:200|344:200|344:112|344:112|256:112|256:112,2,525,0|0|0,0:0|0:0|0:0,0:0:0:0:
392,192,23616,6,0,L|476:36,1,175
120,192,24283,2,0,L|200:36,1,175
40,192,24949,6,0,L|60:104,1,87.5
452,192,25283,2,0,L|472:104,1,87.5
352,270,25616,5,0,0:0:0:0:
177,288,25783,1,0,0:0:0:0:
334,95,25949,1,0,0:0:0:0:
159,113,26116,1,0,0:0:0:0:
80,192,26283,6,0,L|256:192,1,175,0|0,0:0|0:0,0:0:0:0:
256,192,26949,6,0,L|432:192,1,175,0|0,0:0|0:0,0:0:0:0:
424,312,27616,5,0,0:0:0:0:
126,358,27783,1,0,0:0:0:0:
378,13,27950,1,0,0:0:0:0:
80,60,28116,2,0,L|256:60,1,175
80,60,28616,1,0,0:0:0:0:
80,192,28949,5,0,0:0:0:0:
256,192,29116,1,0,0:0:0:0:
432,192,29283,1,0,0:0:0:0:
432,192,29616,1,0,0:0:0:0:
256,192,29783,1,0,0:0:0:0:
80,192,29950,1,0,0:0:0:0:
432,192,30283,6,0,L|488:24,1,175
80,192,30783,2,0,L|24:24,1,175
256,192,31283,1,0,0:0:0:0:
256,192,31616,12,0,32949,0:0:0:0:
28,192,34283,6,0,L|160:192,1,131.25000500679,0|0,0:0|0:0,0:0:0:0:
336,192,34616,2,0,L|468:192,1,131.25000500679,0|0,0:0|0:0,0:0:0:0:
28,192,34949,2,0,L|160:192,1,131.25000500679,0|0,0:0|0:0,0:0:0:0:
468,192,35282,2,0,L|336:192,1,131.25000500679,0|0,0:0|0:0,0:0:0:0:
160,192,35616,6,0,L|28:192,1,131.25000500679,0|0,0:0|0:0,0:0:0:0:
468,192,35949,2,0,L|336:192,1,131.25000500679,0|0,0:0|0:0,0:0:0:0:
40,192,36283,2,0,L|40:60,1,131.25000500679
472,192,36617,2,0,L|472:60,1,131.25000500679
80,255,36949,5,0,0:0:0:0:
319,367,37116,1,0,0:0:0:0:
192,16,37283,1,0,0:0:0:0:
427,126,37449,1,0,0:0:0:0:
69,174,37616,1,0,0:0:0:0:
239,377,37783,1,0,0:0:0:0:
272,5,37950,1,0,0:0:0:0:
438,204,38116,1,0,0:0:0:0:
94,97,38283,5,0,0:0:0:0:
162,352,38450,1,0,0:0:0:0:
349,30,38617,1,0,0:0:0:0:
416,281,38783,1,0,0:0:0:0:
148,38,38950,1,0,0:0:0:0:
102,298,39117,1,0,0:0:0:0:
408,84,39284,1,0,0:0:0:0:
363,340,39450,1,0,0:0:0:0:
64,89,39616,6,0,L|128:204,1,131.25000500679
358,0,39949,2,0,L|244:64,1,131.25000500679
447,294,40283,2,0,L|384:180,1,131.25000500679
153,383,40616,2,0,L|268:320,1,131.25000500679
32,192,40949,6,0,B|184:192|184:192|208:196|256:236|256:268|256:268|256:236|304:196|328:192|328:192|396:192|396:192,1,437.5
32,192,41949,1,0,0:0:0:0:
256,192,42283,12,0,43616,0:0:0:0:
124,192,43949,6,0,L|96:104,1,87.5
388,192,44283,2,0,L|416:104,1,87.5
256,192,44616,1,0,0:0:0:0:
172,128,44949,6,0,B|255:92|255:92|333:124,1,175
104,192,45616,1,0,0:0:0:0:
244,192,45783,1,0,0:0:0:0:
476,192,45949,1,0,0:0:0:0:
340,128,46283,6,0,B|256:92|256:92|178:124,1,175
408,192,46949,1,0,0:0:0:0:
268,192,47116,1,0,0:0:0:0:
36,192,47282,1,0,0:0:0:0:
476,192,47616,6,0,B|388:192|388:192|344:112,1,175
36,192,48283,1,0,0:0:0:0:
476,192,48616,1,0,0:0:0:0:
36,272,48949,6,0,L|148:272,1,109.375
92,204,49283,2,0,L|224:204,1,131.25000500679
444,136,49616,2,0,L|288:136,1,153.125001460314
344,68,49949,2,0,L|168:68,1,175
96,272,50283,6,0,L|44:104,1,175
476,192,50949,1,0,0:0:0:0:
472,188,51449,1,0,0:0:0:0:
48,192,51616,6,0,L|136:192,1,87.5
464,192,51949,2,0,L|376:192,1,87.5
136,192,52283,2,0,L|48:192,1,87.5
376,192,52616,2,0,L|464:192,1,87.5
48,192,52949,5,0,0:0:0:0:
344,192,53283,2,0,L|168:192,1,175
464,192,53949,1,0,0:0:0:0:
336,192,54283,6,0,L|468:192,1,131.25000500679
204,192,54616,2,0,L|336:192,1,131.25000500679,0|0,0:0|0:0,0:0:0:0:
40,192,54949,5,0,0:0:0:0:
111,192,55033,1,0,0:0:0:0:
180,192,55116,1,0,0:0:0:0:
250,192,55199,1,0,0:0:0:0:
472,192,55283,1,0,0:0:0:0:
401,192,55367,1,0,0:0:0:0:
332,192,55450,1,0,0:0:0:0:
262,192,55533,1,0,0:0:0:0:
40,192,55616,6,0,L|40:16,1,175
472,192,55949,2,0,L|472:16,1,175
404,16,56199,1,0,0:0:0:0:
256,48,56283,2,0,L|80:48,1,175,0|0,0:0|0:0,0:0:0:0:
432,120,56616,2,0,L|256:120,1,175,0|0,0:0|0:0,0:0:0:0:
256,48,56949,5,0,0:0:0:0:
136,48,57116,1,0,0:0:0:0:
52,48,57283,1,0,0:0:0:0:
136,48,57449,1,0,0:0:0:0:
256,48,57533,1,0,0:0:0:0:
376,48,57616,1,0,0:0:0:0:
460,48,57783,1,0,0:0:0:0:
200,192,57949,2,0,L|20:192,1,175
36,304,58283,6,0,L|36:128,1,175
256,192,58616,2,0,L|432:192,1,175
80,304,58949,2,0,L|80:128,1,175
300,192,59282,2,0,L|476:192,1,175
36,192,59616,6,0,L|212:192,1,175
108,192,59949,1,0,0:0:0:0:
476,192,60116,2,0,L|300:192,1,175
108,192,60449,1,0,0:0:0:0:
108,192,60615,1,0,0:0:0:0:
304,192,60699,1,0,0:0:0:0:
128,192,60783,1,0,0:0:0:0:
324,192,60866,1,0,0:0:0:0:
140,192,60949,6,0,L|60:36,1,175
320,192,61283,2,0,L|240:36,1,175
40,192,61616,2,0,L|196:112,1,175
292,192,61949,2,0,L|136:112,1,175
196,100,62199,1,0,0:0:0:0:
256,88,62283,5,0,0:0:0:0:
40,192,62449,1,0,0:0:0:0:
400,280,62616,1,0,0:0:0:0:
112,280,62783,1,0,0:0:0:0:
472,192,62949,1,0,0:0:0:0:
400,280,63116,1,0,0:0:0:0:
40,192,63283,1,0,0:0:0:0:
112,280,63449,1,0,0:0:0:0:
472,84,63616,6,0,L|304:148,2,175,0|0|0,0:0|0:0|0:0,0:0:0:0:
256,36,64116,1,0,0:0:0:0:
40,84,64283,2,0,L|208:148,2,175,0|0|0,0:0|0:0|0:0,0:0:0:0:
256,36,64783,5,0,0:0:0:0:
392,108,64949,2,0,L|484:260,1,175
120,108,65283,2,0,L|28:260,1,175
176,188,65616,1,0,0:0:0:0:
324,192,65783,1,0,0:0:0:0:
56,192,65949,1,0,0:0:0:0:
456,192,66116,1,0,0:0:0:0:
120,192,66283,6,0,L|32:40,2,175,0|0|0,0:0|0:0|0:0,0:0:0:0:
392,192,66783,2,0,L|480:40,2,175,0|0|0,0:0|0:0|0:0,0:0:0:0:
304,192,67283,1,0,0:0:0:0:
244,192,67366,1,0,0:0:0:0:
364,192,67449,1,0,0:0:0:0:
168,192,67616,6,0,L|344:192,1,175
80,192,67949,1,0,0:0:0:0:
343,192,68116,2,0,L|168:192,1,175
428,192,68449,1,0,0:0:0:0:
168,192,68616,2,0,L|352:192,1,175
48,192,68949,5,0,0:0:0:0:
196,192,69116,1,0,0:0:0:0:
256,192,69283,2,0,L|76:192,1,175
404,192,69616,1,0,0:0:0:0:
256,192,69783,1,0,0:0:0:0:
196,192,69950,2,0,L|376:192,1,175
112,192,70283,6,0,L|56:24,1,175
444,28,70616,1,0,0:0:0:0:
256,28,70783,1,0,0:0:0:0:
480,192,70949,2,0,L|304:192,1,175
68,28,71283,1,0,0:0:0:0:
256,28,71450,1,0,0:0:0:0:
32,256,71616,6,0,B|196:192|196:192|32:136,2,350,0|0|0,0:0|0:0|0:0,0:0:0:0:
452,248,72449,1,0,0:0:0:0:
164,256,72616,2,0,L|328:192,1,175
480,192,72949,5,0,0:0:0:0:
32,192,73283,1,0,0:0:0:0:
480,192,73616,1,0,0:0:0:0:
176,192,73783,1,0,0:0:0:0:
332,192,73949,1,0,0:0:0:0:
32,192,74283,6,0,L|160:72,1,175
352,192,74616,2,0,L|480:72,1,175
120,192,74949,1,0,0:0:0:0:
392,192,75116,1,0,0:0:0:0:
32,192,75283,1,0,0:0:0:0:
292,192,75449,1,0,0:0:0:0:
104,280,75616,6,0,L|104:104,1,175
392,280,75949,2,0,L|392:104,1,175
88,192,76283,1,0,0:0:0:0:
216,192,76366,2,0,L|296:36,1,175
424,32,76616,1,0,0:0:0:0:
88,32,76783,1,0,0:0:0:0:
240,92,76949,6,0,L|80:164,1,175
272,100,77282,2,0,L|432:172,1,175
224,132,77616,2,0,L|64:204,1,175
288,144,77949,2,0,L|448:216,1,175
296,256,78283,6,0,B|460:192,1,175
400,136,78616,1,0,0:0:0:0:
216,256,78783,2,0,B|52:192,1,175
112,136,79116,1,0,0:0:0:0:
256,136,79283,1,0,0:0:0:0:
340,136,79366,1,0,0:0:0:0:
420,136,79449,1,0,0:0:0:0:
360,192,79616,5,0,0:0:0:0:
40,192,79783,1,0,0:0:0:0:
360,192,79949,1,0,0:0:0:0:
152,192,80116,1,0,0:0:0:0:
472,192,80283,1,0,0:0:0:0:
152,192,80449,1,0,0:0:0:0:
256,232,80616,2,0,B|292:208|292:208|220:156|220:156|256:132,1,175
188,88,80949,6,0,L|36:176,1,175
256,196,81283,1,0,0:0:0:0:
324,88,81449,2,0,L|476:176,1,175
256,196,81783,1,0,0:0:0:0:
212,272,81949,2,0,L|300:120,1,175
324,40,82283,6,0,L|508:116,1,175
104,164,82616,2,0,L|180:-20,1,175
188,344,82949,2,0,L|4:268,1,175
408,220,83283,2,0,L|332:404,1,175
152,216,83616,5,0,0:0:0:0:
372,220,83783,1,0,0:0:0:0:
284,116,83949,1,0,0:0:0:0:
332,116,84033,1,0,0:0:0:0:
376,116,84116,1,0,0:0:0:0:
12,164,84283,1,0,0:0:0:0:
232,168,84450,1,0,0:0:0:0:
144,64,84616,1,0,0:0:0:0:
192,64,84700,1,0,0:0:0:0:
236,64,84783,1,0,0:0:0:0:
256,192,84949,12,0,86283,0:0:0:0:
256,192,86616,5,0,0:0:0:0:
424,192,86949,1,0,0:0:0:0:
296,192,87032,2,0,L|216:36,1,175
88,32,87282,1,0,0:0:0:0:
88,32,87283,2,0,L|136:108,1,87.5
424,32,87449,2,0,L|376:108,1,87.5
256,192,87616,6,0,L|204:72,1,131.25000500679
424,192,87949,1,0,0:0:0:0:
88,192,88116,1,0,0:0:0:0:
256,192,88283,2,0,L|308:72,1,131.25000500679
124,192,88616,1,0,0:0:0:0:
388,192,88783,1,0,0:0:0:0:
40,192,88949,6,0,L|176:192,1,131.25000500679
464,192,89283,1,0,0:0:0:0:
40,192,89449,1,0,0:0:0:0:
336,192,89616,1,0,0:0:0:0:
464,192,89783,1,0,0:0:0:0:
212,192,89949,2,0,L|144:192,2,65.6250025033952,0|0|0,0:0|0:0|0:0,0:0:0:0:
464,192,90283,6,0,L|408:68,1,131.25000500679
176,136,90616,2,0,L|68:56,1,131.25000500679
368,292,90949,2,0,L|480:220,1,131.25000500679
48,192,91283,2,0,L|104:68,1,131.25000500679
408,192,91616,5,0,0:0:0:0:
112,192,91783,1,0,0:0:0:0:
480,192,91949,1,0,0:0:0:0:
184,192,92116,1,0,0:0:0:0:
336,192,92283,1,0,0:0:0:0:
40,192,92449,1,0,0:0:0:0:
256,192,92616,2,0,L|392:192,1,131.25000500679
40,192,92949,5,0,0:0:0:0:
472,192,93116,1,0,0:0:0:0:
40,192,93283,1,0,0:0:0:0:
472,192,93449,1,0,0:0:0:0:
360,192,93616,2,0,L|496:192,1,131.25000500679
232,192,93949,2,0,L|356:144,1,131.25000500679
40,192,94283,5,0,0:0:0:0:
288,192,94449,2,0,L|356:192,2,65.6250025033952,0|0|0,0:0|0:0|0:0,0:0:0:0:
40,192,94783,1,0,0:0:0:0:
304,192,94949,2,0,L|436:192,1,131.25000500679
208,192,95283,2,0,L|208:56,1,131.25000500679
472,192,95616,6,0,L|444:64,1,131.25000500679
40,192,95949,2,0,L|68:64,1,131.25000500679
256,192,96283,1,0,0:0:0:0:
352,192,96366,1,0,0:0:0:0:
256,192,96449,1,0,0:0:0:0:
256,192,96616,1,0,0:0:0:0:
40,192,96699,1,0,0:0:0:0:
256,192,96783,1,0,0:0:0:0:
80,192,96949,5,0,0:0:0:0:
448,192,97449,1,0,0:0:0:0:
256,192,97949,2,0,L|256:8,1,131.25000500679
80,192,98283,5,0,0:0:0:0:
428,192,98616,1,0,0:0:0:0:
256,336,98949,2,0,L|256:160,1,175
140,192,99616,6,0,L|48:40,1,175
372,192,100116,2,0,L|464:40,1,175
120,192,100616,1,0,0:0:0:0:
392,192,100782,1,0,0:0:0:0:
288,192,100949,6,0,L|464:192,1,175
360,192,101449,1,0,0:0:0:0:
224,192,101616,6,0,L|48:192,1,175
152,192,102116,1,0,0:0:0:0:
80,192,102283,5,0,0:0:0:0:
360,192,102449,1,0,0:0:0:0:
152,192,102616,1,0,0:0:0:0:
432,192,102783,1,0,0:0:0:0:
36,192,103283,1,0,0:0:0:0:
288,192,103616,6,0,L|404:56,1,175
36,192,104283,2,0,L|36:16,1,175
401,58,104949,6,0,L|344:128,1,87.5
464,124,105283,1,0,0:0:0:0:
88,192,105449,1,0,0:0:0:0:
432,192,105616,2,0,L|256:192,1,175
256,192,106283,12,0,107616,0:0:0:0:
160,192,108949,6,0,L|28:192,1,131.25000500679
484,192,109283,2,0,L|352:192,1,131.25000500679
160,192,109616,2,0,L|108:70,1,131.25000500679
484,192,109950,2,0,L|432:70,1,131.25000500679
56,192,110283,6,0,L|184:152,1,131.25000500679
216,232,110616,2,0,L|88:192,1,131.25000500679
456,192,110949,2,0,L|328:152,1,131.25000500679
296,232,111282,2,0,L|424:192,1,131.25000500679
295,43,111616,5,0,0:0:0:0:
216,340,111783,1,0,0:0:0:0:
364,83,111949,1,0,0:0:0:0:
147,300,112116,1,0,0:0:0:0:
391,327,112283,1,0,0:0:0:0:
120,56,112450,1,0,0:0:0:0:
305,377,112616,1,0,0:0:0:0:
206,6,112783,1,0,0:0:0:0:
364,83,112949,5,0,0:0:0:0:
147,300,113116,1,0,0:0:0:0:
404,152,113282,1,0,0:0:0:0:
107,231,113449,1,0,0:0:0:0:
441,241,113616,1,0,0:0:0:0:
70,142,113783,1,0,0:0:0:0:
391,327,113949,1,0,0:0:0:0:
120,56,114116,1,0,0:0:0:0:
148,192,114283,6,0,L|280:192,1,131.25000500679
480,192,114616,1,0,0:0:0:0:
36,192,114783,1,0,0:0:0:0:
256,192,114949,2,0,L|388:192,1,131.25000500679
480,192,115283,1,0,0:0:0:0:
36,192,115449,1,0,0:0:0:0:
144,192,115616,6,0,L|60:88,1,131.25000500679
324,192,115949,1,0,0:0:0:0:
324,192,116116,2,0,L|208:124,1,131.25000500679
480,192,116449,1,0,0:0:0:0:
480,192,116616,2,0,L|348:192,1,131.25000500679
256,192,116949,12,0,118283,0:0:0:0:
368,192,118616,6,0,L|408:64,1,131.25000500679,0|0,0:0|0:0,0:0:0:0:
144,192,119116,2,0,L|104:64,1,131.25000500679,0|0,0:0|0:0,0:0:0:0:
256,192,119449,1,0,0:0:0:0:
56,192,119616,6,0,B|56:68|56:68|108:68|108:68,1,175,0|0,0:0|0:0,0:0:0:0:
444,192,120283,1,0,0:0:0:0:
56,192,120783,1,0,0:0:0:0:
405,68,120949,6,0,B|404:68|456:68|456:68|456:192,1,175,0|0,0:0|0:0,0:0:0:0:
36,192,121616,1,0,0:0:0:0:
480,192,121949,1,0,0:0:0:0:
80,192,122283,6,0,L|128:24,1,175
384,24,122949,2,0,L|432:192,1,175
484,192,123616,6,0,L|396:192,1,87.5
116,192,123949,2,0,L|28:192,1,87.5
484,192,124283,2,0,L|396:192,1,87.5
116,192,124616,2,0,L|28:192,1,87.5
256,192,124949,5,0,0:0:0:0:
484,192,125283,1,0,0:0:0:0:
36,192,125616,1,0,0:0:0:0:
36,192,126116,1,0,0:0:0:0:
484,192,126283,2,0,L|444:20,1,175,0|0,0:0|0:0,0:0:0:0:
36,192,126949,1,0,0:0:0:0:
168,192,127116,1,0,0:0:0:0:
36,192,127283,1,0,0:0:0:0:
360,192,127449,1,0,0:0:0:0:
56,192,127616,6,0,L|144:192,1,87.5
452,192,127949,2,0,L|364:192,1,87.5
36,192,128283,6,0,L|124:192,1,87.5
472,192,128616,2,0,L|384:192,1,87.5
136,192,128949,5,0,0:0:0:0:
396,192,129116,1,0,0:0:0:0:
256,192,129283,1,0,0:0:0:0:
36,192,129449,1,0,0:0:0:0:
472,192,129616,2,0,L|384:192,1,87.5
36,192,129949,1,0,0:0:0:0:
124,192,130033,1,0,0:0:0:0:
211,192,130116,1,0,0:0:0:0:
298,192,130199,1,0,0:0:0:0:
472,192,130283,6,0,L|472:16,1,175
256,192,130533,1,0,0:0:0:0:
36,192,130617,1,0,0:0:0:0:
344,192,130783,2,0,L|168:192,1,175
472,192,131116,2,0,L|472:368,1,175
124,192,131449,1,0,0:0:0:0:
472,60,131616,6,0,L|380:208,1,175
36,192,131949,1,0,0:0:0:0:
396,60,132116,2,0,L|380:236,1,175,0|0,0:0|0:0,0:0:0:0:
104,192,132449,1,0,0:0:0:0:
36,192,132616,2,0,L|196:120,1,175
36,192,132949,6,0,L|36:16,1,175
256,192,133283,2,0,L|432:192,1,175
84,192,133616,6,0,L|84:16,1,175
304,192,133950,2,0,L|480:192,1,175
124,192,134283,5,0,0:0:0:0:
36,192,134449,1,0,0:0:0:0:
104,192,134616,1,0,0:0:0:0:
192,192,134783,2,0,L|104:192,2,87.5,0|0|0,0:0|0:0|0:0,0:0:0:0:
104,192,135116,1,0,0:0:0:0:
476,192,135283,1,0,0:0:0:0:
36,192,135449,1,0,0:0:0:0:
408,192,135616,6,0,L|232:192,1,175
36,192,135949,2,0,L|212:192,1,175
476,192,136283,2,0,L|316:116,1,175
36,192,136616,2,0,L|196:116,1,175
256,192,136949,5,0,0:0:0:0:
132,192,137116,1,0,0:0:0:0:
256,192,137283,1,0,0:0:0:0:
12,192,137449,1,0,0:0:0:0:
256,192,137616,1,0,0:0:0:0:
500,192,137783,1,0,0:0:0:0:
256,192,137949,1,0,0:0:0:0:
376,192,138116,1,0,0:0:0:0:
256,292,138283,6,0,P|212:164|32:60,1,350
476,36,138783,1,0,0:0:0:0:
256,292,138949,2,0,P|300:164|480:60,1,350
36,36,139449,1,0,0:0:0:0:
84,192,139616,5,0,0:0:0:0:
224,192,139783,2,0,L|132:40,1,175
432,192,140116,2,0,L|264:136,1,175
64,136,140449,1,0,0:0:0:0:
164,256,140616,1,0,0:0:0:0:
376,260,140699,1,0,0:0:0:0:
196,256,140783,1,0,0:0:0:0:
408,260,140866,1,0,0:0:0:0:
232,256,140949,6,0,B|76:176|76:176|232:256|232:256,1,350
36,256,141449,2,0,B|192:176|192:176|36:256|36:256,1,350
48,192,141949,1,0,0:0:0:0:
160,192,142116,1,0,0:0:0:0:
280,256,142283,6,0,B|436:176|436:176|280:256|280:256,1,350
476,256,142783,2,0,B|320:176|320:176|476:256|476:256,1,350
464,192,143283,1,0,0:0:0:0:
352,192,143450,1,0,0:0:0:0:
36,192,143616,6,0,L|148:56,1,175
416,192,143949,1,0,0:0:0:0:
96,192,144116,1,0,0:0:0:0:
476,192,144283,2,0,L|364:56,1,175
96,192,144616,1,0,0:0:0:0:
256,192,144699,1,0,0:0:0:0:
416,192,144783,1,0,0:0:0:0:
260,272,144949,6,0,L|416:192,1,175
200,192,145283,1,0,0:0:0:0:
416,192,145449,2,0,L|260:112,1,175
476,112,145783,1,0,0:0:0:0:
260,112,145949,2,0,L|416:32,1,175
88,192,146283,6,0,L|24:28,1,175
424,192,146616,2,0,L|488:28,1,175
24,192,146949,2,0,L|88:28,1,175
488,188,147283,2,0,L|424:24,1,175
72,192,147616,5,0,0:0:0:0:
492,192,147949,1,0,0:0:0:0:
24,192,148283,1,0,0:0:0:0:
440,192,148616,1,0,0:0:0:0:
184,192,148949,6,0,L|32:104,1,175
256,192,149283,2,0,L|256:16,1,175
328,192,149616,2,0,L|480:104,1,175
184,192,149949,1,0,0:0:0:0:
256,192,150032,1,0,0:0:0:0:
328,192,150116,1,0,0:0:0:0:
400,192,150283,6,0,L|476:32,1,175
36,33,150616,2,0,L|112:192,1,175
340,264,150949,2,0,L|424:232,1,87.5
40,180,151199,2,0,L|124:148,1,87.5
392,120,151449,1,0,0:0:0:0:
180,124,151533,1,0,0:0:0:0:
36,272,151616,6,0,B|208:232|208:232|120:80,1,350,0|0,0:0|0:0,0:0:0:0:
476,272,152116,2,0,B|304:232|304:232|392:80,1,350,0|0,0:0|0:0,0:0:0:0:
168,300,152616,2,0,L|344:300,1,175
116,232,152949,6,0,L|296:232,1,175
476,40,153283,1,0,0:0:0:0:
168,152,153449,2,0,L|344:152,1,175
392,232,153783,1,0,0:0:0:0:
116,232,153949,1,0,0:0:0:0:
392,232,154116,1,0,0:0:0:0:
112,192,154283,6,0,L|32:32,1,175
264,192,154616,6,0,L|112:104,1,175
428,192,154949,2,0,L|248:192,1,175
404,192,155283,2,0,L|404:104,1,87.5
108,192,155449,2,0,L|108:104,1,87.5
256,192,155616,6,0,L|432:192,1,175
480,128,155949,1,0,0:0:0:0:
256,192,156116,2,0,L|80:192,1,175
32,128,156449,1,0,0:0:0:0:
256,192,156616,2,0,L|432:192,1,175
360,192,156949,5,0,0:0:0:0:
32,192,157116,1,0,0:0:0:0:
360,192,157283,1,0,0:0:0:0:
152,192,157449,1,0,0:0:0:0:
480,192,157616,1,0,0:0:0:0:
152,192,157783,1,0,0:0:0:0:
256,188,157949,2,0,L|256:8,1,175,0|0,0:0|0:0,0:0:0:0:
256,264,158283,6,0,B|168:264|168:264|80:264|80:264|168:112|168:112|340:112|340:112|428:264|428:264,1,700
84,264,159116,1,0,0:0:0:0:
428,264,159283,1,0,0:0:0:0:
256,192,159616,12,0,161949,0:0:0:0:
56,216,162283,6,0,L|124:216,1,65.6250025033952
372,216,162449,1,0,0:0:0:0:
140,216,162616,1,0,0:0:0:0:
456,216,162783,2,0,L|388:216,1,65.6250025033952
140,216,162949,5,0,0:0:0:0:
372,216,163116,1,0,0:0:0:0:
188,192,163283,2,0,L|320:192,1,131.25000500679
480,192,163616,5,0,0:0:0:0:
36,192,163949,1,0,0:0:0:0:
36,192,164283,6,0,L|104:192,1,65.6250025033952
304,192,164449,2,0,L|376:192,1,65.6250025033952
480,192,164616,1,0,0:0:0:0:
256,192,164783,1,0,0:0:0:0:
480,192,164949,6,0,L|348:192,1,131.25000500679
36,192,165283,2,0,L|168:192,1,131.25000500679
256,192,165616,5,0,0:0:0:0:
36,116,165783,2,0,L|168:116,1,131.25000500679
372,112,166116,1,0,0:0:0:0:
476,124,166283,6,0,L|476:56,1,65.6250025033952
176,124,166449,2,0,L|176:56,1,65.6250025033952
348,228,166616,2,0,L|348:160,1,65.6250025033952
36,312,166783,2,0,L|36:240,1,65.6250025033952
256,240,166949,6,0,L|256:172,1,65.6250025033952
476,312,167116,2,0,L|476:240,1,65.6250025033952
240,316,167283,2,0,L|272:316,6,32.8125012516976,0|0|0|0|0|0|0,0:0|0:0|0:0|0:0|0:0|0:0|0:0,0:0:0:0:
256,288,167616,6,0,L|124:288,1,131.25000500679
428,288,167949,1,0,0:0:0:0:
84,288,168116,1,0,0:0:0:0:
168,288,168199,1,0,0:0:0:0:
252,288,168283,1,0,0:0:0:0:
332,176,168449,6,0,L|392:136,1,65.6250025033952
180,176,168616,2,0,L|120:136,1,65.6250025033952
332,176,168783,2,0,L|392:136,1,65.6250025033952
180,176,168949,6,0,B|12:176|256:32|256:32|256:104|256:104|268:104|268:104|244:191|244:191|268:193|268:193|244:280|244:280|256:280|256:280|256:352|256:352|500:200|328:200,1,918.750035047532
180,176,170283,6,0,L|312:176,1,131.25000500679
448,280,170616,2,0,L|376:168,1,131.25000500679
64,280,170949,2,0,L|136:168,1,131.25000500679
256,192,171283,2,0,L|388:192,1,131.25000500679
44,256,171616,5,0,0:0:0:0:
76,256,171699,1,0,0:0:0:0:
108,256,171783,1,0,0:0:0:0:
140,256,171866,1,0,0:0:0:0:
448,89,171949,1,0,0:0:0:0:
396,89,172032,1,0,0:0:0:0:
345,89,172116,1,0,0:0:0:0:
294,89,172199,1,0,0:0:0:0:
144,144,172283,5,0,0:0:0:0:
364,140,172449,1,0,0:0:0:0:
36,192,172616,1,0,0:0:0:0:
480,192,172783,1,0,0:0:0:0:
144,192,172949,6,0,L|56:88,1,131.25000500679,0|0,0:0|0:0,0:0:0:0:
256,192,173199,1,0,0:0:0:0:
452,91,173283,2,0,L|368:192,1,131.25000500679,0|0,0:0|0:0,0:0:0:0:
88,192,173616,1,0,0:0:0:0:
300,192,173783,1,0,0:0:0:0:
48,192,173949,1,0,0:0:0:0:
436,192,174116,1,0,0:0:0:0:
144,192,174283,5,0,0:0:0:0:
64,104,174449,2,0,L|200:56,1,131.25000500679
384,136,174783,2,0,L|256:188,1,131.25000500679
112,260,175116,2,0,L|244:260,1,131.25000500679
352,260,175449,1,0,0:0:0:0:
484,192,175616,6,0,L|412:192,1,65.6250025033952
332,192,175783,2,0,L|260:192,1,65.6250025033952
376,124,175949,2,0,L|304:124,1,65.6250025033952
224,124,176116,2,0,L|152:124,1,65.6250025033952
40,196,176283,6,0,L|68:68,1,131.25000500679
472,196,176616,2,0,L|444:68,1,131.25000500679
152,192,176949,5,0,0:0:0:0:
432,192,177116,1,0,0:0:0:0:
352,192,177283,1,0,0:0:0:0:
36,196,177449,1,0,0:0:0:0:
476,192,177616,1,0,0:0:0:0:
256,192,177783,1,0,0:0:0:0:
416,192,177949,2,0,L|484:192,1,65.6250025033952
36,192,178283,5,0,0:0:0:0:
113,192,178366,1,0,0:0:0:0:
190,192,178449,1,0,0:0:0:0:
268,192,178533,1,0,0:0:0:0:
476,192,178616,1,0,0:0:0:0:
399,192,178699,1,0,0:0:0:0:
322,192,178782,1,0,0:0:0:0:
244,192,178866,1,0,0:0:0:0:
36,192,178949,6,0,L|36:124,1,65.6250025033952
224,120,179116,2,0,L|296:120,1,65.6250025033952
476,192,179283,2,0,L|476:124,1,65.6250025033952
289,120,179449,2,0,L|224:120,1,65.6250025033952
40,136,179616,5,0,0:0:0:0:
256,136,179699,1,0,0:0:0:0:
472,136,179783,1,0,0:0:0:0:
256,136,179866,1,0,0:0:0:0:
40,136,179949,1,0,0:0:0:0:
112,136,180033,1,0,0:0:0:0:
184,136,180116,1,0,0:0:0:0:
112,136,180199,1,0,0:0:0:0:
40,136,180283,6,0,L|128:136,1,87.5
96,200,180450,2,0,L|188:200,1,87.5
148,264,180617,2,0,L|236:264,1,87.5
204,332,180783,2,0,L|292:332,1,87.5
476,192,180949,5,0,0:0:0:0:
399,192,181032,1,0,0:0:0:0:
322,192,181115,1,0,0:0:0:0:
244,192,181199,1,0,0:0:0:0:
36,192,181282,1,0,0:0:0:0:
113,192,181365,1,0,0:0:0:0:
190,192,181448,1,0,0:0:0:0:
268,192,181532,1,0,0:0:0:0:
476,192,181616,5,0,0:0:0:0:
320,260,181783,1,0,0:0:0:0:
136,260,181866,1,0,0:0:0:0:
288,260,181949,1,0,0:0:0:0:
104,260,182033,1,0,0:0:0:0:
260,260,182116,1,0,0:0:0:0:
256,192,182283,12,0,184283,0:0:0:0:
256,192,184949,5,0,0:0:0:0:
388,192,185283,1,0,0:0:0:0:
452,192,185616,2,0,L|320:192,1,131.25000500679
136,192,186283,5,0,0:0:0:0:
256,192,186616,2,0,L|188:192,1,65.6250025033952
396,192,187116,2,0,L|464:192,1,65.6250025033952
48,192,187616,5,0,0:0:0:0:
168,192,187949,1,0,0:0:0:0:
48,192,188283,1,0,0:0:0:0:
376,192,188616,1,0,0:0:0:0:
224,192,188949,6,0,B|224:193|224:181|224:181|224:165|240:165|240:165|400:165,2,196.875007510186,0|0|0,0:0|0:0|0:0,0:0:0:0:
40,192,190283,5,0,0:0:0:0:
360,192,190616,1,0,0:0:0:0:
120,192,190949,1,0,0:0:0:0:
280,192,191283,1,0,0:0:0:0:
200,192,191616,1,0,0:0:0:0:
200,192,192283,2,0,L|68:192,1,131.25000500679
444,192,192949,6,0,L|312:192,1,131.25000500679
152,192,193616,2,0,B|280:160|280:160|336:40|336:40,1,262.500010013581
52,44,194616,1,0,0:0:0:0:
335,41,194949,2,0,B|336:40|280:160|280:160|216:176|216:176,1,196.875007510186
48,176,195616,5,0,0:0:0:0:
260,252,195949,2,0,L|192:240,1,65.6250025033952
432,240,196449,2,0,L|496:224,1,65.6250025033952
52,96,196949,5,0,0:0:0:0:
224,188,197283,2,0,L|288:172,1,65.6250025033952
100,208,197783,2,0,L|36:184,1,65.6250025033952
476,220,198283,6,0,B|476:221|476:209|476:209|476:193|460:193|460:193|300:193,2,196.875007510186,0|0|0,0:0|0:0|0:0,0:0:0:0:
36,220,199616,6,0,B|36:221|36:209|36:209|36:192|52:193|52:193|212:193,2,196.875007510186,0|0|0,0:0|0:0|0:0,0:0:0:0:
196,192,200949,6,0,L|20:192,1,175
316,192,201616,2,0,L|492:192,1,175
124,184,202283,5,0,0:0:0:0:
388,184,202616,1,0,0:0:0:0:
32,192,202949,1,0,0:0:0:0:
480,192,203283,1,0,0:0:0:0:
256,192,203616,6,0,B|244:104|244:104|268:188|268:188|232:108|232:108|280:180|280:180|220:116|220:116|292:164|292:164,1,525
72,192,204949,6,0,L|72:156,1,21.875
440,192,205449,2,0,L|440:156,1,21.875
96,192,205949,2,0,L|96:144,1,43.75
416,192,206116,2,0,L|416:144,1,43.75
256,192,206283,5,0,0:0:0:0:
56,192,206449,1,0,0:0:0:0:
476,192,206616,2,0,L|296:192,1,175
48,76,206949,1,0,0:0:0:0:
112,76,207033,1,0,0:0:0:0:
172,76,207116,1,0,0:0:0:0:
456,76,207283,1,0,0:0:0:0:
56,308,207449,1,0,0:0:0:0:
476,248,207616,6,0,L|420:80,1,175
112,76,207949,1,0,0:0:0:0:
408,248,208116,2,0,L|352:80,1,175
44,76,208449,1,0,0:0:0:0:
408,168,208616,1,0,0:0:0:0:
256,168,208783,1,0,0:0:0:0:
476,316,208949,6,0,L|476:140,1,175
256,256,209283,2,0,L|80:256,1,175
428,316,209616,2,0,L|428:140,1,175
208,256,209950,2,0,L|32:256,1,175
272,176,210283,6,0,L|216:104,1,87.5
36,104,210449,1,0,0:0:0:0:
408,104,210616,1,0,0:0:0:0:
96,176,210783,2,0,L|152:104,1,87.5
332,104,210949,1,0,0:0:0:0:
36,104,211116,1,0,0:0:0:0:
332,104,211283,1,0,0:0:0:0:
116,104,211449,6,0,L|216:256,1,175
472,104,211783,1,0,0:0:0:0:
36,104,211949,2,0,L|36:280,1,175
472,104,212283,2,0,L|472:280,1,175
116,192,212616,1,0,0:0:0:0:
352,192,212783,5,0,0:0:0:0:
185,108,212949,2,0,L|9:108,1,175
456,108,213283,2,0,L|281:108,1,175
327,108,213616,2,0,L|503:108,1,175
56,108,213950,2,0,L|231:108,1,175
456,108,214283,6,0,B|292:168|292:168|456:228|456:228,1,350
256,192,214783,1,0,0:0:0:0:
56,108,214949,2,0,B|220:168|220:168|56:228|56:228,1,350
256,192,215449,1,0,0:0:0:0:
168,192,215533,1,0,0:0:0:0:
256,192,215616,5,0,0:0:0:0:
36,192,215783,2,0,L|208:232,1,175
472,160,216116,1,0,0:0:0:0:
100,72,216283,1,0,0:0:0:0:
256,112,216449,1,0,0:0:0:0:
192,232,216616,1,0,0:0:0:0:
384,232,216699,1,0,0:0:0:0:
224,232,216783,1,0,0:0:0:0:
416,232,216866,1,0,0:0:0:0:
256,232,216949,5,0,0:0:0:0:
212,184,217116,2,0,L|56:96,1,175
300,184,217449,2,0,L|456:96,1,175
452,98,217783,2,0,L|300:184,1,175
59,98,218116,1,0,0:0:0:0:
256,96,218199,1,0,0:0:0:0:
453,98,218283,5,0,0:0:0:0:
248,60,218449,2,0,L|74:77,1,175
132,152,218783,2,0,L|312:156,1,175
204,216,219116,2,0,L|28:236,1,175
260,280,219449,1,0,0:0:0:0:
440,220,219616,6,0,L|296:120,1,175
48,124,219949,1,0,0:0:0:0:
440,128,220116,2,0,L|352:128,1,87.5
48,124,220283,2,0,L|208:52,2,175,0|0|0,0:0|0:0|0:0,0:0:0:0:
256,120,220783,1,0,0:0:0:0:
408,120,220949,5,0,0:0:0:0:
140,116,221116,1,0,0:0:0:0:
256,204,221283,2,0,L|436:204,1,175
80,204,221616,2,0,L|256:204,1,175
464,192,221949,1,0,0:0:0:0:
48,192,222116,1,0,0:0:0:0:
48,192,222283,5,0,0:0:0:0:
480,192,222616,1,0,0:0:0:0:
32,192,222949,2,0,L|180:96,1,175
480,192,223283,1,0,0:0:0:0:
256,192,223616,6,0,L|140:60,1,175
296,160,223949,2,0,L|420:36,1,175
348,36,224199,1,0,0:0:0:0:
180,192,224283,2,0,L|20:120,1,175
256,72,224616,1,0,0:0:0:0:
256,192,224783,1,0,0:0:0:0:
64,128,224949,5,0,0:0:0:0:
256,128,225116,1,0,0:0:0:0:
104,128,225283,2,0,L|32:288,1,175
448,128,225616,1,0,0:0:0:0:
256,128,225783,1,0,0:0:0:0:
408,128,225950,2,0,L|480:288,1,175
472,56,226283,6,0,L|296:16,1,175
40,328,226616,2,0,L|216:368,1,175
404,272,226949,1,0,0:0:0:0:
208,268,227033,2,0,L|300:120,1,175
108,112,227283,2,0,L|284:112,1,175
360,68,227616,6,0,L|506:163,1,175
132,148,227949,2,0,L|227:1,1,175
424,192,228199,1,0,0:0:0:0:
152,316,228283,2,0,L|5:220,1,175
284,382,228616,2,0,L|380:236,1,175
233,31,228949,6,0,L|402:-13,1,175
140,254,229282,2,0,L|94:85,1,175
352,192,229533,1,0,0:0:0:0:
278,352,229616,2,0,L|109:397,1,175,0|0,0:0|0:0,0:0:0:0:
417,298,229949,2,0,L|371:129,1,175
400,244,230283,6,0,L|488:88,1,175
485,91,230616,1,0,0:0:0:0:
112,244,230783,2,0,L|24:88,1,175
26,91,231116,1,0,0:0:0:0:
448,192,231283,1,0,0:0:0:0:
64,192,231449,1,0,0:0:0:0:
160,196,231616,6,0,L|248:196,1,87.5
468,192,231783,1,0,0:0:0:0:
300,192,231949,1,0,0:0:0:0:
352,196,232116,2,0,L|264:196,1,87.5
44,192,232283,1,0,0:0:0:0:
416,192,232449,1,0,0:0:0:0:
100,192,232616,1,0,0:0:0:0:
472,192,232782,1,0,0:0:0:0:
88,192,232949,6,0,L|256:136,1,175
128,72,233283,1,0,0:0:0:0:
448,64,233449,2,0,L|272:64,1,175
32,192,233783,2,0,L|164:72,1,175
380,76,234116,1,0,0:0:0:0:
472,76,234283,6,0,L|296:76,1,175
36,108,234616,1,0,0:0:0:0:
256,108,234783,1,0,0:0:0:0:
476,192,234949,1,0,0:0:0:0:
344,192,235033,1,0,0:0:0:0:
476,192,235116,1,0,0:0:0:0:
36,192,235283,1,0,0:0:0:0:
256,192,235616,12,0,237949,0:0:0:0:
32,192,238283,6,0,L|164:192,1,131.25000500679
348,192,238616,2,0,L|480:192,1,131.25000500679
32,192,238949,2,0,L|164:192,1,131.25000500679
480,192,239283,2,0,L|348:192,1,131.25000500679
32,192,239616,5,0,0:0:0:0:
312,192,239783,2,0,L|380:192,2,65.6250025033952,0|0|0,0:0|0:0|0:0,0:0:0:0:
32,192,240116,1,0,0:0:0:0:
420,192,240283,2,0,L|492:192,2,65.6250025033952,0|0|0,0:0|0:0|0:0,0:0:0:0:
32,192,240616,1,0,0:0:0:0:
256,80,240783,1,0,0:0:0:0:
356,256,240949,6,0,L|488:228,1,131.25000500679
156,256,241283,2,0,L|24:228,1,131.25000500679
484,228,241616,2,0,L|356:256,1,131.25000500679
27,228,241949,2,0,L|156:256,1,131.25000500679
428,192,242283,6,0,L|428:56,1,131.25000500679
356,60,242533,1,0,0:0:0:0:
56,60,242616,1,0,0:0:0:0:
248,60,242783,2,0,L|384:60,1,131.25000500679
76,144,243116,1,0,0:0:0:0:
448,144,243283,1,0,0:0:0:0:
184,144,243449,1,0,0:0:0:0:
360,136,243616,6,0,P|392:80|452:52,1,131.25000500679
152,136,243949,2,0,P|96:104|68:44,1,131.25000500679
360,248,244283,2,0,P|416:280|443:338,1,131.25000500679
151,248,244616,2,0,P|119:304|61:331,1,131.25000500679
384,192,244949,6,0,L|312:192,1,65.6250025033952
404,192,245116,2,0,L|472:192,1,65.6250025033952
392,192,245283,1,0,0:0:0:0:
108,192,245449,6,0,L|36:192,1,65.6250025033952
128,192,245616,2,0,L|196:192,1,65.6250025033952
116,192,245783,1,0,0:0:0:0:
392,192,245949,1,0,0:0:0:0:
116,192,246116,1,0,0:0:0:0:
104,116,246283,6,0,L|16:12,1,131.25000500679
472,64,246616,1,0,0:0:0:0:
168,64,246783,1,0,0:0:0:0:
408,116,246949,6,0,L|496:12,1,131.25000500679
40,64,247282,1,0,0:0:0:0:
344,64,247449,1,0,0:0:0:0:
48,192,247616,5,0,0:0:0:0:
135,192,247699,1,0,0:0:0:0:
223,192,247783,1,0,0:0:0:0:
310,192,247866,1,0,0:0:0:0:
397,192,247949,1,0,0:0:0:0:
48,192,248116,1,0,0:0:0:0:
464,192,248283,1,0,0:0:0:0:
48,192,248449,1,0,0:0:0:0:
256,192,248616,1,0,0:0:0:0:
256,192,248949,12,0,252783,0:0:0:0:
