osu file format v9

[General]
AudioFilename: Yousei Teikoku - Schwarzer Sarg.mp3
AudioLeadIn: 0
PreviewTime: 100916
Countdown: 1
SampleSet: Soft
StackLeniency: 0.7
Mode: 0
LetterboxInBreaks: 1

[Editor]
Bookmarks: 23088,28573,45030,56002,61488,66973,77945,88916,112230,124573,135545,146516,157488,168459,191773,204116,215088,220573,226059
DistanceSpacing: 0.4
BeatDivisor: 4
GridSize: 8

[Metadata]
Title:Schwarzer Sarg
Artist:Yousei Teikoku
Creator:Teras
Version:Collab
Source:
Tags:Saten-San Gothic Qrool

[Difficulty]
HPDrainRate:6
CircleSize:4
OverallDifficulty:8
ApproachRate:9
SliderMultiplier:1.8
SliderTickRate:1

[Events]
//Background and Video events
0,0,"Gothic.jpg"
//Break Periods
2,23288,27973
2,123402,134945
2,168659,169230
2,170030,170602
2,171402,171973
2,172773,173345
2,202945,214488
//Storyboard Layer 0 (Background)
//Storyboard Layer 1 (Fail)
//Storyboard Layer 2 (Pass)
//Storyboard Layer 3 (Foreground)
//Storyboard Sound Samples
//Background Colour Transformations
3,100,163,162,255

[TimingPoints]
12116.5740604402,342.857142857143,4,2,1,100,1,0
86902,-100,4,2,1,29,0,0
87373,-100,4,2,1,50,0,0
87545,-100,4,2,1,69,0,0
87716,-100,4,2,1,90,0,0
87888,-100,4,2,1,100,0,0
101259,-100,4,2,1,100,0,1
123202,-100,4,1,1,100,0,0
135545,-100,4,2,1,49,0,0
146430,-100,4,2,1,100,0,0
165930,-100,4,2,1,21,0,0
166273,-100,4,2,1,30,0,0
166616,-100,4,2,1,41,0,0
166959,-100,4,2,1,52,0,0
167302,-100,4,2,1,60,0,0
167645,-100,4,2,1,70,0,0
167988,-100,4,2,1,85,0,0
168330,-100,4,2,1,100,0,0
180802,-100,4,2,1,100,0,1
202745,-100,4,1,1,100,0,0
215088,-100,4,2,1,100,0,1
224688,-100,4,2,1,50,0,1
225030,-100,4,2,1,60,0,1
225373,-100,4,2,1,70,0,1
225716,-100,4,2,1,80,0,1
225888,-100,4,2,1,90,0,1
226059,-100,4,2,1,100,0,0

[HitObjects]
285,132,12116,2,0,B|362:56|471:131,1,180
257,153,12973,1,8
211,327,13316,1,0
301,324,13488,1,8
183,188,13830,2,0,B|85:137|9:219,2,180
355,136,14859,6,0,B|381:39|505:36,1,180,8|0
257,200,15716,1,8
299,24,16059,1,0
209,25,16230,1,8
167,200,16573,2,0,B|203:260|296:260|320:188,1,180
337,160,17002,2,0,B|383:199,5,45
335,160,17602,6,0,B|243:97|143:180,1,180
422,83,18459,1,8
341,243,18802,2,0,B|264:172,1,90,0|8
94,181,19316,2,0,B|41:268|87:362,2,180
175,142,20173,1,0
256,180,20345,2,0,B|340:237|430:171,1,180,8|0
256,192,21202,1,8
256,192,21373,12,0,23088
256,56,28573,6,0,B|304:56|336:104,1,90
360,184,28916,2,0,B|400:208|448:184,2,90,8|0|0
272,152,29430,2,0,B|224:144|184:184,1,90,8|0
160,264,29773,1,8
16,152,29945,6,0,B|32:104|80:88,1,90
256,56,30288,2,0,B|304:72|344:48,2,90,8|0|0
168,32,30802,2,0,B|136:72|160:120,1,90,0|8
208,192,31145,1,0
384,192,31316,6,0,B|424:224|416:280,1,90
328,248,31659,2,0,B|288:208|312:160,2,90,8|0|0
352,336,32173,2,0,B|312:368|264:352,1,90,8|0
184,320,32516,1,8
256,64,32688,6,0,B|192:128,1,90
256,192,33030,2,0,B|328:120,1,90,8|0
464,192,33373,5,2
256,368,33630,1,2
48,192,33888,1,2
256,264,34059,6,0,B|368:256|384:152,1,180,0|8
320,56,34573,1,0
200,40,34745,1,0
88,80,34916,1,0
48,192,35088,1,8
80,304,35259,1,0
192,352,35430,2,0,B|288:392|368:328,1,180,0|8
256,120,36116,2,0,B|176:176|184:280,1,180,0|8
472,72,36802,2,0,B|400:16|296:32,1,180,0|8
192,64,37316,1,0
96,136,37488,6,0,B|64:176|80:224,1,90
416,248,37830,2,0,B|448:208|432:160,1,90,8|0
256,112,38173,2,0,B|256:296,1,180,0|8
136,88,38859,5,0
376,296,39202,1,0
256,32,39545,6,0,B|368:24|416:104,1,180,0|8
432,216,40059,2,0,B|384:216|352:168,1,90
256,112,40402,2,0,B|208:128|200:176,1,90,0|8
256,280,40745,2,0,B|224:312|168:288,1,90
56,56,41259,1,8
256,192,41602,1,0
456,56,41945,1,8
256,192,42288,12,0,44002
64,56,44345,5,2
256,32,44602,1,2
448,56,44859,1,2
366,139,45030,2,0,B|277:209|326:323,1,180,4|8
207,343,45545,5,0
151,240,45716,1,0
56,170,45888,1,0
152,96,46059,1,8
168,96,46145,1,0
184,96,46230,1,0
200,96,46316,1,0
216,96,46402,1,0
320,148,46573,1,0
429,105,46745,2,0,B|475:145|426:192,1,90,8|0
434,183,47088,1,2
344,312,47259,1,0
248,184,47430,1,2
434,183,47602,1,0
327,230,47773,2,0,B|141:309,1,180,4|8
82,227,48288,5,0
103,112,48459,1,0
215,144,48630,1,0
315,83,48802,1,8
424,120,48973,1,2
424,136,49059,1,0
424,152,49145,1,0
424,168,49230,1,0
424,184,49316,1,0
424,200,49402,1,0
424,214,49488,1,8
275,314,49659,1,2
256,137,49830,1,2
256,150,49916,1,0
255,163,50002,1,0
95,245,50173,1,2
95,231,50259,1,0
95,217,50345,1,0
95,217,50516,2,0,B|124:118|245:96,1,180,4|8
386,158,51030,5,0
474,235,51202,2,0,B|473:296|401:283,1,90,0|8
310,230,51545,1,2
310,230,51630,1,0
310,230,51716,2,0,B|240:217|207:141,2,135,0|0|8
254,333,52402,1,2
84,273,52573,1,0
217,150,52745,1,0
84,273,52916,1,2
253,333,53088,2,0,B|117:176,1,180,2|0
67,101,53602,6,0,B|29:139,2,45,8|0|0
177,141,53945,1,0
257,56,54116,1,0
357,116,54288,2,0,B|272:196,1,90,8|0
343,322,54630,2,0,B|448:343,1,90
279,147,54973,2,0,B|186:179,1,90,8|0
71,311,55316,1,2
210,79,55573,1,2
404,265,55830,1,2
232,224,56002,6,0,B|184:216|160:168,1,90
144,56,56345,1,8
144,328,56516,1,0
344,192,56688,2,0,B|400:176|408:128,1,90
296,164,57030,2,0,B|248:180|232:228,1,90,8|0
256,336,57373,6,0,B|352:336|312:264|416:264,1,180,0|8
256,48,58059,2,0,B|160:48|200:120|96:120,1,180,0|8
464,192,58745,6,0,B|488:144|448:104,1,90
360,40,59088,1,8
256,192,59259,1,0
152,344,59430,2,0,B|112:328|88:280,1,90
56,168,59773,6,0,B|72:120|128:112,1,90,8|0
336,120,60116,2,0,B|408:176|304:216|384:288,1,180,0|8
456,40,60630,2,0,B|496:120,1,90
456,344,60973,2,0,B|496:264,1,90,0|8
417,113,61316,5,0
308,158,61488,2,0,B|207:193|143:84,1,180,0|8
255,43,62002,1,0
255,159,62173,1,0
253,276,62345,1,0
253,276,62516,2,0,B|292:312|344:272,1,90,8|0
256,114,62859,2,0,B|211:149|159:107,1,90
362,193,63202,2,0,B|403:222|452:190,1,90,8|0
152,192,63545,2,0,B|111:227|64:192,1,90
111,86,63888,1,8
124,86,63973,1,0
137,86,64059,1,0
150,86,64145,1,0
163,87,64230,2,0,B|211:119|292:79|353:95,1,180,4|8
344,313,64745,6,0,B|241:314,1,90
171,230,65088,2,0,B|270:230,1,90,0|8
412,166,65430,2,0,B|311:167,1,90
102,164,65773,2,0,B|214:164,1,90,0|8
256,65,66116,1,2
256,78,66202,1,0
256,91,66288,1,0
256,104,66373,1,0
256,117,66459,1,0
256,130,66545,1,0
256,143,66630,1,0
256,156,66716,1,0
256,169,66802,1,0
256,182,66888,1,0
256,195,66973,1,4
256,312,67145,6,0,B|168:336,1,90,0|8
64,280,67488,2,0,B|40:240|64:192,1,90
448,190,67830,2,0,B|472:144|448:104,1,90,0|8
368,56,68173,2,0,B|232:8|160:160|24:128,1,360,0|8
64,280,69030,6,0,B|128:344,1,90,0|8
448,280,69373,2,0,B|384:344,1,90,0|8
256,336,69716,2,0,B|192:248|328:184|256:72,1,270,0|8
120,192,70402,2,0,B|128:240|176:264,1,90
392,192,70745,2,0,B|384:240|336:264,1,90,8|0
256,40,71088,5,2
200,104,71259,1,8
288,152,71430,1,2
192,208,71602,1,8
296,264,71773,1,2
184,328,71945,1,0
312,368,72116,1,0
432,304,72288,1,8
464,176,72459,1,0
256,40,72802,6,0,B|208:56|200:104,1,90,0|10
192,208,73145,2,0,B|168:248|112:240,1,90,0|2
256,344,73488,2,0,B|304:328|312:280,1,90,8|0
320,176,73831,2,0,B|344:136|400:144,1,90,0|2
488,240,74173,1,8
408,352,74345,1,0
256,136,74516,6,0,B|256:48,1,90,0|2
256,248,74859,2,0,B|256:336,1,90,0|2
64,320,75202,2,0,B|16:240|48:144,1,180,8|0
112,80,75716,1,2
192,40,75888,5,8
320,40,76059,1,2
200,112,76230,1,0
312,112,76402,1,10
208,184,76573,2,0,B|160:200|144:248,1,90,0|10
304,184,76916,2,0,B|352:200|368:248,1,90,0|2
40,192,77259,5,2
472,192,77516,1,2
256,344,77773,1,2
257,226,77945,5,0
257,226,78116,1,0
151,175,78288,1,8
151,175,78459,1,0
215,77,78630,1,0
215,77,78802,2,0,B|316:46|399:127,1,180,8|0
383,112,79230,1,0
383,112,79316,1,8
318,320,79488,6,0,B|254:336|233:290,1,90,0|8
244,181,79830,2,0,B|303:162|336:203,1,90
225,252,80173,2,0,B|176:281|140:231,1,90,0|8
157,120,80516,2,0,B|216:106|254:153,1,90,0|4
346,88,80859,5,0
456,49,81030,1,8
345,88,81202,1,0
329,203,81373,1,2
220,246,81545,1,8
329,203,81716,1,0
312,319,81888,2,0,B|262:359|229:317,1,90,2|0
169,222,82230,2,0,B|209:184|260:222,1,90,2|8
170,301,82573,2,0,B|122:334|82:297,1,90,0|0
125,190,82916,2,0,B|167:161|221:199,1,90,2|0
312,248,83259,1,0
346,237,83345,1,0
379,225,83430,1,4
414,113,83602,6,0,B|325:149,1,90,0|8
229,87,83945,1,0
139,162,84116,1,0
183,270,84288,1,8
183,270,84459,2,0,B|287:310,1,90
380,332,84802,2,0,B|401:287|372:236,1,90,0|0
259,249,85145,2,0,B|234:126|176:316|80:239,1,180,8|0
121,140,85659,2,0,B|203:73|286:140,1,180,8|0
384,72,86173,2,0,B|376:80|376:80|384:88|384:88|376:96|376:96|384:104|384:104|376:112|376:112|384:120|384:120|376:128|376:128|384:136|384:136|376:144|376:144|384:152|384:152|376:160|376:160|384:168|384:168|376:176|376:176|384:184|384:184|376:192|376:192|384:200|384:200|376:208|376:208|384:216|384:216|376:224|376:224|384:232|384:232|376:240|376:240|384:248|384:248|376:256|376:256|384:264|384:264|376:272|376:272|384:280|384:280|376:288|376:288|384:296|384:296|376:304|376:304|384:312|384:312|376:320|376:320|384:328,1,360,4|0
371,334,86945,5,0
359,340,87030,1,0
346,344,87116,1,0
332,347,87202,1,0
318,349,87288,1,0
304,349,87373,1,0
290,349,87459,1,0
276,348,87545,1,0
262,344,87630,1,0
248,340,87716,1,0
235,334,87802,1,0
222,327,87888,1,0
210,319,87973,1,0
201,308,88059,1,0
194,296,88145,1,0
189,283,88230,1,0
185,269,88316,1,0
185,255,88402,5,0
186,241,88488,1,0
188,227,88573,1,0
191,213,88659,1,0
196,200,88745,1,0
204,189,88830,1,0
213,179,88916,1,4
280,120,89088,6,0,B|368:104,1,90,8|0
248,48,89430,2,0,B|160:64,1,90,8|0
72,88,89773,6,0,B|16:168|48:264,1,180,8|0
465,259,90288,2,0,B|496:216|480:168,1,90,8|0
400,200,90630,2,0,B|368:240|384:288,1,90,0|8
272,352,90973,6,0,B|144:232|368:152|240:24,1,360
136,32,91830,1,0
80,128,92002,1,8
168,192,92173,6,0,B|256:240|256:144|344:208,1,180,0|8
392,296,92688,1,0
312,368,92859,1,8
224,304,93030,6,0,B|144:264,1,90,2|0
288,80,93373,2,0,B|368:120,1,90,2|0
216,160,93716,2,0,B|176:80,1,90,2|0
296,224,94059,2,0,B|336:312,1,90,2|0
256,376,94402,5,0
152,352,94573,1,0
96,264,94745,1,8
88,160,94916,2,0,B|96:64|200:32,1,180,0|8
256,136,95430,6,0,B|344:160,1,90,0|8
256,248,95773,2,0,B|168:224,1,90,2|0
184,120,96116,2,0,B|200:32,1,90,2|0
328,264,96459,2,0,B|312:352,1,90,2|0
256,248,96802,1,0
256,136,96973,1,2
256,24,97145,6,0,B|336:64,1,90
408,152,97488,1,8
432,256,97659,2,0,B|408:344|296:360,1,180
192,352,98173,2,0,B|112:304,1,90,8|0
56,216,98516,2,0,B|24:120|104:48,1,180,2|8
456,168,99202,2,0,B|488:264|408:336,1,180,8|2
256,192,99888,12,0,100916
88,80,101259,6,0,B|208:120,1,90,4|0
259,188,101602,2,0,B|299:228|342:185,1,90,8|0
432,119,101945,2,0,B|459:173|427:208,1,90
346,285,102288,1,8
257,350,102459,1,0
224,334,102545,1,0
193,315,102630,1,0
78,339,102802,1,0
71,303,102888,1,0
63,268,102973,1,8
144,107,103145,1,2
320,74,103316,1,0
273,248,103488,1,2
144,107,103659,6,0,B|252:152,1,90,2|0
242,150,103916,1,0
257,158,104002,1,4
258,274,104173,2,0,B|272:319|333:323,2,90,0|8|0
370,236,104688,2,0,B|464:236,1,90
393,140,105030,2,0,B|288:139,1,90,8|0
200,81,105373,2,0,B|106:42|22:116,1,180,2|8
101,337,105888,2,0,B|208:367|270:277,1,180,2|0
265,273,106316,1,0
270,260,106402,1,0
277,248,106488,1,0
286,238,106573,1,0
298,232,106659,1,0
311,229,106745,2,0,B|363:243|396:188,1,90,4|0
328,62,107088,6,0,B|211:62,1,90,8|0
144,131,107430,2,0,B|172:200|140:276,2,135,2|0|8
61,196,108116,1,0
167,246,108288,1,0
268,188,108459,1,8
455,328,108802,1,0
456,59,109145,1,8
257,64,109488,2,0,B|284:21,2,45
151,316,109830,2,0,B|129:363,2,45,8|0|0
416,280,110173,2,0,B|458:303,2,45
130,99,110516,2,0,B|84:64,2,45,8|0|0
202,179,110859,5,2
220,192,110945,1,0
239,203,111030,1,0
259,211,111116,1,0
281,214,111202,1,0
302,208,111288,1,0
322,198,111373,1,0
339,184,111459,1,0
360,176,111545,1,0
382,174,111630,1,0
403,180,111716,1,0
418,196,111802,1,0
427,216,111888,2,0,B|425:327|298:324,1,180,2|4
192,312,112402,6,0,B|120:248,1,90,0|8
124,131,112745,2,0,B|192:72,1,90
312,80,113088,1,8
216,152,113259,1,0
312,224,113430,1,8
256,328,113602,2,0,B|344:368|432:328,1,180,0|8
320,288,114116,2,0,B|240:240|144:272,1,180
64,352,114630,5,8
16,248,114802,1,0
64,144,114973,2,0,B|152:72|152:72|256:-16|256:304|384:184|384:184|464:112,1,540,0|8
176,152,116173,6,0,B|104:208,1,90
336,120,116516,2,0,B|408:56,1,90,0|8
240,344,116859,1,8
272,40,117030,2,0,B|192:128|304:112|224:216,1,180,0|8
168,272,117545,5,0
344,272,117716,1,2
64,192,118059,1,2
448,192,118402,5,0
376,136,118573,1,0
312,200,118745,1,8
240,144,118916,1,0
184,216,119088,2,0,B|152:304|48:328,1,180,0|8
184,168,119773,2,0,B|152:80|48:56,1,180,0|8
256,192,120459,12,0,123202
190,68,135545,5,4
455,146,135888,1,8
405,231,136059,1,0
341,155,136230,1,0
293,242,136402,1,0
227,167,136573,1,8
145,223,136745,1,0
145,223,136830,1,0
146,223,136916,2,0,B|74:223|74:356|167:356,1,180,2|8
366,348,137430,1,2
315,262,137602,1,0
357,172,137773,1,0
317,81,137945,1,8
317,81,138116,1,2
317,81,138288,1,4
70,154,138630,5,8
114,242,138802,1,0
181,170,138973,1,0
232,255,139145,1,0
302,185,139316,1,8
368,258,139488,1,2
390,261,139573,1,0
409,271,139659,1,0
421,289,139745,1,0
423,311,139830,1,2
412,330,139916,1,0
392,342,140002,2,0,B|266:357,1,90,8|0
204,334,140345,1,2
115,177,140516,1,0
302,185,140688,1,2
204,334,140859,2,0,B|204:147,1,180
117,203,141373,5,8
194,265,141545,1,0
290,245,141716,2,0,B|404:291,1,90
358,180,142059,2,0,B|471:180,1,90,8|2
465,165,142316,1,0
476,145,142402,1,0
477,122,142488,1,0
467,102,142573,1,2
448,88,142659,1,0
425,84,142745,2,0,B|323:69,1,90,8|2
258,132,143088,2,0,B|224:166,2,45
339,283,143430,2,0,B|384:241,2,45,8|0|0
257,340,143773,2,0,B|154:352|106:246,1,180,4|8
101,236,144202,5,0
94,214,144288,1,2
96,191,144373,1,0
100,168,144459,2,0,B|199:168,1,90
258,240,144802,1,8
352,269,144973,2,0,B|441:267|456:63|347:41,1,270,2|0
330,140,145659,2,0,B|199:140,1,90,2|8
88,50,146088,1,8
148,312,146345,1,8
160,144,146516,6,0,B|160:96|208:64,1,90
376,32,146859,1,8
248,160,147030,1,0
424,208,147202,1,0
272,312,147373,2,0,B|232:288|224:240,1,90,8|0
200,64,147716,6,0,B|152:48|112:80,1,90,8|0
136,256,148059,2,0,B|184:264|224:240,1,90,0|8
152,160,148402,2,0,B|104:160|64:192,1,90
272,312,148745,2,0,B|312:280|304:232,1,90,0|8
304,56,149088,1,0
304,232,149259,6,0,B|352:224|384:192,2,90,0|0|8
200,224,149773,2,0,B|152:224|120:264,1,90
256,168,150116,2,0,B|272:112|232:80,1,90,8|0
248,280,150459,2,0,B|272:328|320:328,1,90,8|0
400,296,150802,5,0
440,216,150973,1,8
424,128,151145,1,0
352,72,151316,2,0,B|304:48|256:56,1,90,0|2
88,96,151659,2,0,B|64:144|80:184,1,90,0|2
256,168,152002,6,0,B|304:192|312:240,1,90
328,328,152345,1,8
256,384,152516,1,0
168,360,152688,1,0
120,280,152859,1,8
208,272,153030,6,0,B|208:216|152:200,1,90,0|8
32,168,153373,2,0,B|48:120|88:96,1,90,0|0
224,80,153716,2,0,B|272:96|312:64,1,90,8|0
392,24,154059,5,0
480,48,154230,1,0
504,136,154402,1,8
440,200,154573,1,0
360,240,154745,6,0,B|328:272|352:328,1,90
464,344,155088,2,0,B|504:312|496:264,1,90,8|0
360,152,155430,2,0,B|304:152|280:192,1,90,0|8
216,312,155773,2,0,B|168:312|136:272,1,90,0|8
88,200,156116,5,0
112,112,156288,1,0
200,80,156459,1,8
288,112,156630,1,0
432,192,156802,5,2
256,360,157059,1,2
256,24,157316,1,2
186,95,157488,5,4
123,292,157659,2,0,B|169:314|217:282,1,90,0|2
392,289,158002,2,0,B|352:317|307:289,1,90
256,204,158345,1,8
257,302,158516,1,2
256,204,158688,1,0
257,105,158859,1,0
350,73,159030,2,0,B|413:78|418:153,1,90,0|8
166,72,159373,2,0,B|112:75|97:127,1,90
168,308,159716,2,0,B|218:304|229:247,1,90,8|2
344,308,160059,2,0,B|294:304|283:247,1,90
144,165,160402,2,0,B|42:164,1,90,0|8
371,167,160745,2,0,B|485:167,1,90,0|2
293,317,161088,2,0,B|258:359|216:316,1,90,8|0
216,53,161430,2,0,B|257:6|296:55,1,90
256,143,161773,2,0,B|211:230,2,90,0|8|0
256,143,162288,2,0,B|301:229,2,90,0|8|0
253,242,162802,5,0
253,340,162973,2,0,B|154:358|82:286,1,180,4|8
168,233,163488,2,0,B|281:232,1,90,2|0
338,288,163830,2,0,B|415:288|415:234,1,90,8|0
340,182,164173,1,2
340,159,164259,1,0
339,136,164345,1,0
255,83,164516,2,0,B|255:184,1,90,0|8
158,197,164859,1,0
74,250,165030,2,0,B|125:346,1,90,0|8
193,267,165373,2,0,B|272:323,1,90
303,227,165716,2,0,B|402:227,1,90,2|0
407,209,165973,2,0,B|451:223,2,45
404,186,166230,2,0,B|348:197,2,45
425,177,166488,2,0,B|474:201,2,45
403,171,166745,2,0,B|330:190,2,45,0|0|0
399,155,167002,1,0
393,142,167088,5,2
385,131,167173,1,0
376,120,167259,1,0
365,111,167345,1,0
353,103,167430,1,0
340,97,167516,1,0
323,89,167602,1,0
305,83,167688,1,0
287,81,167773,5,0
269,86,167859,1,0
254,96,167945,1,0
241,109,168030,1,0
230,123,168116,1,0
213,130,168202,1,0
194,130,168288,1,0
176,125,168373,1,0
159,117,168459,1,4
256,344,169830,5,2
48,192,171202,5,2
464,192,172573,5,2
256,40,173945,5,2
200,112,174288,1,2
264,176,174630,1,2
224,256,174973,1,2
288,320,175316,1,0
352,192,175659,5,0
160,192,175830,1,2
480,352,176688,6,0,B|448:264,1,90,0|0
312,256,177030,2,0,B|240:192,1,90,8|0
144,104,177373,2,0,B|48:88,1,90,0|8
48,224,177716,2,0,B|104:296,1,90,0|8
256,56,178059,6,0,B|352:32|432:96,1,180,0|8
256,328,178745,2,0,B|160:352|80:288,1,180,0|8
256,192,179430,12,0,180459
445,321,180802,6,0,B|354:287,1,90,4|0
246,316,181145,2,0,B|142:334,1,90,8|0
173,215,181488,2,0,B|78:162,1,90,0|0
197,115,181830,2,0,B|283:62|390:134,1,180,8|0
415,228,182345,1,2
386,341,182516,1,8
284,283,182688,1,0
181,339,182859,1,0
74,291,183030,1,2
142,195,183202,1,8
164,194,183288,1,0
186,194,183373,1,0
208,193,183459,1,0
230,192,183545,2,0,B|283:190|301:146,1,90,4|0
359,44,183888,6,0,B|419:45|419:119,1,90,8|0
361,201,184230,2,0,B|361:299,1,90
254,339,184573,2,0,B|254:282|191:282,1,90,8|0
94,227,184916,2,0,B|94:88,2,135,2|0|2
181,305,185602,1,0
203,301,185688,1,0
223,292,185773,1,0
239,276,185859,1,0
251,256,185945,1,8
259,235,186030,1,0
263,212,186116,1,0
265,189,186202,1,0
263,166,186288,2,0,B|263:50|405:50,1,180,4|8
377,285,186973,6,0,B|271:285|271:285|233:262,2,135
329,177,187659,1,0
242,255,187830,1,0
153,331,188002,1,8
91,231,188173,1,0
91,231,188345,2,0,B|-4:231,1,90
221,156,188688,2,0,B|319:156,1,90,8|0
479,82,189030,2,0,B|386:82,1,90,2|0
149,158,189373,2,0,B|244:158,1,90,8|2
453,259,189716,2,0,B|362:259,1,90,0|2
131,333,190059,2,0,B|226:333,1,90,8|0
339,333,190402,5,2
331,311,190488,1,0
319,292,190573,1,0
302,277,190659,1,0
282,266,190745,1,0
260,258,190830,1,0
238,252,190916,1,2
215,248,191002,1,0
192,246,191088,1,0
169,246,191173,1,0
146,247,191259,1,2
124,254,191345,1,0
102,261,191430,2,0,B|36:188|60:84,1,180,2|4
152,48,191945,6,0,B|208:40|240:80,1,90,0|8
312,184,192288,2,0,B|368:192|392:144,1,90
472,48,192630,2,0,B|504:88|480:136,2,90,8|0|0
336,64,193145,2,0,B|288:64|256:16,2,90,0|0|8
424,168,193659,1,0
368,288,193830,1,0
232,304,194002,1,8
112,232,194173,6,0,B|48:152|80:64,1,180,0|0
216,32,194688,2,0,B|304:16,1,90,0|8
312,152,195030,2,0,B|224:168,1,90
232,304,195373,2,0,B|320:288,2,90,8|0|8
96,336,195888,6,0,B|24:272|24:176,1,180,0|8
416,48,196402,2,0,B|488:112|488:208,1,180,0|8
256,192,196916,1,0
32,40,197259,6,0,B|24:136,1,90
104,240,197602,2,0,B|112:152,1,90,8|0
200,48,197945,2,0,B|288:72|336:168,1,180,0|8
312,336,198459,6,0,B|224:312|176:216,1,180,0|8
480,344,198973,2,0,B|488:248,1,90
408,144,199316,2,0,B|400:232,1,90
256,192,199659,6,0,B|184:248,1,90,8|0
256,192,200002,2,0,B|328:136,1,90
256,192,200345,2,0,B|184:136,1,90,8|0
256,192,200688,2,0,B|328:248,1,90
256,192,201030,12,4,202745
255,66,215088,5,4
135,161,215259,1,0
275,220,215430,1,0
391,319,215602,1,0
120,312,215773,1,0
448,200,215945,1,0
64,200,216116,1,0
191,71,216288,1,0
325,72,216459,2,0,B|398:134,1,90
367,308,216802,1,0
315,335,216888,1,0
257,343,216973,1,0
198,336,217059,1,0
146,308,217145,1,0
256,166,217316,2,0,B|257:67,1,90
392,200,217659,5,0
120,200,217830,1,4
198,37,218002,1,0
353,126,218173,1,0
257,279,218345,1,0
435,256,218516,1,0
77,255,218688,1,0
144,95,218859,1,0
188,56,218945,1,0
244,42,219030,1,0
301,54,219116,1,0
343,94,219202,1,0
243,184,219373,2,0,B|214:242,2,45
351,265,219716,2,0,B|386:314,2,45
234,333,220059,1,0
129,248,220230,1,0
234,333,220402,2,0,B|244:279|203:244,1,90,0|4
48,48,220745,6,0,B|16:88|40:136,1,90
464,48,221088,2,0,B|496:88|472:136,1,90
304,344,221430,1,0
208,248,221602,1,0
304,152,221773,1,0
208,56,221945,1,4
32,192,222116,6,0,B|120:192,1,90
480,192,222459,2,0,B|392:192,1,90
256,344,222802,1,0
304,56,222973,1,0
256,344,223145,1,0
208,56,223316,6,0,B|160:72|136:112,1,90,4|0
256,192,223659,2,0,B|288:224,2,45
304,56,224002,6,0,B|352:72|376:112,1,90,4|0
392,336,224345,1,0
120,336,224516,1,0
48,192,224688,6,8,B|32:152,3,45,8|8|8|8
48,64,225030,2,8,B|96:40,3,45
176,24,225373,2,8,B|232:24,3,45
296,72,225716,6,8,B|328:104,4,45,0|0|0|0|12
